#TITLE:27- Megaman X2;
#SUBTITLE:- Zero_s Rebirth;
#ARTIST:Unknown artist;
#TITLETRANSLIT:;
#SUBTITLETRANSLIT:;
#ARTISTTRANSLIT:;
#CREDIT:;
#BANNER:banner.png;
#BACKGROUND:Background.png;
#LYRICSPATH:;
#CDTITLE:;
#MUSIC:27- Megaman X2 - Zero_s Rebirth.mp3;
#OFFSET:0.000;
#SAMPLESTART:17.238;
#SAMPLELENGTH:12.000;
#SELECTABLE:YES;
#BPMS:0.000=181.000;
#STOPS:;
#BGCHANGES:;
// cache tags:
#FIRSTBEAT:0.333;
#LASTBEAT:109.750;
#SONGFILENAME:Songs/keyboard/27- Megaman X2 - Zero_s Rebirth/27- Megaman X2 - Zero_s Rebirth.sm;
#HASMUSIC:1;
#HASBANNER:1;
#MUSICLENGTH:38.714;
// end cache tags

//---------------dance-single - ----------------
#NOTES:
     dance-single:
     :
     Hard:
     9:
     0.716,0.602,0.439,0.052,0.956,175.000,17.000,2.000,0.000,0.000:








0000
0010
0001
1000
0100
0010
0001
2000
0000
0000
0000
0000
,
3000
0000
0000
1000
0000
0100
0000
0010
0000
0001
0000
1000
0000
0010
0000
0002
0000
0000
0000
0000
0000
0000
0000
0000
,
0000
0000
0000
0000
,
0000
0000
0000
0000
0000
0000
0000
0000
0000
0000
0000
0000
0003
1000
0000
0100
,
0000
1000
0000
0100
0000
1000
0000
0100
0000
1000
0000
0100
0000
1000
0000
0100
,
0000
1000
0000
0100
0000
1000
0000
0100
0000
1000
0000
0100
0000
0001
0000
0010
,
0000
0001
0000
0010
0000
0001
0000
0010
0000
0001
0000
0010
0000
0001
0000
0010
,
0000
0001
0000
0010
0000
0001
0000
0010
0000
0001
0000
0010
0000
0100
0000
0010
,
0000
0100
0000
0010
0000
0100
0000
0010
0000
0100
0000
0010
0000
0100
0000
0010
,
0000
0100
0000
0010
0000
0100
0000
0010
0000
0100
0000
0010
0000
0110
0000
0000
,
0000
0000
0000
1001
0000
0000
0000
0000
0000
1100
0000
0000
0000
0011
0000
0000
,
0000
0000
0000
1001
0000
0000
0000
0000
0000
0110
0000
0000
0000
0000
0010
0000
,
0001
0010
0001
0010
0001
0010
0001
0010
,
0001
0010
0001
0010
0001
0010
0001
0100
,
0001
0100
1000
0100
0001
0100
1000
0100
,
0001
0100
1000
0100
0001
0100
1000
0010
,
0001
0001
0010
0001
0001
0010
0001
0001
,
0010
0000
0001
0000
0001
0000
0010
0000
0001
0000
0001
0000
0010
0000
0000
0110
,
0000
0000
0000
0000
0000
1001
0000
0000
0000
0000
0000
1100
0000
0000
0000
0011
,
0000
0000
0000
0000
0000
0110
0000
0000
0000
0000
0000
1001
0000
0000
0000
0000
,
0001
1000
0010
0100
0001
1000
0010
0100
,
0001
1000
0010
0100
0001
1000
0010
0100
,
0010
0100
0001
0010
0100
0001
0010
0100
,
0001
0010
0100
0001
0010
0100
0001
0010
,
1000
0100
1000
0010
1000
0100
1000
0010
,
1000
0100
1000
0010
1000
0100
1000
0010
,
0000
1010
0000
0000
0000
0000
0000
0101
0000
0000
0000
0000
0000
0110
0000
0000
,
0000
0011
0000
0000
0000
0000
0000
1001
0000
0000
0000
0000
0000
0000
0000
0000
;

//---------------dance-single - ----------------
#NOTES:
     dance-single:
     :
     Medium:
     7:
     0.432,0.530,0.387,0.052,0.452,100.000,15.000,2.000,0.000,0.000:








0000
1000
0100
1000
0100
0010
0001
2000
0000
0000
0000
0000
,
3000
0000
0000
0001
0000
0010
0000
0001
0000
0010
0000
0100
0000
1000
0000
0002
0000
0000
0000
0000
0000
0000
0000
0000
,
0000
0000
0000
0000
,
0000
0000
0000
0003
,
0001
0000
0000
0010
0000
0000
0100
0000
,
0000
1000
0000
0100
0010
0001
0010
0000
,
0000
0010
0000
0000
0100
0000
0000
1000
,
0000
0001
0000
0010
0100
1000
0001
0000
,
0000
0000
0000
1000
0000
0000
0000
0000
0000
0100
0000
0000
0000
0000
0000
0010
,
0000
0000
0000
1000
0000
0000
0000
0100
0000
0010
0000
0001
0000
1000
0000
0000
,
0000
0000
0000
0100
0000
0000
0000
0000
0000
0010
0000
0000
0000
0001
0000
0000
,
0000
0000
0000
1000
0000
0000
0000
0000
0000
0100
0000
0000
0000
0000
0000
0000
,
0000
0100
0000
0000
1000
0000
0000
0010
,
0000
0000
0001
0000
0001
0010
0100
1000
,
0000
0000
0100
0000
0000
0001
0000
0000
,
1000
0000
0100
0000
0010
0001
0010
1000
,
0000
0000
0000
0000
0000
0001
0000
0000
0000
0000
0000
0100
0000
0000
0000
0000
,
0000
0001
0000
0000
0000
0001
0000
0000
0000
0100
0000
1000
0000
0001
0000
0110
,
0000
0000
0000
0000
0000
1001
0000
0000
0000
0000
0000
1100
0000
0000
0000
0011
,
0000
0000
0000
0000
0000
0110
0000
0000
0000
0000
0000
1001
0000
0000
0000
0000
,
0000
0000
0100
0000
0000
0010
0000
0000
,
1000
0000
0000
0001
0000
0010
0100
1000
,
0100
0000
0000
0110
0000
0000
1001
0000
,
0000
1100
0000
0110
0000
0100
0001
1000
,
0001
0000
0000
1000
0000
0000
0100
0000
,
0000
0010
0000
0010
0000
1000
0010
0001
,
1010
0000
0000
0101
0000
0000
0110
0000
,
0011
0000
0000
1001
0000
0000
0000
0000
;

//---------------dance-single - ----------------
#NOTES:
     dance-single:
     :
     Beginner:
     3:
     0.199,0.209,0.000,0.026,0.052,53.000,0.000,1.000,0.000,0.000:








0000
1000
0000
0100
0000
0010
0000
0000
,
0000
0001
0000
0010
0000
0200
0000
0000
,
0000
0000
0000
0000
,
0000
0300
0000
0000
,
0010
0000
0001
0000
,
0010
0000
0100
0000
,
0001
0000
1000
0000
,
0001
0000
0010
0000
,
0100
0000
0001
0000
,
0010
0000
0000
0000
0000
0000
0000
0000
0001
0000
0000
0000
0000
0100
0000
0000
,
0000
0000
0000
1000
0000
0000
0000
0000
0000
0000
0000
0000
0000
0100
0000
0000
,
0000
0000
0000
0010
0000
0000
0000
0000
0000
0000
0000
0000
0000
0000
0001
0000
,
0000
0000
0000
0100
0000
0000
0000
1000
,
0000
0000
0000
0001
0000
0000
0000
0010
,
0000
0000
0000
0100
0000
0000
0000
0100
,
0000
0000
0000
0001
0000
0000
0000
1000
,
0000
0000
0000
0010
0000
0000
0000
0100
,
0000
0000
0000
0001
0000
0000
0000
0010
,
0000
0000
1000
0000
0000
0000
0000
1000
,
0000
0001
0000
0000
,
0000
1000
0000
0001
,
0000
0100
0000
0010
,
0000
1000
0000
0001
,
0000
0010
0000
0010
,
0000
0100
0000
0001
,
0000
1000
0000
0010
,
1000
0000
0000
0010
0000
0000
0000
0000
,
0100
0000
0000
0000
;

//---------------dance-single - STANDARD----------------
#NOTES:
     dance-single:
     STANDARD:
     Easy:
     5:
     0.343,0.318,0.000,0.026,0.336,92.000,0.000,1.000,0.000,0.000:

0000
1000
0000
0010
0000
0100
0000
0000
,
0000
0010
0000
0100
0000
0002
0000
0000
,
0000
0000
0000
0000
,
0000
0000
0000
0003
,
0100
0000
0000
0001
0000
0000
0010
0000
,
0000
0001
0000
1000
0100
0001
0100
0000
,
0000
0100
0000
0000
0001
0000
0000
0100
,
0000
0010
0000
0001
0010
1000
1000
0000
,
0000
0000
0000
0100
0000
0000
0000
0000
0000
1000
0000
0000
0000
0000
0000
0001
,
0000
0000
0000
0100
0000
0000
0000
1000
0000
0001
0000
0010
0000
0100
0000
0000
,
0000
0000
0000
1000
0000
0000
0000
0000
0000
0100
0000
0000
0000
0010
0000
0000
,
0000
0000
0000
0001
0000
0000
0000
0000
0000
0010
0000
0000
0000
0000
0000
0000
,
0000
0010
0000
0000
0100
0000
0000
1000
,
0000
0000
0010
0000
0001
0100
0001
0010
,
0000
0000
1000
0000
0000
0010
0000
0000
,
0100
0000
1000
0000
0100
0010
0001
0100
,
0000
0000
0000
0000
0000
0010
0000
0000
0000
0000
0000
1000
0000
0000
0000
0000
,
0000
0010
0000
0000
0000
0001
0000
0000
0000
0010
0000
0100
0000
0010
0000
0100
,
0000
0000
0000
0000
0000
0001
0000
0000
0000
0000
0000
1000
0000
0000
0000
0001
,
0000
0000
0000
0000
0000
0100
0000
0000
0000
0000
0000
1000
0000
0000
0000
0000
,
0000
0000
0010
0000
0000
0100
0000
0000
,
0010
0000
0000
0100
0000
0001
0010
0100
,
0010
0000
0000
0100
0000
0000
0001
0000
,
0000
1000
0000
0100
0000
0010
0100
0010
,
0100
0000
0000
0100
0000
0000
1000
0000
,
0000
0100
0000
0001
0000
0100
0100
0010
,
1000
0000
0000
0001
0000
0000
0100
0000
,
0010
0000
0000
0001
0000
0000
0000
0000
;

//---------------dance-single - HEAVY----------------
#NOTES:
     dance-single:
     HEAVY:
     Challenge:
     11:
     0.970,0.921,1.000,0.052,0.956,175.000,86.000,2.000,0.000,0.000:

0000
1000
0010
0100
1000
0001
0010
0200
0000
0000
0000
0000
,
0000
0300
0000
0100
0000
1000
0000
0100
0000
0010
0000
0100
0000
1000
0000
0020
0000
0000
0000
0000
0000
0000
0000
0000
,
0000
0000
0000
0000
,
0000
0000
0000
0000
0000
0000
0000
0000
0000
0000
0000
0000
0030
1000
0000
0100
,
0000
1010
0000
0100
0000
0010
0000
1001
0000
0100
0000
1000
0000
0110
0000
0100
,
0000
0001
0000
0011
0000
0100
0000
0110
0000
1100
0000
0110
0000
1010
0000
0100
,
0000
0010
0000
1100
0000
1000
0000
0010
0000
0011
0000
0100
0000
1000
0000
0011
,
0000
0100
0000
0110
0000
0100
0000
1100
0000
1100
0000
0011
0000
1100
0000
0001
,
0000
0100
0000
1100
0000
0100
0000
0010
0000
1010
0000
0010
0000
0001
0000
1010
,
0000
0100
0000
0011
0000
0001
0000
1010
0000
1100
0000
1001
0000
0110
0000
0000
,
0000
0000
0000
1001
0000
0000
0000
0000
0000
1100
0000
0000
0000
0011
0000
0000
,
0000
0000
0000
1001
0000
0000
0000
0000
0000
0110
0000
0000
0000
0000
0010
0000
,
1000
0110
0100
0001
1001
0100
0010
1010
,
1000
0100
0011
0001
1010
0110
1001
0110
,
0001
0010
0110
1000
0010
0101
0010
1000
,
0110
0001
0110
1000
0110
0101
0110
1001
,
0010
0100
1100
0010
0001
0110
1000
0010
,
1010
0000
0100
0000
0101
0000
1000
0000
0110
0000
1001
0000
0101
0000
0000
0110
,
0000
0000
0000
0000
0000
1001
0000
0000
0000
0000
0000
1100
0000
0000
0000
0011
,
0000
0000
0000
0000
0000
0110
0000
0000
0000
0000
0000
1001
0000
0000
0000
0000
,
0001
1000
0110
0100
0001
1001
0010
0100
,
0101
1000
0010
0110
0001
1100
0011
0110
,
1010
0100
0001
0110
0100
0001
0011
0100
,
0100
1100
0010
0101
0010
1100
0011
0110
,
1010
0001
1000
0110
0100
1000
0011
0100
,
0001
0101
0010
1100
0001
0011
0110
1100
,
0000
1010
0000
0000
0000
0000
0000
0101
0000
0000
0000
0000
0000
0110
0000
0000
,
0000
0011
0000
0000
0000
0000
0000
1001
0000
0000
0000
0000
0000
0000
0000
0000
;
