#TITLE:The Fox;
#SUBTITLE:Sexuality Violation;
#ARTIST:Ylvis;
#TITLETRANSLIT:;
#SUBTITLETRANSLIT:;
#ARTISTTRANSLIT:;
#CREDIT:;
#BANNER:The Fox-bn.png;
#BACKGROUND:The Fox-bg.png;
#LYRICSPATH:;
#CDTITLE:;
#MUSIC:Fox.ogg;
#OFFSET:-0.556;
#SAMPLESTART:68.900;
#SAMPLELENGTH:13.710;
#SELECTABLE:YES;
#BPMS:0.000=256.075;
#STOPS:;
#BGCHANGES:;
// cache tags:
#FIRSTBEAT:32.000;
#LASTBEAT:871.500;
#SONGFILENAME:Songs/Sexuality Violation 2/The Fox - [Janus5k]/Fox.sm;
#HASMUSIC:1;
#HASBANNER:1;
#MUSICLENGTH:207.886;
// end cache tags

//---------------dance-single - T. Swag----------------
#NOTES:
     dance-single:
     T. Swag:
     Challenge:
     22:
     1.000,1.000,0.130,0.361,1.000,2178.000,27.000,75.000,0.000,0.000:
0000
0000
0000
0000
,
0000
0000
0000
0000
,
0000
0000
0000
0000
,
0000
0000
0000
0000
,
0000
0000
0000
0000
,
0000
0000
0000
0000
,
0000
0000
0000
0000
,
0000
0000
0000
0000
,
1001
1000
0100
1000
,
0002
0103
0020
1030
,
0001
0010
0100
1000
0001
1000
0100
0010
0001
0000
0000
0000
1000
0000
0000
0000
,
0200
0310
0002
1003
,
0001
0100
0010
1000
0001
1000
0010
0100
0001
0000
0000
0000
1000
0000
0000
0000
,
0020
0130
0002
1003
,
0100
0010
0001
1000
0001
1000
0100
0010
0002
0000
0000
0000
1003
0000
0000
0000
,
0020
0130
0002
1003
,
0010
0100
0001
1000
0001
1000
0010
0100
0001
0000
0000
0000
1000
0000
0000
0000
,
0200
0310
0002
1003
,
0100
0010
0100
1000
0001
1000
0100
0010
0001
0000
0000
0000
1000
0000
0000
0000
,
0200
0310
0002
0103
,
0010
0100
0010
1000
0001
1000
0010
0100
0001
1000
0001
0100
0010
1000
0001
1000
,
0100
0020
0032
2003
,
3010
0200
0301
2000
,
3100
0000
0000
0000
0020
0000
0000
0000
0031
0000
0000
0000
0010
0100
0010
0001
,
1000
0001
0010
0100
1000
0001
0010
0001
1000
0100
0010
0001
1000
0001
0100
0010
,
2000
0000
0000
0000
3020
0000
0000
0000
0130
0010
1000
0010
0100
0001
1000
0001
,
0100
0010
1000
0002
,
2003
0000
0000
0000
3200
0000
0000
0000
0310
0001
1000
0001
0010
0100
1000
0100
,
0010
0001
1000
0001
0100
0010
0100
0001
1000
0010
1000
0001
0100
0010
1000
0001
,
1000
0200
0320
0032
,
1003
0000
0000
0000
0020
0000
0000
0000
0130
0000
0000
0000
0001
0100
0010
1000
,
0001
1000
0010
0100
0001
1000
0100
0010
0001
0010
0100
1000
0001
0100
0010
0100
,
0001
0001
1000
1100
,
0110
0011
1001
0001
,
0100
0100
0010
1010
,
1001
1100
0110
0011
,
0010
0010
0001
0001
,
1000
1000
0010
0010
,
0100
0001
0010
0001
0100
0010
1000
0100
,
0010
0000
0002
0000
,
1003
0100
0010
0001
1000
0010
0100
0010
1000
0001
0100
0001
1000
0100
1000
0001
,
0010
0100
0010
0001
0100
0001
0010
0100
0010
0001
0100
0001
0010
0100
1000
0001
,
1000
0010
0100
0001
0010
0100
0010
0001
1000
0100
1000
0001
0100
0010
1000
0010
,
0100
0001
1000
0001
0010
0001
0100
0010
0100
0001
0010
0001
0100
0010
0100
0001
,
1000
0100
0010
0001
1000
0100
1000
0001
0100
0010
0100
0001
1000
0010
0100
0001
,
1000
0100
0010
0001
0100
0001
0010
0100
0010
0001
0100
0001
0010
0100
1000
0001
,
1000
1000
0010
1000
,
0001
0000
2000
0000
,
3001
0010
0100
1000
0001
0010
0001
1000
0010
0100
0010
1000
0001
0100
0010
0100
,
0001
0010
0100
1000
0010
1000
0100
0010
0001
1000
0001
0010
0100
1000
0001
0100
,
0010
1000
0100
1000
0010
0100
0001
0100
0010
1000
0001
1000
0100
0010
0100
1000
,
0001
0010
0100
1000
0010
1000
0100
0010
0001
1000
0001
0100
0010
0100
0001
1000
,
0010
0100
0001
1000
0010
1000
0001
0010
0100
0010
0001
1000
0001
0010
0100
1000
,
0001
0100
0010
1000
0100
1000
0010
0100
0001
1000
0001
0100
0010
1000
0001
1000
,
0100
0100
0010
0001
,
1000
0000
0200
0000
,
0310
0001
1000
0001
0100
0010
0100
0001
0010
0001
1000
0001
0100
0010
0100
0001
,
0010
0001
1000
0010
0100
0001
0010
0100
0010
0001
1000
0100
1000
0010
1000
0001
,
0100
0001
1000
0001
0010
0100
0010
0001
0100
0001
1000
0001
0010
0100
0010
0001
,
0100
0001
1000
0100
0010
0001
0100
0010
0100
0001
1000
0010
1000
0100
1000
0001
,
0010
0100
1000
0001
0100
0010
0100
0001
0010
0100
1000
0001
0100
0010
0100
0001
,
0010
0100
1000
0001
0100
0001
0010
0100
1000
0010
0100
0001
1000
0001
0100
0010
,
1000
1000
0100
0010
,
0001
0000
2000
0000
,
3001
0100
0010
1000
0100
0010
0100
1000
0001
0100
0010
1000
0100
0010
0100
1000
,
0001
0100
0010
1000
0100
1000
0010
0100
0001
0010
0100
1000
0010
0100
0010
1000
,
0001
1000
0100
0010
0001
0100
0010
0100
0001
1000
0100
0010
0001
0100
0010
0100
,
0001
1000
0100
1000
0010
1000
0100
0010
0001
0100
0010
1000
0100
0010
0001
1000
,
0001
0100
0001
0010
0100
1000
0010
1000
0001
0100
0001
0010
0100
1000
0010
1000
,
0001
0100
0001
1000
0100
1000
0010
0100
0001
0010
0100
1000
0010
1000
0001
0100
,
0010
0010
1000
0100
,
0010
0000
0000
0000
0000
0000
0000
0000
0000
0000
0000
0000
0000
0000
0000
0000
0002
0000
0000
0000
0000
0000
0000
0000
0000
0000
0000
0000
0000
0000
0000
0003
,
0101
0100
0001
0100
0010
1000
0001
0010
,
0100
1000
0001
1000
0010
0100
0010
1000
,
0001
0010
0001
1000
0100
0010
0001
1000
,
0010
0100
0010
1000
0001
0100
0001
1000
,
0100
0010
0001
1000
0100
0010
0001
1000
,
0010
0100
0010
1000
0100
0010
0001
1000
,
0010
0100
0001
0100
0010
1000
0100
0010
,
0001
1000
0100
1000
0001
0100
0010
1000
,
0001
0010
0001
0010
0100
1000
0001
0100
,
0010
1000
0001
1000
0100
0010
0100
1000
,
0001
0100
0001
1000
0010
0100
0001
1000
,
0100
0010
0100
1000
0001
0010
0001
1000
,
0010
0100
0001
1000
0010
0100
0001
1000
,
0010
0100
0001
0010
0100
1000
0010
1000
,
0001
0100
0001
0010
0100
1000
0001
0010
,
0001
0010
0100
1000
0010
1000
0002
0000
,
0000
0000
0000
2003
,
3200
0320
0032
0000
,
0000
0000
0000
2003
,
3020
0230
0302
2003
,
0000
0000
0000
0000
,
3000
0002
0023
0230
,
0000
2300
0000
3002
,
0000
0000
0000
0000
0000
0000
0000
0000
0203
0000
0000
0000
0000
0000
0000
0000
0000
0000
0000
0000
0000
0000
0000
0000
0320
0000
0000
0000
0000
0000
0000
0030
,
1010
0000
1001
1000
,
1100
0100
0110
0000
,
0011
0000
1001
1000
,
1010
0010
0110
0100
,
1001
0000
0011
0000
,
1100
0100
0011
1000
,
1010
0000
0110
0010
,
1001
1000
1100
0000
,
0100
0010
0001
1000
0001
0000
0010
0100
1000
0001
1000
0000
0010
0100
0001
1000
,
0001
0000
0100
0010
1000
0001
1000
0000
0100
0010
0001
1000
0001
0100
0010
0000
,
0100
0010
1000
0001
1000
0000
0010
0100
0001
1000
0001
0000
0010
0100
1000
0001
,
1000
0000
0100
0010
0001
1000
0001
0000
0010
0100
1000
0001
0100
0010
1000
0000
,
0001
0100
0010
1000
0001
0000
1000
0010
0100
0001
1000
0000
0001
0010
0100
1000
,
0001
0000
1000
0100
0020
0000
0000
0000
0032
0000
0000
0000
2003
0000
0000
0000
,
0000
3020
0000
0230
,
0000
0302
0000
0000
,
1003
0100
0010
0001
0100
0000
0001
0100
0010
1000
0100
0000
0010
0100
1000
0010
,
0100
0000
0010
0100
0001
0010
0100
0000
1000
0100
0010
0001
0100
0010
1000
0000
,
0001
0100
0010
1000
0100
0000
1000
0100
0010
0001
0100
0000
0010
0100
0001
0010
,
0100
0000
0010
0100
1000
0010
0100
0000
0001
0100
0010
1000
0100
0010
0001
0000
,
1000
0100
1000
0001
0100
0000
0001
0100
0001
1000
0100
0000
0010
0001
1000
0010
,
1000
0000
0010
1000
0001
0010
0001
0000
0010
0100
1000
0010
0100
0001
1000
0000
,
0100
0010
0001
0100
0010
0100
0001
0010
0100
1000
0001
1000
0010
0100
0001
0100
,
0010
0000
2000
0000
,
3001
0010
0100
1000
0010
0100
0010
1000
0001
0010
0100
1000
0010
0100
0010
1000
,
0100
0010
0001
1000
0010
1000
0100
0010
0001
1000
0010
1000
0001
0100
0010
1000
,
0100
1000
0010
0100
0001
0100
0010
1000
0100
0010
0100
1000
0001
0100
0010
1000
,
0100
1000
0001
0010
0100
1000
0010
0100
0010
1000
0001
1000
0100
0010
0001
1000
,
0001
0100
0010
1000
0100
0010
0100
1000
0001
0100
0010
1000
0100
0010
0100
1000
,
0010
1000
0001
0100
0010
1000
0100
1000
0001
0010
0100
1000
0001
1000
0010
0100
,
0001
0001
1000
0100
,
0010
0000
0002
0000
,
0103
0001
0010
0001
1000
0010
0100
0001
0010
0001
1000
0010
0100
0001
0010
0001
,
1000
0010
0100
0001
0010
0001
1000
0010
0100
0001
0010
0100
0010
0001
1000
0001
,
0100
0001
0010
0100
1000
0001
0100
0001
0010
0100
1000
0001
0100
0001
0010
0100
,
1000
0001
0100
0001
0010
0100
1000
0001
0100
0010
1000
0100
0010
0001
1000
0100
,
0010
0001
0100
0001
1000
0100
0010
0001
0100
0001
1000
0100
0010
0001
0100
0001
,
1000
0100
0010
0001
0100
0001
1000
0100
0010
0001
0100
0010
1000
0010
0100
0001
,
1000
1000
0100
0010
,
0001
0000
0000
0000
0000
0000
0000
0000
2000
0000
0000
0000
0000
0000
3010
1000
,
0100
1000
0010
0100
0001
0010
0001
1000
0100
1000
0010
0100
0001
0100
0010
1000
,
0100
0010
0001
0100
0010
1000
0001
0100
0001
1000
0100
0010
0001
1000
0100
1000
,
0010
0100
0001
0010
0001
1000
0100
1000
0001
1000
0010
0100
0001
0100
0010
1000
,
0100
0010
0001
0100
0010
1000
0100
0010
0001
1000
0001
0100
0010
0100
0001
0010
,
0100
1000
0010
1000
0001
0100
0001
0010
0100
1000
0010
1000
0001
0100
0010
1000
,
0100
0010
0001
0100
0010
1000
0001
1000
0100
0010
0001
0100
0001
0010
0100
1000
,
0001
0001
1000
0010
,
0100
0000
0000
0000
0000
0000
0000
0000
0002
0000
0000
0000
1003
0100
0010
0001
,
0100
0010
0100
0001
0010
0100
0010
0001
0100
0010
0100
0001
1000
0100
1000
0001
,
0010
0100
1000
0001
0100
0010
0100
0001
1000
0010
0100
0001
1000
0100
0010
0100
,
1000
0010
0100
0010
1000
0100
0010
0001
0100
0010
0100
0001
0010
0100
1000
0001
,
1000
0010
0100
0010
1000
0100
0010
0100
1000
0001
0100
0010
1000
0010
0100
0001
,
0010
0100
0010
0001
0100
0010
0100
0001
0010
0100
0010
0001
1000
0010
1000
0001
,
0100
0010
1000
0001
0010
0100
0010
0001
1000
0100
0010
0001
0100
0010
1000
0100
,
0010
0001
1000
0001
,
0100
0000
0020
0000
,
0130
0001
0010
0100
1000
0010
0100
0001
,
0010
0100
1000
0010
0100
0001
1000
0001
,
0010
0100
1000
0001
0100
0001
1000
0100
,
0010
0001
0100
0001
1000
0010
0100
0001
,
0010
0100
0010
0001
0100
0001
0010
0100
,
0010
0001
0100
0001
1000
0010
0100
0001
,
1000
0100
1000
0001
0010
0001
0100
0010
,
1000
0010
0100
0001
0010
0100
1000
0001
,
0100
0010
1000
0001
0100
0010
1000
0001
,
1000
0100
0010
0001
1000
0100
0010
0001
,
0100
0010
0100
0001
0010
0001
0100
0010
,
0100
0001
0010
0100
1000
0001
0100
0001
,
1000
0100
0010
0001
1000
0010
0100
0010
,
1000
0100
0010
0001
1000
0010
0100
0001
,
0010
0100
0010
0001
0100
0010
1000
0001
,
1000
0100
0010
0001
1000
0001
0100
0010
,
1000
0100
0010
0001
1000
0001
0100
0010
1000
0001
0100
0001
,
1000
0100
0010
0100
1000
0001
0100
0010
1000
0001
1000
0010
,
1000
0100
0010
0001
1000
0001
0010
0100
1000
0010
0100
0001
,
0100
0010
1000
0100
0010
0001
1000
0001
0100
0010
1000
0010
,
0100
0001
1000
0001
0100
0010
1000
0100
0010
0001
1000
0001
,
0100
0010
0100
0001
1000
0001
0010
0100
1000
0001
1000
0001
,
0100
0010
1000
0001
0100
0001
0010
0100
0010
0001
0100
0010
,
1000
0001
1000
0100
0010
0001
1000
0100
1000
0001
0010
0001
,
1000
0010
0100
0001
1000
0001
0010
0100
0010
0001
1000
0100
,
1000
0010
0100
0001
1000
0001
0010
0100
0010
0001
0100
0010
,
1000
0001
1000
0100
0010
0001
1000
0010
1000
0100
0010
0001
,
1000
0001
1000
0010
0100
0010
1000
0001
1000
0100
0010
0001
,
1000
0100
0010
0001
1000
0100
1000
0001
0100
0010
1000
0010
0100
0001
1000
0001
,
0010
0100
0010
0001
1000
0100
0010
0001
1000
0001
0100
0010
0100
0001
1000
0001
,
0010
0100
1000
0100
0010
0001
1000
0001
0100
0010
0100
0001
1000
0010
0100
0001
,
1000
0001
0010
0100
1000
0010
1000
0001
2000
0000
0000
0000
0000
0000
0000
0000
,
3001
0010
0100
1000
0001
1000
0010
0100
0001
0100
0010
1000
0100
0010
0001
1000
,
0001
0100
0010
0100
0001
1000
0010
0100
0001
1000
0100
1000
0001
0010
0100
1000
,
0001
1000
0010
0100
0010
1000
0001
1000
0001
0010
0100
1000
0010
0100
0001
1000
,
0001
0010
0100
1000
0001
0010
0001
1000
0010
0100
0001
1000
0001
0100
0010
1000
,
0001
1000
0100
0010
0001
1000
0001
0100
0010
0100
0001
1000
0100
0010
0001
0100
,
0010
1000
0010
0100
0001
1000
0010
1000
0001
0010
0100
1000
0001
1000
0100
0010
,
0002
0000
2003
3020
,
0000
0230
0000
0302
,
0000
0000
0000
0000
1003
0100
0010
0001
1000
0100
1000
0001
0010
0100
1000
0001
,
1000
0010
0100
0010
1000
0001
0100
0010
1000
0100
0010
0001
1000
0100
1000
0001
,
0100
0010
0100
0001
1000
0001
0100
0010
1000
0100
0010
0001
1000
0100
1000
0001
,
0010
0100
1000
0001
0100
0010
0100
0001
1000
0010
0100
0001
1000
0001
0010
0100
,
1000
0001
1000
0010
0100
0010
1000
0100
0010
0001
1000
0001
0100
0010
0100
0001
,
1000
0001
0010
0100
0010
0001
1000
0001
0100
0010
1000
0010
0100
0001
1000
0100
,
0020
0000
0000
0032
,
0000
0000
0000
0000
2003
0000
0000
0000
0000
0000
0000
0000
3010
1000
0010
1000
,
0001
1000
0100
0010
0001
0010
0100
1000
0001
1000
0010
1000
0100
0010
0001
1000
,
0001
0100
0010
0100
0001
1000
0100
1000
0010
0100
0001
0100
0010
0100
0001
1000
,
0001
0010
0100
0010
0001
1000
0100
0010
0001
1000
0100
1000
0010
0100
0001
1000
,
0100
0010
0100
1000
0001
0100
0001
0010
0100
1000
0100
0010
0100
1000
0001
1000
,
0010
0100
0001
1000
0001
0100
0010
1000
0001
0010
0100
1000
0010
1000
0001
0100
,
0001
1000
0100
0010
0001
1000
0010
1000
0100
0010
0001
0010
0100
1000
0001
1000
,
0020
0000
0230
0302
,
0000
0000
0000
0000
2003
0000
0000
0000
0000
0000
0000
0000
3100
0010
0100
0010
,
0001
1000
0100
1000
0001
0010
0100
1000
0001
0010
0001
0100
0010
1000
0001
0010
,
0100
0010
0001
1000
0100
1000
0010
0100
0001
0100
0010
1000
0001
0100
0010
1000
,
0100
0010
0100
1000
0001
0010
0001
1000
0100
0010
0001
0100
0010
1000
0010
0100
,
0001
0100
0001
0010
0100
1000
0100
0010
0001
0010
0001
0100
0010
1000
0010
0100
,
0001
0010
0100
1000
0001
0010
0001
1000
0100
0010
0001
0100
0010
1000
0010
0100
,
0001
0100
0001
0010
0100
1000
0100
0010
0001
0010
0001
0100
0010
1000
0010
0100
,
0001
0010
0100
1000
0001
1000
0100
0010
0001
1000
0001
0100
0010
1000
0010
0100
,
0001
1000
0001
0010
0100
1000
0100
0010
0001
1000
0001
0100
0010
1000
0100
0010
,
0002
0000
0000
0000
0000
0000
0000
1003
0010
1000
0100
0010
0001
0100
0010
1000
,
0100
0010
0001
0100
0010
0100
0001
0010
0100
1000
0010
1000
0100
0010
0001
0000
;

//---------------dance-single - Expert----------------
#NOTES:
     dance-single:
     Expert:
     Hard:
     17:
     1.000,1.000,0.154,0.399,1.000,1839.000,32.000,83.000,0.000,0.000:
0000
0000
0000
0000
,
0000
0000
0000
0000
,
0000
0000
0000
0000
,
0000
0000
0000
0000
,
0000
0000
0000
0000
,
0000
0000
0000
0000
,
0000
0000
0000
0000
,
0000
0000
0000
0000
,
1001
1000
0100
1000
,
0002
0103
0020
1030
,
0001
0010
0100
1000
0001
1000
0100
0010
0001
0000
0000
0000
1000
0000
0000
0000
,
0200
0310
0002
1003
,
0001
0100
0010
1000
0001
1000
0010
0100
0001
0000
0000
0000
1000
0000
0000
0000
,
0020
0130
0002
1003
,
0100
0010
0001
1000
0001
1000
0100
0010
0002
0000
0000
0000
1003
0000
0000
0000
,
0020
0130
0002
1003
,
0010
0100
0001
1000
0001
1000
0010
0100
0001
0000
0000
0000
1000
0000
0000
0000
,
0200
0310
0002
1003
,
0100
0010
0100
1000
0001
1000
0100
0010
0001
0000
0000
0000
1000
0000
0000
0000
,
0200
0310
0002
0103
,
0010
0100
0010
1000
0001
1000
0010
0100
0001
1000
0001
0100
0010
1000
0001
1000
,
0100
0020
0032
2003
,
3010
0200
0301
2000
,
3100
0000
0000
0000
0020
0000
0000
0000
0031
0000
0000
0000
0010
0100
0010
0001
,
1000
0001
0010
0100
1000
0001
0010
0001
1000
0100
0010
0001
1000
0001
0100
0010
,
2000
0000
0000
0000
3020
0000
0000
0000
0130
0010
1000
0010
0100
0001
1000
0001
,
0100
0010
1000
0002
,
2003
0000
0000
0000
3200
0000
0000
0000
0310
0001
1000
0001
0010
0100
1000
0100
,
0010
0001
1000
0001
0100
0010
0100
0001
1000
0010
1000
0001
0100
0010
1000
0001
,
1000
0200
0320
0032
,
1003
0000
0000
0000
0020
0000
0000
0000
0130
0000
0000
0000
0001
0100
0010
1000
,
0001
1000
0010
0100
0001
1000
0100
0010
0001
0010
0100
1000
0001
0100
0010
0100
,
0001
0001
1000
1100
,
0110
0011
1001
0001
,
0100
0100
0010
1010
,
1001
1100
0110
0011
,
0010
0010
0001
0001
,
1000
1000
0010
0010
,
0100
0001
0010
0001
0100
0010
1000
0100
,
0010
0000
0002
0000
,
1003
0010
1000
0001
0100
0010
1000
0001
0100
0010
0100
0001
1000
0001
0010
0100
,
1000
0001
1000
0100
0010
0001
1000
0001
0100
0010
1000
0001
1000
0000
0000
0000
,
0001
0000
0100
0000
0010
1000
0010
0100
0001
1000
0001
0100
0010
1000
0001
1000
,
0100
0010
0001
1000
0001
0010
0100
0010
0001
1000
0100
0010
0001
0000
0000
0000
,
1000
0010
1000
0001
0100
0010
1000
0001
0100
0010
0100
0001
1000
0001
0010
0100
,
1000
0001
1000
0100
0010
0001
1000
0001
0100
0010
1000
0001
1000
0000
0000
0000
,
0001
0001
0100
0001
,
1000
0000
0002
0000
,
1003
0100
0010
0001
1000
0100
1000
0001
1000
0010
0100
0001
1000
0010
0100
0010
,
1000
0001
1000
0100
0010
0001
2000
0000
0000
0000
0000
0000
3001
0000
0000
0000
,
0100
0000
0010
0000
1000
0010
0100
0001
1000
0001
0100
0010
1000
0001
1000
0100
,
0010
0001
1000
0001
0010
0100
2000
0000
0000
0000
0000
0000
3001
0000
0000
0000
,
0100
0010
0100
0001
1000
0010
1000
0001
0100
0010
1000
0001
1000
0100
0010
0001
,
1000
0100
1000
0001
0010
0100
2000
0000
0000
0000
0000
0000
3001
0000
0000
0000
,
0100
0100
0010
1000
,
0001
0000
0200
0000
,
0310
1000
0001
1000
0100
0010
0001
1000
0100
1000
0001
1000
0010
0100
0001
1000
,
0010
0100
0001
1000
0001
0100
0020
0000
0000
0000
0000
0000
0000
0000
0000
0000
,
1030
0100
1000
0001
0010
0100
1000
0001
1000
0010
1000
0001
0100
0010
1000
0001
,
1000
0100
0010
0001
1000
0001
0200
0000
0000
0000
0000
0000
0000
0000
0000
0000
,
0301
0100
0010
1000
0010
0100
0001
1000
0001
0010
0100
1000
0100
0010
0001
1000
,
0001
0100
0010
0100
0001
1000
0002
0000
0000
0000
0000
0000
0000
0000
0000
0000
,
1003
1000
0100
0010
,
0001
0000
2000
0000
,
3001
0010
0100
0010
0001
1000
0100
1000
0001
0100
0001
1000
0010
0100
0010
1000
,
0001
1000
0100
0010
0001
1000
0001
0100
0010
1000
0001
1000
0001
0000
0000
0000
,
1000
0000
0001
0000
0010
0100
0010
0001
1000
0100
0010
0001
1000
0001
0100
0001
,
1000
0010
1000
0001
0100
0010
1000
0001
1000
0100
0010
0001
1000
0000
0000
0000
,
0001
0010
0001
1000
0100
0010
0001
1000
0001
0100
0010
0100
0001
1000
0010
0100
,
0001
1000
0001
0010
0100
1000
0001
1000
0010
0100
0001
1000
0001
0000
0000
0000
,
0100
0100
0001
0010
,
0100
0000
0000
0000
0000
0000
0000
0000
0000
0000
0000
0000
0000
0000
0000
0000
2000
0000
0000
0000
0000
0000
0000
0000
0000
0000
0000
0000
0000
0000
0000
3000
,
1010
0010
1000
0010
0100
0001
1000
0100
,
0010
0001
1000
0001
0100
0010
0100
0001
,
1000
0100
1000
0001
0010
0100
1000
0001
,
0100
0010
0100
0001
1000
0010
1000
0001
,
0010
0100
1000
0001
0010
0100
1000
0001
,
0100
0010
0100
0001
0010
0100
1000
0001
,
0100
0010
1000
0010
0100
0001
0010
0100
,
1000
0001
0010
0001
1000
0010
0100
0001
,
1000
0100
1000
0100
0010
0001
1000
0010
,
0100
0001
1000
0001
0010
0100
0010
0001
,
1000
0010
1000
0001
0100
0010
1000
0001
,
0010
0100
0010
0001
1000
0100
1000
0001
,
0100
0010
1000
0001
0100
0010
1000
0001
,
0100
0010
1000
0100
0010
0001
0100
0001
,
1000
0010
1000
0100
0010
0001
1000
0100
,
1000
0100
0010
0001
0100
0001
2000
0000
,
0000
0000
0000
3002
,
0023
0230
2300
0000
,
0000
0000
0000
3002
,
0203
0320
2030
3002
,
0000
0000
0000
0000
,
0003
2000
3200
0320
,
0000
0032
0000
2003
,
0000
0000
0000
0000
0000
0000
0000
0000
3020
0000
0000
0000
0000
0000
0000
0000
0000
0000
0000
0000
0000
0000
0000
0000
0230
0000
0000
0000
0000
0000
0000
0300
,
0101
0000
1001
0001
,
0011
0010
0110
0000
,
1100
0000
1001
0001
,
0101
0100
0110
0010
,
1001
0000
1100
0000
,
0011
0010
1100
0001
,
0101
0000
0110
0100
,
1001
0001
0011
0000
,
0010
0001
0010
0000
0000
0000
0001
1000
0001
0000
0000
0000
1000
0010
1000
0000
,
0000
0000
0001
0100
0001
0000
0000
0000
1000
0100
0010
0001
1000
0000
0000
0000
,
0001
0100
0001
0000
0000
0000
1000
0010
1000
0000
0000
0000
0100
0010
0100
0000
,
0000
0000
1000
0001
1000
0000
0000
0000
0001
0100
0010
1000
0001
0000
0000
0000
,
1000
0100
1000
0000
0000
0000
0001
0010
0001
0000
0000
0000
0100
0010
0100
0000
,
0000
0000
0001
0010
0200
0000
0000
0000
2300
0000
0000
0000
3002
0000
0000
0000
,
0000
0203
0000
0320
,
0000
2030
0000
0000
,
3001
0010
0001
0000
0000
0000
1000
0100
1000
0000
0000
0000
0001
0100
0001
0000
,
0000
0000
0100
0010
0100
0000
0000
0000
0001
1000
0100
0010
0001
0000
0000
0000
,
1000
0100
1000
0000
0000
0000
0001
0010
0001
0000
0000
0000
0100
0010
0100
0000
,
0000
0000
0001
1000
0001
0000
0000
0000
1000
0001
0100
0010
1000
0000
0000
0000
,
0001
0010
0001
0000
0000
0000
1000
0100
1000
0000
0000
0000
0010
0100
0010
0000
,
0000
0000
1000
0001
1000
0000
0000
0000
0100
0010
0001
1000
0001
0000
0000
0000
,
1010
1000
1001
0001
0011
0010
1100
0100
,
1001
0000
2000
0000
,
3001
0100
0010
1000
0001
1000
0010
0100
0001
1000
0001
0010
0100
1000
0100
0010
,
0001
1000
0001
0100
0010
1000
0002
0000
0000
0000
0000
0000
0003
0000
0000
0000
,
1000
0000
0001
0000
0010
0000
0100
0010
0001
1000
0001
0010
0100
1000
0001
1000
,
0010
0100
0001
0100
0010
1000
0002
0000
0000
0000
0000
0000
0000
0000
0000
0000
,
1003
0010
0100
0001
1000
0001
0100
0010
1000
0001
1000
0100
0010
0001
0010
0100
,
1000
0001
1000
0010
0100
0001
2000
0000
0000
0000
0000
0000
3000
0000
0000
0000
,
0001
0001
1000
0100
,
0010
0000
0002
0000
,
0103
0001
1000
0010
1000
0001
0100
0010
1000
0001
1000
0001
0010
0100
1000
0001
,
1000
0100
0010
0001
1000
0001
1000
0010
0200
0000
0000
0000
0300
0000
0000
0000
,
0001
0100
0010
1000
0010
0100
0001
1000
0010
0100
0010
1000
0001
1000
0100
0010
,
0100
0010
0001
1000
0100
1000
0100
0010
0002
0000
0000
0000
0003
0000
0000
0000
,
1000
0010
0100
0010
0100
0001
1000
0001
0100
0010
0100
0001
1000
0001
0010
0100
,
0010
0001
1000
0100
0010
0100
1000
0001
2000
0000
0000
0000
0000
0000
0000
0000
,
3001
0001
0010
0100
,
1000
0000
0000
0000
0002
0000
0000
0103
,
0010
1000
0001
1000
0100
0010
0001
1000
0100
0010
0001
1000
0001
0100
0010
2000
,
0000
0000
0000
0000
0000
0000
0000
0000
3001
0000
0000
0000
1000
0000
0001
0010
,
0100
1000
0001
1000
0100
0010
0100
1000
0001
1000
0010
0100
0010
1000
0002
0000
,
0000
0000
1003
0001
,
1000
0010
1000
0001
0100
0001
1000
0001
0010
0100
1000
0001
1000
0100
0020
0000
,
0000
0000
0031
1000
,
0001
0001
1000
0010
,
0100
0000
0000
0000
0000
0000
0000
0000
0002
0000
0000
0000
1003
0100
0010
0001
,
1000
0010
1000
0001
0100
0010
0100
0001
1000
0100
0010
0100
2000
0000
0000
0000
,
0000
3002
0000
0000
,
0000
0000
0000
0000
0103
0010
1000
0010
0100
0001
1000
0001
0010
0100
1000
0001
,
2000
0000
0000
0000
0000
0000
0000
0000
3001
0100
0010
1000
0001
0000
0000
0000
,
0100
0010
0100
0001
1000
0100
1000
0001
0010
0100
1000
0100
0020
0000
0000
0000
,
0000
0032
0000
0000
,
0013
0001
1000
0001
,
0100
0000
0020
0000
,
0130
0001
0010
0100
1000
0010
0100
0001
,
0010
0100
1000
0010
0100
0001
1000
0001
,
0010
0100
1000
0001
0100
0001
1000
0100
,
0010
0001
0100
0001
1000
0010
0100
0001
,
0010
0100
0010
0001
0100
0001
0010
0100
,
0010
0001
0100
0001
1000
0010
0100
0001
,
1000
0100
1000
0001
0010
0001
0100
0010
,
1000
0010
0100
0001
0010
0100
1000
0001
,
0100
0010
1000
0001
0100
0010
1000
0001
,
1000
0100
0010
0001
1000
0100
0010
0001
,
0100
0010
0100
0001
0010
0001
0100
0010
,
0100
0001
0010
0100
1000
0001
0100
0001
,
1000
0100
0010
0001
1000
0010
0100
0010
,
1000
0100
0010
0001
1000
0010
0100
0001
,
0010
0100
0010
0001
0100
0010
1000
0001
,
1000
0100
0010
0001
1000
0001
0100
0010
,
1000
0100
0010
0001
1000
0001
0100
0010
1000
0001
0100
0001
,
1000
0100
0010
0100
1000
0001
0100
0010
1000
0001
1000
0010
,
1000
0100
0010
0001
1000
0001
0010
0100
1000
0010
0100
0001
,
0100
0010
1000
0100
0010
0001
1000
0001
0100
0010
1000
0010
,
0100
0001
1000
0001
0100
0010
1000
0100
0010
0001
1000
0001
,
0100
0010
0100
0001
1000
0001
0010
0100
1000
0001
1000
0001
,
0100
0010
1000
0001
0100
0001
0010
0100
0010
0001
0100
0010
,
1000
0001
1000
0100
0010
0001
1000
0100
1000
0001
0010
0001
,
1000
0010
0100
0001
1000
0001
0010
0100
0010
0001
1000
0100
,
1000
0010
0100
0001
1000
0001
0010
0100
0010
0001
0100
0010
,
1000
0001
1000
0100
0010
0001
1000
0010
1000
0100
0010
0001
,
1000
0001
1000
0010
0100
0010
1000
0001
1000
0100
0010
0001
,
1000
0010
1000
0001
0010
0001
1000
0010
1000
0100
0010
0001
,
1000
0100
1000
0001
0100
0001
1000
0100
1000
0010
0100
0001
,
0010
0100
1000
0100
0010
0001
1000
0001
0100
0010
0100
0001
1000
0010
0100
0001
,
1000
0001
0010
0100
1000
0010
1000
0001
2000
0000
0000
0000
0000
0000
0000
0000
,
3001
0010
0100
1000
0001
1000
0010
0100
0001
0010
0100
0010
,
0001
1000
0010
0100
0010
1000
0001
0010
0100
0010
0001
1000
,
0001
0100
0010
1000
0001
1000
0100
0010
0001
0100
0010
0100
,
0001
1000
0100
0010
0001
1000
0010
0100
0010
1000
0001
1000
,
0100
0010
0001
1000
0001
0100
0010
0100
0001
0010
0100
1000
,
0001
1000
0010
0100
0001
1000
0001
0010
0100
0010
0001
1000
,
0001
0100
0001
1000
0001
0100
0010
1000
0100
0010
0001
0010
,
0100
1000
0001
1000
0010
1000
0001
0100
0001
1000
0100
0010
,
0001
0100
0010
1000
0001
1000
0100
0010
0001
0100
0010
0100
,
0001
1000
0100
0010
0100
1000
0001
0100
0010
0100
0001
1000
,
0001
0010
0100
1000
0001
1000
0010
0100
0001
0010
0100
0010
,
0001
1000
0010
0100
0001
1000
0100
0010
0100
1000
0001
1000
,
0010
0100
0001
1000
0001
0010
0100
0010
0001
0100
0010
1000
,
0001
1000
0100
0010
0001
1000
0001
0100
0010
0100
0001
1000
,
0010
0100
0001
1000
0001
0010
0100
0010
0001
0100
0010
1000
,
0001
1000
0100
0010
0001
1000
0001
0100
0010
0100
0001
1000
,
0100
0010
0001
1000
0100
1000
0010
0100
0010
1000
0100
0010
,
0001
0100
0001
1000
0100
1000
0010
0100
0001
0100
0010
1000
,
0100
0010
0001
1000
0100
1000
0001
0100
0001
0010
0100
1000
,
0001
0100
0010
1000
0001
1000
0100
0010
0100
1000
0010
0100
,
0001
0100
0010
0100
0010
1000
0100
0010
0100
1000
0001
1000
,
0010
0100
0001
0100
0010
1000
0100
0010
0001
1000
0001
0100
,
0010
1000
0010
0100
0010
1000
0001
0100
0001
0010
0100
0010
,
0001
0010
0100
1000
0001
1000
0010
1000
0001
0010
0100
1000
,
0001
0100
0010
1000
0001
1000
0100
0010
0100
1000
0010
1000
,
0001
0100
0001
1000
0100
1000
0010
0100
0001
0100
0010
1000
,
0100
0010
0001
1000
0001
1000
0100
0010
0001
0100
0010
1000
,
0010
0100
0001
0010
0100
1000
0100
0010
0001
0100
0010
0100
,
0001
0010
0100
1000
0001
1000
0001
0010
0100
1000
0010
0100
,
0001
0100
0010
1000
0100
0010
0001
0010
0100
1000
0010
0100
,
0001
0010
0100
0010
0001
1000
0100
0010
0001
0100
0010
1000
,
0010
0100
0001
0010
0100
1000
0100
0010
0001
0100
0010
1000
,
0002
0000
0000
0000
0000
0000
0000
1003
0001
1000
0100
0010
0001
1000
0001
1000
,
0010
0100
0001
1000
0010
1000
0001
0010
0100
1000
0001
1000
0100
0010
0001
0000
;

//---------------dance-single - Hard----------------
#NOTES:
     dance-single:
     Hard:
     Medium:
     14:
     1.000,1.000,0.154,0.467,1.000,1597.000,32.000,97.000,0.000,0.000:
0000
0000
0000
0000
,
0000
0000
0000
0000
,
0000
0000
0000
0000
,
0000
0000
0000
0000
,
0000
0000
0000
0000
,
0000
0000
0000
0000
,
0000
0000
0000
0000
,
0000
0000
0000
0000
,
1001
1000
0100
1000
,
0002
0103
0020
1030
,
0001
0010
0001
0010
0001
0000
1000
0000
,
0200
0310
0002
1003
,
0001
0100
0001
0100
0001
0000
1000
0000
,
0020
0130
0002
1003
,
0100
0010
0100
1000
0002
0000
1003
0000
,
0020
0130
0002
1003
,
0010
0100
0010
1000
0001
0000
1000
0000
,
0200
0310
0002
1003
,
0100
1000
0100
0010
0001
0000
1000
0000
,
0200
0310
0002
0103
,
0010
0100
0001
1000
0010
1000
0001
0010
,
0100
0020
0032
2003
,
3010
0200
0301
2000
,
3100
0000
0020
0000
0031
0000
0010
0100
,
1000
0001
0010
0001
1000
0010
0100
0001
,
2000
0000
3020
0000
0130
0001
0100
0001
,
0100
0010
1000
0002
,
2003
0000
3200
0000
0310
0001
1000
0001
,
0010
0100
1000
0001
0100
0010
1000
0001
,
1000
0200
0320
0032
,
1003
0000
0020
0000
0130
0000
0001
0100
,
0010
1000
0001
0010
0100
1000
0010
0100
,
0001
0001
1000
1100
,
0110
0011
1001
0001
,
0100
0100
0010
1010
,
1001
1100
0110
0011
,
0010
0010
0001
0001
,
1000
1000
0010
0010
,
0100
0001
0010
0001
0100
0010
1000
0100
,
0010
0000
0002
0000
,
1003
0010
1000
0000
0001
0100
0001
0000
1000
0100
1000
0000
0001
0010
0001
0000
,
1000
0010
1000
0000
0001
0100
0001
1000
0010
0000
1000
0001
1000
0100
0010
0000
,
0001
0000
1000
0000
0001
0010
0001
0000
1000
0100
1000
0000
0001
0100
0001
0000
,
1000
0010
1000
0000
0001
0100
0001
1000
0001
0000
0010
0100
0010
0001
1000
0000
,
0001
0100
0001
0000
1000
0010
1000
0000
0001
0010
0001
0000
1000
0100
1000
0000
,
0001
0100
0010
0000
1000
0001
0100
0001
1000
0000
0001
0010
0100
1000
0001
0000
,
1000
1000
0010
1000
,
0001
0000
2000
0000
,
3001
0010
0100
0000
0010
0100
1000
0000
0001
1000
0010
0000
0100
0001
1000
0000
,
0001
0010
0100
0000
1000
0001
0200
0000
0000
0000
0000
0000
0000
0000
0000
0000
,
0310
0000
1000
0000
0001
0100
0010
0000
1000
0010
0100
0000
0001
1000
0100
0000
,
0010
0100
1000
0000
0001
1000
0020
0000
0000
0000
0000
0000
0130
0000
0000
0000
,
0001
0100
0010
0000
1000
0001
1000
0000
0100
0010
0001
0000
1000
0100
1000
0000
,
0001
0010
0100
0000
1000
0001
0200
0000
0000
0000
0000
0000
0301
0000
0000
0000
,
0100
0100
0010
1000
,
0001
0000
0200
0000
,
0310
1000
0010
0000
0100
0001
1000
0000
0100
0010
0100
0000
1000
0001
0010
0000
,
0001
1000
0001
0000
0100
0010
2000
0000
0000
0000
0000
0000
3000
0000
0000
0000
,
0001
0100
0001
0000
1000
0010
0100
0000
0001
1000
0001
0000
0010
0100
1000
0000
,
0001
0010
0001
0000
1000
0010
0200
0000
0000
0000
0000
0000
0300
0000
0000
0000
,
0001
1000
0100
0000
0010
0001
0010
0000
0100
1000
0001
0000
1000
0010
1000
0000
,
0001
0100
0010
0000
1000
0001
0200
0000
0000
0000
0000
0000
0300
0000
0000
0000
,
0001
0001
0010
0100
,
1000
0000
0002
0000
,
1003
0010
0100
0000
0001
1000
0001
0000
1000
0100
0010
0000
0001
1000
0001
0000
,
1000
0010
0100
0000
0001
1000
0001
0010
0100
0000
1000
0001
1000
0010
0100
0000
,
0001
0000
1000
0000
0010
0100
0001
0000
1000
0001
0010
0000
0100
0010
0001
0000
,
1000
0100
0010
0000
0001
1000
0010
1000
0001
0000
0100
0001
1000
0001
0010
0000
,
0100
1000
0001
0000
0100
0010
1000
0000
0001
0100
0001
0000
1000
0100
0010
0000
,
0001
1000
0001
0000
0100
0010
1000
0001
1000
0000
0100
0010
0001
1000
0001
0000
,
0100
0100
0001
0010
,
0100
0000
0000
0000
0000
0000
0000
0000
0000
0000
0000
0000
0000
0000
0000
0000
2000
0000
0000
0000
0000
0000
0000
0000
0000
0000
0000
0000
0000
0000
0000
3000
,
1010
0010
1000
0010
0100
0001
1000
0100
,
0010
0001
1000
0001
0100
0010
0100
0001
,
1000
0100
1000
0001
0010
0100
1000
0001
,
0100
0010
0100
0001
1000
0010
1000
0001
,
0010
0100
1000
0001
0010
0100
1000
0001
,
0100
0010
0100
0001
0010
0100
1000
0001
,
0100
0010
1000
0010
0100
0001
0010
0100
,
1000
0001
0010
0001
1000
0010
0100
0001
,
1000
0100
1000
0100
0010
0001
1000
0010
,
0100
0001
1000
0001
0010
0100
0010
0001
,
1000
0010
1000
0001
0100
0010
1000
0001
,
0010
0100
0010
0001
1000
0100
1000
0001
,
0100
0010
1000
0001
0100
0010
1000
0001
,
0100
0010
1000
0100
0010
0001
0100
0001
,
1000
0010
1000
0100
0010
0001
1000
0100
,
1000
0100
0010
0001
0100
0001
2000
0000
,
0000
0000
0000
3002
,
0023
0230
2300
0000
,
0000
0000
0000
3002
,
0203
0320
2030
3002
,
0000
0000
0000
0000
,
0003
2000
3200
0320
,
0000
0032
0000
2003
,
0000
0000
0000
0000
0000
0000
0000
0000
3020
0000
0000
0000
0000
0000
0000
0000
0000
0000
0000
0000
0000
0000
0000
0000
0230
0000
0000
0000
0000
0000
0000
0300
,
0101
0000
1001
0001
,
0011
0010
0110
0000
,
1100
0000
1001
0001
,
0101
0100
0110
0010
,
1001
0000
1100
0000
,
0011
0010
1100
0001
,
0101
0000
0110
0100
,
1001
0001
0011
0000
,
0010
0001
0010
0000
0000
0000
0001
1000
0001
0000
0000
0000
1000
0010
1000
0000
,
0000
0000
0001
0100
0001
0000
0000
0000
1000
0100
0010
0001
1000
0000
0000
0000
,
0001
0100
0001
0000
0000
0000
1000
0010
1000
0000
0000
0000
0100
0010
0100
0000
,
0000
0000
1000
0001
1000
0000
0000
0000
0001
0100
0010
1000
0001
0000
0000
0000
,
1000
0100
1000
0000
0000
0000
0001
0010
0001
0000
0000
0000
0100
0010
0100
0000
,
0000
0000
0001
0010
0200
0000
0000
0000
2300
0000
0000
0000
3002
0000
0000
0000
,
0000
0203
0000
0320
,
0000
2030
0000
0000
,
3001
0010
0001
0000
0000
0000
1000
0100
1000
0000
0000
0000
0001
0100
0001
0000
,
0000
0000
0100
0010
0100
0000
0000
0000
0001
1000
0100
0010
0001
0000
0000
0000
,
1000
0100
1000
0000
0000
0000
0001
0010
0001
0000
0000
0000
0100
0010
0100
0000
,
0000
0000
0001
1000
0001
0000
0000
0000
1000
0001
0100
0010
1000
0000
0000
0000
,
0001
0010
0001
0000
0000
0000
1000
0100
1000
0000
0000
0000
0010
0100
0010
0000
,
0000
0000
1000
0001
1000
0000
0000
0000
0100
0010
0001
1000
0001
0000
0000
0000
,
1010
1000
1001
0001
0011
0010
1100
0100
,
1001
0000
2000
0000
,
3001
0100
0010
0000
1000
0001
1000
0000
0001
0010
0100
0000
1000
0001
1000
0000
,
0100
0010
0100
0000
1000
0001
0200
0000
0000
0000
0000
0000
0300
0000
0000
0000
,
0001
0000
0100
0000
0010
0000
1000
0001
0010
0100
0010
0000
0001
1000
0001
0000
,
0100
0010
1000
0000
0001
0010
0002
0000
0000
0000
0000
0000
0000
0000
0000
0000
,
1003
0010
0100
0000
0001
1000
0001
0000
1000
0100
1000
0000
0001
0010
0100
0000
,
1000
0001
1000
0000
0010
0100
0002
0000
0000
0000
0000
0000
0000
0000
0000
0000
,
1003
1000
0001
0010
,
0100
0000
2000
0000
,
3001
0100
0001
1000
0010
0000
1000
0001
1000
0100
0010
0000
0001
1000
0010
1000
,
0001
0000
0100
0001
1000
0001
1000
0000
0200
0000
0000
0000
0300
0000
0000
0000
,
1000
0000
0000
0100
0000
0000
0010
0000
0000
0001
0000
0000
1000
0000
0000
0000
0000
0000
0001
0000
0000
1000
0000
0000
0010
0000
0000
0000
0100
0000
0000
0000
0001
0000
0000
0000
1000
0000
0000
0000
0001
0000
0000
0000
0010
0000
0000
0000
,
0100
0000
1000
0001
1000
0100
0010
0000
0002
0000
0000
0000
0003
0000
0000
0000
,
1000
0010
0100
0010
1000
0000
0001
1000
0100
1000
0001
0000
1000
0100
0010
0001
,
1000
0000
0001
1000
0010
0100
0010
0000
2000
0000
0000
0000
3000
0000
0000
0000
,
0001
0001
0010
0100
,
1000
0000
0000
0000
0002
0000
0000
0103
,
0010
1000
0100
0010
0001
0100
0010
1000
0100
0010
0001
2000
,
0000
0000
0000
0000
0000
0000
0000
0000
3001
0000
0000
0000
1000
0000
0001
0010
,
0100
0000
1000
0000
0010
0000
0100
0000
0001
0000
0010
0000
0100
0000
1000
0000
0010
0000
0100
0000
0000
0002
0000
0000
,
0000
0000
1003
0001
,
1000
0000
0001
0000
0010
0000
0001
0000
0100
0000
0010
0000
1000
0000
0100
0000
0010
0000
0001
0000
0000
0020
0000
0000
,
0000
0000
0031
1000
,
0001
0001
1000
0010
,
0100
0000
0000
0000
0000
0000
0002
0000
0000
1003
0100
0010
,
0001
0100
0001
0010
0100
1000
0001
0100
0001
2000
0000
0000
,
0000
3002
0000
0000
,
0000
0000
0000
0013
0001
0010
0100
1000
0001
0010
0001
1000
,
0002
0000
0000
0000
0000
0000
0000
0000
1003
0010
0100
0001
1000
0000
0000
0000
,
0100
0010
0100
1000
0001
0100
0001
1000
0100
0020
0000
0000
,
0000
0032
0000
0000
,
0013
0001
1000
0001
,
0100
0000
0020
0000
,
0130
0001
0010
0100
1000
0010
0100
0001
,
0010
0100
1000
0010
0100
0001
1000
0001
,
0010
0100
1000
0001
0100
0001
1000
0100
,
0010
0001
0100
0001
1000
0010
0100
0001
,
0010
0100
0010
0001
0100
0001
0010
0100
,
0010
0001
0100
0001
1000
0010
0100
0001
,
1000
0100
1000
0001
0010
0001
0100
0010
,
1000
0010
0100
0001
0010
0100
1000
0001
,
0100
0010
1000
0001
0100
0010
1000
0001
,
1000
0100
0010
0001
1000
0100
0010
0001
,
0100
0010
0100
0001
0010
0001
0100
0010
,
0100
0001
0010
0100
1000
0001
0100
0001
,
1000
0100
0010
0001
1000
0010
0100
0010
,
1000
0100
0010
0001
1000
0010
0100
0001
,
0010
0100
0010
0001
0100
0010
1000
0001
,
1000
0100
0010
0001
1000
0001
0100
0010
,
1000
0100
0010
0001
1000
0001
0100
0010
1000
0001
0100
0001
,
1000
0100
0010
0100
1000
0001
0100
0010
1000
0001
1000
0010
,
1000
0100
0010
0001
1000
0001
0010
0100
1000
0010
0100
0001
,
0100
0010
1000
0100
0010
0001
1000
0001
0100
0010
1000
0010
,
0100
0001
1000
0001
0100
0010
1000
0100
0010
0001
1000
0001
,
0100
0010
0100
0001
1000
0001
0010
0100
1000
0001
1000
0001
,
0100
0010
1000
0001
0100
0001
0010
0100
0010
0001
0100
0010
,
1000
0001
1000
0100
0010
0001
1000
0100
1000
0001
0010
0001
,
1000
0010
0100
0001
1000
0001
0010
0100
0010
0001
1000
0100
,
1000
0010
0100
0001
1000
0001
0010
0100
0010
0001
0100
0010
,
1000
0001
1000
0100
0010
0001
1000
0010
1000
0100
0010
0001
,
1000
0001
1000
0010
0100
0010
1000
0001
1000
0100
0010
0001
,
1000
0010
1000
0001
0010
0001
1000
0010
1000
0100
0010
0001
,
1000
0100
1000
0001
0100
0001
1000
0100
1000
0010
0100
0001
,
0010
0100
1000
0001
0100
0010
0100
0001
1000
0001
0010
0100
,
1000
0010
0100
0010
1000
0001
2000
0000
0000
0000
0000
0000
,
3001
0010
0100
1000
0001
1000
0010
0100
0001
0010
0100
0010
,
0001
1000
0010
0100
0010
1000
0001
0010
0100
0010
0001
1000
,
0001
0100
0010
1000
0001
1000
0100
0010
0001
0100
0010
0100
,
0001
1000
0100
0010
0001
1000
0010
0100
0010
1000
0001
1000
,
0100
0010
0001
1000
0001
0100
0010
0100
0001
0010
0100
1000
,
0001
1000
0010
0100
0001
1000
0001
0010
0100
0010
0001
1000
,
0002
0000
0203
0320
,
0000
2030
0000
3002
,
0000
0000
0000
1003
0001
1000
0100
0010
0001
0100
0010
0100
,
0001
1000
0100
0010
0100
1000
0001
0100
0010
0100
0001
1000
,
0001
0010
0100
1000
0001
1000
0010
0100
0001
0010
0100
0010
,
0001
1000
0010
0100
0001
1000
0100
0010
0100
1000
0001
1000
,
0010
0100
0001
1000
0001
0010
0100
0010
0001
0100
0010
1000
,
0001
1000
0100
0010
0001
1000
0001
0100
0010
0100
0001
1000
,
0020
0000
0000
2030
,
0000
0000
0000
3200
0000
0000
0000
0000
0000
0310
0001
1000
,
0100
0010
0001
1000
0100
1000
0010
0100
0010
1000
0100
0010
,
0001
0100
0001
1000
0100
1000
0010
0100
0001
0100
0010
1000
,
0100
0010
0001
1000
0100
1000
0001
0100
0001
0010
0100
1000
,
0001
0100
0010
1000
0001
1000
0100
0010
0100
1000
0010
0100
,
0001
0100
0010
0100
0010
1000
0100
0010
0100
1000
0001
1000
,
0010
0100
0001
0100
0010
1000
0100
0010
0001
1000
0001
0100
,
0020
0000
2030
3002
,
0000
0000
0000
2003
0000
0000
3200
0000
0000
0310
0100
1000
,
0001
0100
0010
1000
0001
1000
0100
0010
0100
1000
0010
1000
,
0001
0100
0001
1000
0100
1000
0010
0100
0001
0100
0010
1000
,
0100
0010
0001
1000
0001
1000
0100
0010
0001
0100
0010
1000
,
0010
0100
0001
0010
0100
1000
0100
0010
0001
0100
0010
0100
,
0001
0010
0100
1000
0001
1000
0001
0010
0100
1000
0010
0100
,
0001
0100
0010
1000
0100
0010
0001
0010
0100
1000
0010
0100
,
0001
0010
0100
0010
0001
1000
0100
0010
0001
0100
0010
1000
,
0010
0100
0001
0010
0100
1000
0100
0010
0001
0100
0010
1000
,
0002
0000
0000
0000
0000
1003
0001
0000
0100
0010
0000
1000
,
0000
0000
0000
0000
1000
0000
0000
0000
0000
0000
0000
0000
0200
0000
0000
0000
0000
0000
0000
0000
0000
0310
0000
0000
;

//---------------dance-single - Medium----------------
#NOTES:
     dance-single:
     Medium:
     Easy:
     11:
     0.834,0.943,0.135,0.553,0.207,1071.000,28.000,115.000,24.000,0.000:
0000
0000
0000
0000
,
0000
0000
0000
0000
,
0000
0000
0000
0000
,
0000
0000
0000
0000
,
0000
0000
0000
0000
,
0000
0000
0000
0000
,
0000
0000
0000
0000
,
0000
0000
0000
0000
,
1001
1000
0100
1000
,
0002
0103
0020
1030
,
0001
0010
0001
0010
0001
0000
1000
0000
,
0200
0310
0002
1003
,
0001
0100
0001
0100
0001
0000
1000
0000
,
0020
0130
0002
1003
,
0100
0010
0100
1000
0002
0000
1003
0000
,
0020
0130
0002
1003
,
0010
0100
0010
1000
0001
0000
1000
0000
,
0200
0310
0002
1003
,
0100
1000
0100
0010
0001
0000
1000
0000
,
0200
0310
0002
0103
,
0010
0100
0001
1000
0010
1000
0001
0010
,
0100
0020
0032
2003
,
3010
0200
0301
2000
,
3100
0000
0020
0000
0031
0000
0010
0100
,
1000
0001
0010
0001
1000
0010
0100
0001
,
2000
0000
3020
0000
0130
0001
0100
0001
,
0100
0010
1000
0002
,
2003
0000
3200
0000
0310
0001
1000
0001
,
0010
0100
1000
0001
0100
0010
1000
0001
,
1000
0200
0320
0032
,
1003
0000
0020
0000
0130
0000
0001
0100
,
0010
1000
0001
0010
0100
1000
0010
0100
,
0001
0001
1000
1100
,
0110
0011
1001
0001
,
0100
0100
0010
1010
,
1001
1100
0110
0011
,
0010
0010
0001
0001
,
1000
1000
0010
0010
,
0100
0001
0010
0001
0100
0010
1000
0100
,
0010
0000
0002
0000
,
1003
0010
0010
1000
,
0001
0000
1000
0100
0000
1000
0100
0000
,
0000
0010
0001
0000
0001
0000
1000
0000
,
0010
0000
0100
0001
0000
0100
0001
0000
,
1000
0100
0000
0000
0010
0000
0000
0000
0010
0000
0000
0000
0001
0000
0000
0000
,
1000
0000
0010
1000
0000
0010
1000
0000
,
0001
0001
0100
0001
,
1000
0000
0002
0000
,
1003
0100
1000
0100
,
0010
0000
0010
0001
0000
0000
0000
0000
,
0000
1000
0001
0000
0100
0000
0001
0000
,
0100
0000
0100
0010
0000
0000
0000
1000
,
0001
0010
0001
0010
,
0100
0000
0100
1000
0000
0000
0000
0000
,
0010
0010
0100
0001
,
1000
0000
0020
0000
,
1030
0100
1000
0100
,
1000
0000
0100
0001
0000
0000
MMMM
0000
,
1000
0010
1000
0010
,
1000
0000
0010
0001
0000
0000
MMMM
0000
,
1000
0100
1000
0100
,
1000
0000
0100
0001
0000
0000
MMMM
0000
,
0001
0001
0010
0100
,
1000
0000
0002
0000
,
1003
1000
0010
0010
,
1000
0000
1000
0001
0000
0001
1000
0000
,
0000
0001
0010
0010
,
0001
0000
0001
1000
0000
1000
0001
0000
,
1000
1000
0010
0010
,
1000
0000
1000
0001
0000
0001
1000
0000
,
0100
0100
1000
0010
,
0100
0000
0000
0000
0000
0000
0000
0000
0000
0000
0000
0000
0000
0000
0000
0000
0002
0000
0000
0000
0000
0000
0000
0000
0000
0000
0000
0000
0000
0000
0000
0003
,
0101
0100
0001
0100
0010
1000
0001
0010
,
0100
1000
0001
1000
0010
0100
0010
1000
,
0001
0010
0001
1000
0100
0010
0001
1000
,
0010
0100
0010
1000
0001
0100
0001
1000
,
0100
0010
0001
1000
0100
0010
0001
1000
,
0010
0100
0010
1000
0100
0010
0001
1000
,
0010
0100
0001
0100
0010
1000
0100
0010
,
0001
1000
0100
1000
0001
0100
0010
1000
,
0001
0010
0001
0010
0100
1000
0001
0100
,
0010
1000
0001
1000
0100
0010
0100
1000
,
0001
0100
0001
1000
0010
0100
0001
1000
,
0100
0010
0100
1000
0001
0010
0001
1000
,
0010
0100
0001
1000
0010
0100
0001
1000
,
0010
0100
0001
0010
0100
1000
0010
1000
,
0001
0100
0001
0010
0100
1000
0001
0010
,
0001
0010
0100
1000
0010
1000
0002
0000
,
0000
0000
0000
2003
,
3200
0320
0032
0000
,
0000
0000
0000
2003
,
3020
0230
0302
2003
,
0000
0000
0000
0000
,
3000
0002
0023
0230
,
0000
2300
0000
3002
,
0000
0000
0000
0000
0000
0000
0000
0000
0203
0000
0000
0000
0000
0000
0000
0000
0000
0000
0000
0000
0000
0000
0000
0000
0320
0000
0000
0000
0000
0000
0000
0030
,
1010
0000
1001
1000
,
1100
0100
0110
0000
,
0011
0000
1001
1000
,
1010
0010
0110
0100
,
1001
0000
0011
0000
,
1100
0100
0011
1000
,
1010
0000
0110
0010
,
1001
1000
1100
0000
,
0100
1000
0100
0000
0000
0000
1000
0001
1000
0000
0000
0000
0001
0100
0001
0000
,
0000
0000
1000
0010
1000
0000
0000
0000
0001
0010
0100
0000
0000
0000
0000
0000
,
1000
0010
1000
0000
0000
0000
0001
0100
0001
0000
0000
0000
0010
0100
0010
0000
,
0000
0000
0001
1000
0001
0000
0000
0000
1000
0010
0100
0000
0000
0000
0000
0000
,
0001
0010
0001
0000
0000
0000
1000
0100
1000
0000
0000
0000
0010
0100
0010
0000
,
0000
0000
1000
0100
0020
0000
0000
0000
0032
0000
0000
0000
2003
0000
0000
0000
,
0000
3020
0000
0230
,
0000
0302
0000
0000
,
1003
0100
1000
0000
0000
0000
0001
0010
0001
0000
0000
0000
1000
0010
1000
0000
,
0000
0000
0010
0100
0010
0000
0000
0000
1000
0001
0010
0000
0000
0000
0000
0000
,
0001
0010
0001
0000
0000
0000
1000
0100
1000
0000
0000
0000
0010
0100
0010
0000
,
0000
0000
1000
0001
1000
0000
0000
0000
0001
1000
0010
0000
0000
0000
0000
0000
,
1000
0100
1000
0000
0000
0000
0001
0010
0001
0000
0000
0000
0100
0010
0100
0000
,
0000
0000
0001
1000
0001
0000
0000
0000
0010
0100
1000
0000
0000
0000
0000
0000
,
0010
1000
0001
1000
0100
1000
0010
1000
,
1001
0000
0002
0000
,
1003
0100
1000
0100
,
1000
0000
0010
0001
0000
0000
MMMM
0000
,
0000
1000
0000
0010
1000
0000
0010
0000
,
1000
0000
0100
0001
0000
0000
MMMM
0000
,
1000
0010
1000
0100
,
1000
0000
0010
0001
0000
0000
MMMM
0000
,
0001
0001
1000
0100
,
0010
0000
0002
0000
,
1003
0100
0000
1000
0001
0000
1000
0010
,
0000
0100
0001
0000
0020
0000
0030
0000
,
0001
0000
0010
0000
0000
0000
0001
0000
0010
0000
0000
0010
0000
0000
0010
0000
,
0000
0001
1000
0000
0020
0000
0030
0000
,
1000
0010
0000
1000
0001
0000
0100
0001
,
0000
1000
0100
0000
0020
0000
0030
0000
,
0001
0001
0010
0100
,
1000
0000
0000
0000
0002
0000
0000
0103
,
0010
0000
0000
1000
0000
0000
0010
0000
0000
0000
0000
0000
0000
0000
0000
1000
0000
0000
0000
0000
0000
0000
0002
0000
,
0000
0000
0003
0000
0000
0000
0000
1000
,
0100
0000
0000
0000
0000
0000
0000
0000
0000
0010
0000
0000
0000
0000
0000
0000
0000
0000
0100
0000
0000
0000
0000
0000
0000
0000
0000
0000
0000
0000
0010
0000
0000
0000
0000
0000
0000
0000
0000
0000
0000
0000
0000
0000
0002
0000
0000
0000
,
0000
0003
0000
1000
,
0010
0000
0000
0000
0100
0000
0000
0000
0000
0000
0010
0000
0100
0000
0000
0001
0000
0000
0000
0000
0000
2000
0000
0000
,
0000
3000
0000
0000
,
0001
0001
1000
0010
,
0100
0000
0002
2003
,
3200
0320
0230
2300
,
0000
3002
0000
0000
,
0000
0203
0000
0000
,
0302
0000
0000
0000
1003
0010
1000
0000
,
0200
2300
3200
0320
,
0000
0032
0000
0000
,
0013
0001
1000
0001
,
0100
0000
0020
0000
,
0130
0001
0010
0100
1000
0010
0100
0001
,
0010
0100
1000
0010
0100
0001
1000
0001
,
0010
0100
1000
0001
0100
0001
1000
0100
,
0010
0001
0100
0001
1000
0010
0100
0001
,
0010
0100
0010
0001
0100
0001
0010
0100
,
0010
0001
0100
0001
1000
0010
0100
0001
,
1000
0100
1000
0001
0010
0001
0100
0010
,
1000
0010
0100
0001
0010
0100
1000
0001
,
0100
0010
1000
0001
0100
0010
1000
0001
,
1000
0100
0010
0001
1000
0100
0010
0001
,
0100
0010
0100
0001
0010
0001
0100
0010
,
0100
0001
0010
0100
1000
0001
0100
0001
,
1000
0100
0010
0001
1000
0010
0100
0010
,
1000
0100
0010
0001
1000
0010
0100
0001
,
0010
0100
0010
0001
0100
0010
1000
0001
,
1000
0100
0010
0001
1000
0001
0100
0010
,
1000
0100
1000
0010
0100
0001
0010
0100
,
1000
0010
0100
0001
0010
0100
0010
0001
,
1000
0001
0100
0010
0100
0001
1000
0100
,
0010
0001
1000
0010
1000
0001
0010
0100
,
1000
0100
0010
0001
1000
0010
0100
0001
,
0010
0100
1000
0010
0100
0001
0010
0001
,
1000
0100
0010
0100
1000
0010
1000
0100
,
0010
0001
1000
0010
0100
0010
1000
0100
,
0010
0001
1000
0001
0100
0010
1000
0001
,
1000
0100
1000
0001
0010
0100
1000
0001
,
0100
0010
1000
0001
1000
0100
0010
0100
,
1000
0001
0100
0010
0100
0001
1000
0100
,
1000
0001
1000
0010
1000
0100
0010
0001
,
1000
0010
0100
0001
1000
0001
0100
0010
,
1000
0100
1000
0100
1000
0100
0010
0001
,
0010
0001
1000
0010
2000
0000
0000
0000
,
3001
0000
0010
0000
0001
0000
0010
0000
0000
0100
0000
0000
0000
0000
0000
0100
0000
0000
2000
0000
0000
0000
0000
0000
,
3001
0100
0001
1000
0000
0000
0100
0010
0100
1000
0000
0000
,
0001
0000
0100
0000
0001
0000
0100
0000
0000
0010
0000
0000
0000
0000
0000
0010
0000
0000
1000
0000
0000
0000
0000
0000
,
0001
0010
0100
0010
0000
0000
0001
1000
0010
1000
0000
0000
,
0001
0000
1000
0000
0100
0000
0010
0000
0000
0001
0000
0000
0000
0000
0000
0001
0000
0000
1000
0000
0000
0000
0000
0000
,
0010
0100
0001
0100
0000
0000
0001
1000
0100
0010
0000
0000
,
0002
0000
0203
0320
,
0000
2030
0000
3002
,
0000
0000
1003
0100
0000
0100
0010
0000
,
0001
0010
0100
0010
0000
0000
0001
1000
0010
1000
0000
0000
,
0001
0000
0010
0000
0001
0000
0010
0000
0000
0100
0000
0000
0000
0000
0000
0100
0000
0000
1000
0000
0000
0000
0000
0000
,
0001
0100
0001
1000
0000
0000
0100
0010
0100
1000
0000
0000
,
0001
0000
0100
0000
0010
0000
0100
0000
0000
0001
0000
0000
0000
0000
0000
0001
0000
0000
1000
0000
0000
0000
0000
0000
,
0100
0010
0001
1000
0000
0000
0001
0100
0010
1000
0000
0000
,
0020
0000
0000
2030
,
0000
3200
0000
0320
,
0000
0000
0000
0000
0000
0031
1000
0000
,
0010
0000
0000
0000
0100
0000
0000
0000
0010
2000
0000
0000
0000
0000
3001
0000
,
0000
0000
0000
0000
0000
0000
1000
0000
0100
0010
0000
0100
,
1000
0000
0000
0000
0010
0000
0000
0000
0100
0002
0000
0000
0000
0000
1003
0000
,
0000
0000
0000
0000
0000
0001
1000
0000
,
0100
0000
0000
0000
1000
0000
0000
0000
0100
0020
0000
0000
0000
0000
0031
0000
,
0200
0000
0302
2003
,
0000
3002
0023
0230
,
2300
0000
0000
0000
0000
0000
3001
0000
1000
0001
0000
0100
,
0000
0000
0100
0000
0000
0020
0000
0000
0000
1030
0000
0000
,
0200
0000
0000
0320
,
0031
0000
1000
0010
0000
1000
0002
0000
0000
0000
0000
0013
,
0200
0000
0000
2300
,
0000
3020
0000
0230
,
0320
0000
0000
2030
,
0000
3200
0000
0320
,
0032
0000
0000
0000
0000
1003
0001
0000
0100
0010
0000
1000
,
0000
0000
0000
0000
1000
0000
0000
0000
0000
0000
0000
0000
0200
0000
0000
0000
0000
0000
0000
0000
0000
0310
0000
0000
;
