#TITLE:Inner Universe;
#SUBTITLE:;
#ARTIST:Adraen;
#TITLETRANSLIT:;
#SUBTITLETRANSLIT:;
#ARTISTTRANSLIT:;
#CREDIT:raz;
#BANNER:../owenviau1 Simfiles 5-bn.png;
#BACKGROUND:../owenviau1 Simfiles 5-bg.png;
#LYRICSPATH:;
#CDTITLE:!cdtitle.png;
#MUSIC:Inner Universe.mp3;
#OFFSET:-0.130;
#SAMPLESTART:30.740;
#SAMPLELENGTH:29.999;
#SELECTABLE:YES;
#DISPLAYBPM:196.000;
#BPMS:0.000=196.000;
#STOPS:;
#BGCHANGES:;
// cache tags:
#FIRSTBEAT:32.000;
#LASTBEAT:353.000;
#SONGFILENAME:Songs/owenviau1 Simfiles 5/Inner Universe - [owenviau1 & Zespread] v1.3/Inner Universe.sm;
#HASMUSIC:1;
#HASBANNER:1;
#MUSICLENGTH:114.860;
// end cache tags

//---------------dance-single - ----------------
#NOTES:
     dance-single:
     :
     Hard:
     9:
     0.643,0.730,0.070,0.026,0.044,504.000,8.000,3.000,0.000,0.000:
0000
0000
0000
0000
,
0000
0000
0000
0000
,
0000
0000
0000
0000
,
0000
0000
0000
0000
,
0000
0000
0000
0000
,
0000
0000
0000
0000
,
0000
0000
0000
0000
,
0000
0000
0000
0000
,
1000
0100
0010
0001
1000
0010
0100
0001
,
0010
0001
1000
0001
0100
0010
1000
0100
,
0010
0001
0100
0010
1000
0100
1000
0001
,
0100
0000
0001
0000
0010
0000
0100
0000
1000
0000
0010
0000
1000
0001
1000
0001
,
1000
0100
0010
0001
0100
0010
1000
0100
,
1000
0000
0001
0000
0010
0000
1000
0000
0001
0000
0100
0000
0001
0100
0001
0100
,
0001
0010
0100
1000
0001
0100
0010
1000
,
0100
1000
0001
0100
0001
0010
0100
1000
,
1001
0010
0100
0001
0010
0001
0100
0010
,
1000
0100
0010
0001
1000
0010
0100
0001
,
0010
0100
1000
0001
0100
0010
1000
0100
,
1000
0000
0001
0000
0100
0000
0001
0000
0010
0000
0100
0000
1000
0100
1000
0100
,
1000
0001
0100
0010
1000
0100
0010
0001
,
0010
0000
1000
0000
0100
0000
0010
0000
0001
0000
0100
0000
0001
1000
0001
1000
,
0001
0000
0000
0000
,
0000
4000
0000
0000
0000
0000
0000
3000
0000
0000
0000
0000
0000
0000
0000
0000
0002
0000
0000
0000
0000
0000
0000
0000
1003
0000
0000
0000
0001
0000
0000
0000
,
1001
1000
0001
0100
0001
0010
0100
1000
,
0010
1000
0001
0100
0001
0010
0001
1000
,
0100
1000
0010
0100
0001
0010
0100
1000
,
0010
0100
0001
0100
0010
1000
0100
0010
,
0001
0100
0001
0010
0100
1000
0010
0100
,
0001
0010
0001
0100
0010
1000
0100
0010
,
0001
0100
0001
1000
0100
1000
0010
0100
,
0001
1000
0100
0010
0001
0001
0001
0001
,
0001
0100
0010
0100
0001
1000
0100
0010
,
0001
0100
0001
1000
0010
0100
0001
0010
,
0100
1000
0010
0100
0001
1000
0001
0010
,
0001
0100
0010
1000
0100
1000
0010
0100
,
0001
1000
0010
0100
0001
0010
0001
0100
,
0010
1000
0001
1000
0010
0100
0001
1000
,
0010
0100
0001
0010
0001
1000
0010
0100
,
0001
0010
0001
1000
0100
0100
0100
0100
,
0100
0100
0000
0000
,
0000
0000
0000
0000
,
0100
0100
0000
0000
,
0000
0000
0000
0000
,
0100
0100
0000
0000
,
0000
0000
0000
0000
,
0100
0100
0000
0000
,
0000
0000
0000
0000
,
1001
0001
0100
0010
1000
0100
0010
0001
,
0100
0010
1000
0001
1000
0100
1000
0010
,
0100
0001
0010
0001
0100
0010
1000
0001
,
1000
0010
0100
0001
0010
0001
1000
0010
,
0100
0001
1000
0100
0010
0001
0100
0001
,
1000
0100
1000
0010
0100
0001
0010
0100
,
1000
1000
0000
0000
,
0000
4000
0000
0000
0000
0000
0000
3000
0000
0000
0000
0000
0000
0000
0000
0000
2002
0000
0000
0000
0000
0000
0000
0000
0000
0000
0000
0000
0000
0000
0000
0000
,
3003
0000
0000
0000
,
0000
0000
0000
0000
,
0000
0000
0000
0000
,
0000
0000
0000
0000
,
0000
0000
0000
0000
,
0000
0000
0000
0000
,
0000
0000
0000
0000
,
0000
0000
0000
0000
,
0001
1000
0001
0010
0100
1000
0010
1000
,
0001
0010
0001
0100
0010
1000
0100
0010
,
0001
0100
0010
1000
0001
0010
0001
1000
,
0010
0100
0001
1000
0001
0010
0001
0100
,
0010
1000
0100
0010
0001
0100
0010
1000
,
0001
1000
0100
1000
0010
0100
0001
1000
,
0100
0010
0001
0100
0001
1000
0100
1000
,
0010
0100
0001
1000
0100
0010
0001
0000
,
1100
0001
0010
0100
1000
0010
0100
0001
,
0010
0001
0100
0010
1000
0100
0010
0001
,
0100
0010
1000
0001
0010
0001
0100
0010
,
1000
0001
1000
0001
0100
0010
0100
0001
,
1000
0100
0010
0001
1000
0010
0100
0001
,
0010
0100
1000
0010
1000
0001
0100
0001
,
0010
0001
0100
0010
1000
0001
1000
0100
,
1000
0010
0100
0001
0010
0100
1000
0100
,
0101
0001
1000
0100
1000
0010
0100
0001
,
0010
0100
1000
0010
1000
0001
0100
0001
,
0010
0001
1000
0010
0100
0001
1000
0100
,
0010
0100
0001
0010
0100
1000
0010
0100
,
0001
1000
0100
0010
0001
0010
0100
1000
,
0010
0100
0001
0010
0001
0100
0010
1000
,
0001
1000
0100
1000
0010
0100
0001
0010
,
0100
1000
0010
0100
0001
0010
0001
1000
,
0110
0110
0000
0000
,
0000
0000
0000
0000
,
0000
0000
0000
0000
,
0000
0000
0000
0000
,
0000
0000
0000
0000
,
0000
0000
0000
0000
;

//---------------dance-single - ----------------
#NOTES:
     dance-single:
     :
     Challenge:
     16:
     1.000,1.000,1.000,0.087,0.805,685.000,362.000,10.000,0.000,0.000:
0000
0000
0000
0000
,
0000
0000
0000
0000
,
0000
0000
0000
0000
,
0000
0000
0000
0000
,
0000
0000
0000
0000
,
0000
0000
0000
0000
,
0000
0000
0000
0000
,
0000
0000
0000
0000
,
1001
0000
0110
0000
0001
0010
0001
0010
1001
0000
0100
0010
0100
0011
1100
0011
,
1100
0000
0011
0100
0011
0000
0011
0000
1100
0010
1100
0011
1100
0000
1001
0010
,
0101
0000
1010
0000
0101
0000
1000
0100
1001
0000
0101
0000
0010
0100
1000
0001
,
0110
0000
0001
0010
1100
0000
0001
0010
1100
0010
0100
1000
0101
1010
0101
1010
,
0101
0000
1000
0000
0011
0000
1000
0100
1010
0000
0101
0000
0011
0100
0010
0001
,
1010
0000
0101
0000
1100
0000
0011
0000
1000
0100
0010
0001
1100
0011
1100
0011
,
1100
0000
0101
0000
1010
0000
0011
1100
0011
0000
0110
1001
0110
0000
0101
1010
,
0101
0000
0011
1100
0011
0000
1100
0000
0001
0010
0100
1000
0011
1100
0011
1100
,
0011
0000
1100
0000
0011
0000
1100
0010
0100
0000
0011
0000
1100
0010
0100
1000
,
0011
0000
0101
0010
0100
0000
0011
0000
1001
0100
0010
0100
1001
0000
0101
0010
,
0100
0000
0011
0000
1100
0000
0011
0100
1000
0000
0110
0000
0011
0100
1000
0100
,
1010
0000
0011
0100
1000
0000
0110
0000
0011
0100
1000
0010
0101
1010
0101
1010
,
0101
0000
1010
0000
0011
0000
1100
0010
1000
0000
0101
0000
0110
1000
0100
1000
,
0101
0000
1010
0000
0110
0000
1001
0000
0011
0100
1010
0001
0110
1001
0110
1001
,
0110
0000
0000
0000
,
0001
0010
0100
1000
0001
0010
0100
1000
0000
0000
0000
0000
0000
0000
0000
0000
1000
0100
0010
0001
1000
0100
0010
0001
1000
0100
0010
0001
1000
0100
0010
0001
,
1100
0100
0101
0001
0001
0011
0010
0110
,
1100
0100
0101
0011
0001
1001
0110
1001
,
0110
0010
0110
0100
0100
0101
0001
0011
,
0110
0100
1100
1010
0010
0011
1100
0011
,
1100
1000
1010
0010
0010
0110
0100
0101
,
0011
0001
1001
1010
0010
0110
1100
1000
,
1010
0010
0011
0110
0100
0101
0011
0001
,
1001
1000
1010
0110
0100
0101
0011
0011
,
0011
0010
0010
0010
0010
1010
1000
1001
,
0101
0100
0110
1010
1000
1100
0100
0100
,
0101
0001
0101
0100
0100
0110
0010
1010
,
1100
0100
0101
0011
0010
1010
0110
0101
,
0011
0010
1010
1000
1000
1100
0100
0101
,
0011
0010
1010
1100
0100
0110
0010
0010
,
0011
0001
0011
0110
0100
1100
1000
1010
,
0110
0100
0101
0011
0010
0110
0110
0110
,
0110
0110
0000
0000
,
0000
0000
0000
0000
,
0110
0110
0000
0000
,
0000
0000
0000
0000
,
0110
0110
0000
0000
,
0000
0000
0000
0000
,
0110
0110
0000
0000
,
0000
0000
0000
0000
,
0110
0000
1001
0000
0110
0000
1001
0000
0110
0000
1000
0100
0011
0000
1100
0000
,
0001
0010
0100
0010
1100
0000
0011
0000
1010
0000
0101
0000
0101
0000
1010
0000
,
1100
0000
0011
0000
1100
0000
0011
0000
1100
0000
0010
0001
0110
0000
1100
0000
,
0011
0100
1000
0100
0010
0001
0110
1000
0001
0010
0100
1000
0011
0000
0110
0000
,
0110
0000
0000
0000
0000
0000
1001
0000
0000
0000
0000
0000
0110
0000
0000
0000
0000
0000
1001
0000
0000
0000
0000
0000
0110
0000
0000
0000
0000
0000
0202
0000
0303
0000
0000
0000
0202
0000
0303
0000
0000
0000
0110
0000
0000
1000
0000
0000
,
0100
0000
0000
0010
0000
0000
0001
0000
0000
0010
0000
0000
1100
0000
0000
0000
0000
0000
0022
0000
0033
0000
0000
0000
0022
0000
0033
0000
0000
0000
1100
0000
0000
0010
0000
0000
1100
0000
0000
0010
0000
0000
0001
0000
0000
0010
0000
0000
,
1001
1001
0000
0000
,
1000
0100
0010
0001
1000
0100
0010
0001
0000
0000
0000
0000
0000
0000
0000
0000
2002
0000
0000
0000
0000
0000
0000
0000
0000
0000
0000
0000
0000
0000
0000
0000
,
3003
0000
0000
0000
,
0000
0000
0000
0000
,
0000
0000
0000
0000
,
0000
0000
0000
0000
,
0000
0000
0000
0000
,
0000
0000
0000
0000
,
0000
0000
0000
0000
,
0000
0000
0000
0000
,
1001
0000
0110
0000
0011
0000
1100
0010
0001
0000
1100
0000
0101
0010
0100
0010
,
1100
0000
0011
0100
1001
0000
0110
0000
0011
0100
1010
0101
1010
0000
0011
0100
,
0011
0000
0110
0000
1100
0000
0101
1000
0001
0000
1100
0000
1100
0010
1000
0100
,
0011
0000
1100
0010
0101
0000
0101
0000
1010
0100
0010
0100
0011
1100
0011
1100
,
0011
0000
0110
0000
1001
0000
1010
0100
1000
0000
0011
0000
1100
0010
1100
0011
,
1100
0000
0110
0000
0011
0000
0101
0000
1010
0100
0010
0001
1010
0101
1010
0101
,
1010
0000
1100
0000
0011
0000
1100
0011
1100
0000
0101
1010
0101
0000
0110
1001
,
0110
0000
0011
1100
0011
0000
0011
0000
0110
0001
0010
0100
1001
0000
0000
0000
,
1001
1000
1100
0100
0100
0110
0010
0011
,
0101
0100
1100
1010
0010
0110
0100
0100
,
0101
0001
0011
0010
0010
0110
0100
1100
,
1010
0010
0110
0101
0001
0011
1010
1000
,
1100
0100
0101
0001
0001
0011
0010
0110
,
0101
0001
1001
1100
0100
0110
0010
0010
,
0011
0001
0101
1100
1000
1100
0100
0101
,
0011
0010
0110
1100
1100
0100
1100
0100
,
1100
0010
0001
1000
0101
0010
0100
0010
0001
0010
1100
0010
0100
0010
0101
0010
,
1100
0010
0001
0010
1001
0010
0101
1000
0100
0010
1100
0010
1000
0100
0010
0001
,
1010
0100
0010
0001
0110
0001
0010
1000
0100
0010
0101
0010
0001
1000
0101
0010
,
1100
0001
0100
0010
1001
0100
0011
0100
0010
0100
1001
0010
1000
0001
0100
1000
,
0110
0001
0100
0001
1010
0100
1000
0100
0001
0010
0101
1000
0100
0010
1001
0010
,
0101
0010
0100
1000
0101
0010
0101
1000
0100
0001
1100
0001
0010
0100
0010
0100
,
0011
0100
1000
0100
1010
0100
1001
0100
0001
0010
1100
0010
0001
0010
0101
1000
,
0101
0010
1000
0100
0011
1000
0110
0001
0010
0100
1001
0010
0101
0000
0000
0000
,
1001
1001
0000
0000
,
0000
0000
0000
0000
,
0000
0000
0000
0000
,
0000
0000
0000
0000
,
0000
0000
0000
0000
,
0000
0000
0000
0000
;
