#TITLE:Stage 5;
#SUBTITLE:;
#ARTIST:Lv.4;
#TITLETRANSLIT:;
#SUBTITLETRANSLIT:;
#ARTISTTRANSLIT:;
#CREDIT:;
#BANNER:Stage 5BN.png;
#BACKGROUND:Stage 5.png;
#LYRICSPATH:;
#CDTITLE:../CDTitleRP.png;
#MUSIC:Stage 5.ogg;
#OFFSET:-1.905;
#SAMPLESTART:99.561;
#SAMPLELENGTH:14.069;
#SELECTABLE:YES;
#BPMS:0.000=145.000;
#STOPS:;
#BGCHANGES:;
// cache tags:
#FIRSTBEAT:0.000;
#LASTBEAT:346.000;
#SONGFILENAME:Songs/Index Fusion/Stage 5 - [rparty]/Stage 5.sm;
#HASMUSIC:1;
#HASBANNER:1;
#MUSICLENGTH:146.192;
// end cache tags

//---------------dance-single - (14)----------------
#NOTES:
     dance-single:
     (14):
     Edit:
     4:
     1.000,1.000,0.219,0.171,1.000,1061.000,32.000,25.000,22.000,0.000:
10M1
0000
0000
0M00
0000
000M
0000
0000
0000
0000
00M0
0000
0000
0000
0000
0000
,
0000
M000
0000
0M00
0000
00M0
0000
000M
0000
0000
0000
M000
000M
0000
0000
0000
,
1000
0100
0010
0001
0100
0010
1000
0001
0010
0100
1000
0010
0100
0001
1000
0100
,
0010
0100
1000
0001
0010
0100
1000
0001
0100
0010
1000
0001
0010
0100
1000
0010
,
0100
0001
0010
0100
1000
0010
0100
0001
0010
0100
0010
0001
1000
0100
0010
0100
,
1000
0001
0010
0100
1000
0001
0100
0010
1000
0100
0010
0001
0010
0100
1000
0001
,
0010
0001
0100
0010
1000
0100
1000
0010
0100
0001
0010
0001
0100
0010
1000
0100
,
0010
0100
1000
0010
0100
0001
1000
0100
0010
0001
0100
0010
1000
0100
0010
0001
,
0100
0010
1000
0001
0010
0100
1000
0100
0010
0001
1000
0010
0100
0001
0010
0100
,
1000
0010
0100
0001
1000
0010
0100
0001
1000
0010
0100
0001
2000
0000
0000
0000
0000
0000
0000
0000
0000
0000
0000
0000
,
3001
0010
0100
1000
0010
0100
0001
1000
0100
0010
0001
0100
0010
0100
0001
1000
,
0100
0010
0001
0100
0010
1000
0001
0010
0100
1000
0100
0010
0001
0100
0010
1000
,
0100
0010
0100
1000
0001
0010
0100
1000
0010
0100
0001
1000
0100
0010
0001
0100
,
0010
1000
0001
0100
0010
0100
0010
1000
0100
1000
0001
0100
0010
0100
0001
0010
,
0001
0100
0010
1000
0001
0100
0010
0100
0001
1000
0100
1000
0010
0100
0001
0100
,
0010
1000
0100
0010
0100
1000
0010
0100
0001
1000
0100
0010
0001
0100
0001
1000
,
0100
0010
0100
1000
0010
0100
0010
1000
0001
0100
0010
1000
0100
0010
0001
0010
,
0100
1000
0001
0100
0010
1000
0001
0100
0010
1000
0001
0100
0020
0000
0000
0000
0000
0000
0000
0000
0000
0000
0000
0000
,
0130
0000
0001
0000
1001
0000
1000
0010
0100
0001
0010
0100
1000
0000
0001
1000
,
0001
0010
0001
0010
0001
0010
0001
0010
0100
0000
0000
0000
1000
0000
0010
0000
0100
0000
0001
0000
1000
0000
0100
0000
1000
0000
0010
0000
0100
0000
0001
0000
,
2000
0000
3002
1003
1001
0000
1000
0010
0100
0001
0010
0100
1000
0010
0200
0002
,
0000
0000
0000
0303
1001
0000
0001
0010
0100
1000
0100
0010
0001
0100
0010
1000
,
0001
0100
0010
0100
0001
1000
0010
0100
0001
1000
0100
0010
0100
1000
0001
0010
,
0001
0100
0010
1000
0100
0010
0100
1000
0100
1000
0010
0100
0001
0010
0001
0100
,
0010
0100
0001
1000
0100
0010
0001
0100
0010
1000
0010
0100
0001
0010
0100
1000
,
0001
1000
0010
0100
0001
1000
0010
0100
0001
1000
0010
0100
0002
0000
0000
0000
0000
0000
0000
0000
0000
0000
0000
0000
,
1003
1100
0101
1010
,
0011
0110
1001
1100
,
0011
0101
1010
1100
,
0011
0101
1010
0011
,
1100
0101
1100
0011
,
0110
1100
0101
1010
,
1100
0011
0110
1100
,
0001
0000
0000
1000
0000
0000
0100
0000
1000
0000
0010
0000
0100
0001
0100
0010
,
2000
0000
0000
0000
,
0000
0000
0000
0000
,
3002
0000
0000
0000
,
0000
0000
0000
0000
,
0203
0000
0000
0000
,
0000
0000
0000
0000
,
0320
0000
0000
0000
,
2030
0000
3002
0000
,
1003
0001
1000
0001
1000
0001
1000
0001
1000
0001
1000
0001
1000
0001
1000
0001
,
0100
0010
0100
0010
0100
0010
0100
0010
0100
0010
0100
0010
0100
0010
0100
0010
,
1000
0001
1000
0001
1000
0001
1000
0001
1000
0001
1000
0001
1000
0001
1000
0001
,
0100
0010
0100
0010
0100
0010
0100
0010
0100
0001
1000
0001
1000
0100
0010
0100
,
1000
0001
1000
0001
1000
0001
1000
0001
1000
0001
1000
0001
1000
0001
1000
0001
,
0100
0010
0100
0010
0100
0010
0100
0010
0100
0010
0100
0010
0100
0010
0100
0010
,
1000
0001
1000
0001
1000
0001
1000
0001
1000
0001
1000
0001
1000
0001
1000
0001
,
1000
0100
0010
0001
1000
0100
0010
0001
1000
0100
0010
0001
2000
0000
0000
0000
0000
0000
3002
0000
0000
0003
0000
0000
,
0001
1000
0010
0100
0010
0010
0010
0010
0010
0010
0010
0010
0010
0010
0010
0010
,
0010
0010
0010
0010
0010
0010
0010
0010
0010
0010
0010
0010
0010
0010
0010
0010
,
M01M
0010
0010
0010
0010
0010
0010
0010
0010
0010
0010
0010
0010
0010
0010
0010
,
0010
0010
0010
0010
0010
0010
0010
0010
0010
0010
0010
0010
0010
0010
0010
0010
,
M01M
0010
0010
0010
0010
0010
0010
0010
0010
0010
0010
0010
0010
0010
0010
0010
,
M01M
0010
0010
0010
0010
0010
0010
0010
0010
0010
0010
0010
0010
0010
0010
0010
,
M01M
0010
0010
0010
0010
0010
0010
0010
M01M
0010
0010
0010
0010
0010
0010
0010
,
10MM
0100
0010
0001
1000
0100
0010
0001
1000
0100
0010
0001
2000
0000
0000
0000
0000
0000
0001
0000
0000
0000
0000
0000
,
3001
0000
0000
0000
,
0001
0000
0000
1000
0000
0000
0010
0000
1000
0100
0010
0000
0001
0000
1000
0000
,
1001
0010
0100
1000
0001
0100
0010
1000
0100
0010
0001
0100
0010
1000
0100
0010
,
0001
0100
0010
1000
0010
0100
0001
0010
0100
0010
0001
1000
0100
1000
0010
0100
,
0001
0010
0100
1000
0100
0010
0100
1000
0001
0010
0001
0100
0010
1000
0100
1000
,
0010
0100
0001
1000
0100
0010
0001
0010
0100
1000
0001
0100
0010
1000
0001
0010
,
0100
1000
0100
0010
0001
0100
0010
1000
0100
1000
0001
0010
0001
1000
0100
1000
,
0010
0100
0001
0010
0100
1000
0100
0010
0001
1000
0010
0100
0001
0010
0100
0010
,
0001
1000
0100
0010
0100
1000
0001
0010
0001
1000
0100
1000
0001
1000
0001
0010
,
0100
1000
0100
0010
0001
1000
0100
1000
0001
0010
0100
1000
0010
0100
0001
1000
,
0100
0010
0001
0010
0100
1000
0100
0010
0001
1000
0010
0100
0001
0010
0100
1000
,
0100
1000
0010
0100
0001
1000
0100
0010
0001
0100
0010
1000
0100
0010
0001
0100
,
0010
1000
0010
0100
0001
0010
0100
0010
0001
1000
0010
0100
0010
1000
0100
0010
,
0100
1000
0001
0010
0100
1000
0010
0100
0001
1000
0100
0010
0100
1000
0001
0010
,
0100
1000
0010
0100
0001
1000
0100
0010
0001
0010
0100
1000
0010
0100
0001
0010
,
0100
1000
0100
0010
0001
0100
0010
1000
0001
0010
0001
0100
0010
0100
0001
1000
,
0100
0010
0100
1000
0010
0100
0001
0010
0100
1000
0100
0010
0001
0100
0010
1000
,
0001
0010
0100
1000
0100
0010
0001
1000
0010
0100
0001
0100
0010
1000
0100
1000
,
0010
0100
0001
0010
0100
0010
0001
1000
0100
0010
0001
0010
0100
1000
0010
0100
,
0001
0100
0010
1000
0001
0010
0100
1000
0010
0100
0001
0100
0010
1000
0100
0010
,
0001
0100
0010
1000
0001
0010
0100
1000
0100
1000
0010
0100
0001
0010
0100
1000
,
0100
0010
0001
0100
0010
1000
0001
0010
0100
0010
0100
1000
0100
0010
0100
0010
,
0001
1000
0010
0100
0001
0010
0001
0100
0010
1000
0100
1000
0010
0100
0001
0010
,
0001
0100
0010
1000
0100
1000
0100
0010
0001
0010
0001
0100
0010
1000
0100
0010
,
0100
1000
0001
0010
0100
1000
0010
0100
0001
1000
0100
0010
0001
0010
0100
1000
,
0001
0000
0010
0000
0100
0000
1000
0000
0010
0000
0100
0000
0001
0000
1000
0000
0100
0000
0010
0000
0001
0000
0010
0000
0200
0000
0000
2300
0000
0000
3200
0000
0000
0320
0000
0000
0032
0000
0000
2003
0000
0000
3020
0000
0000
0230
0000
0000
,
0302
0000
0000
0000
,
0000
0000
0000
0000
,
0000
0000
0003
0000
,
0000
0000
0000
0000
;
