#TITLE:Fuck DJ;
#SUBTITLE:;
#ARTIST:Jabbawock;
#TITLETRANSLIT:;
#SUBTITLETRANSLIT:;
#ARTISTTRANSLIT:;
#CREDIT:;
#BANNER:fuck bn.png;
#BACKGROUND:fuck bg.png;
#LYRICSPATH:;
#CDTITLE:;
#MUSIC:Fuck Dj.ogg;
#OFFSET:0.009;
#SAMPLESTART:50.087;
#SAMPLELENGTH:16.695;
#SELECTABLE:YES;
#DISPLAYBPM:230.000;
#BPMS:0.000=230.000;
#STOPS:;
#BGCHANGES:;
// cache tags:
#FIRSTBEAT:0.000;
#LASTBEAT:343.000;
#SONGFILENAME:Songs/SHARPNELSTREAMZ v2/Fuck DJ/Fuck Dj.sm;
#HASMUSIC:1;
#HASBANNER:1;
#MUSICLENGTH:90.000;
// end cache tags

//---------------dance-single - 15- (TYLR)----------------
#NOTES:
     dance-single:
     15- (TYLR):
     Challenge:
     15:
     1.000,1.000,0.633,0.011,1.000,689.000,57.000,1.000,0.000,0.000:
1001
0000
0000
0000
,
0000
0000
0000
0000
,
1001
0000
0000
0000
,
0000
0000
0000
0000
,
1001
0000
0000
0000
,
0000
0000
0000
0000
,
1001
0000
1001
0000
,
1001
0000
0000
0000
,
1001
0000
0010
0100
0000
0001
0000
0100
,
0000
0010
0000
1000
0001
0100
0010
0100
,
0101
0000
0100
0010
0000
1000
0000
0001
,
0000
0010
0000
0001
1000
0010
1000
0001
,
1001
0000
1000
0010
0000
0100
0000
0001
,
0000
0010
0000
0001
0100
0001
1000
0010
,
0110
0000
0100
0001
0000
1000
0000
0010
,
1001
0000
0000
0000
0000
0000
0000
0000
1000
0000
0010
0100
0010
1000
0001
0010
,
0001
0000
0100
0010
0000
1010
0000
0101
,
0000
1001
0000
0011
1000
0010
0100
0001
,
1001
0000
0010
0001
0000
1001
0000
1010
,
0000
0000
0110
0000
0000
0000
1001
0000
1000
0000
0001
1000
0010
0100
0010
1000
,
0001
0000
1000
0001
0000
0101
0000
1001
,
0000
0000
1010
0000
0000
0000
0110
0000
0001
0000
1000
0010
0100
0000
0001
0000
,
0101
0000
0001
0100
0000
0110
0000
0101
,
0000
0000
1001
0000
0000
0000
0011
0000
0001
0000
1000
0100
1000
0001
0010
0100
,
1000
0000
0010
0100
0000
1010
0000
1001
,
0000
0000
0101
0000
0000
0000
1010
0000
0100
0000
0001
1000
0010
0000
1000
0000
,
1100
0000
0001
0100
0000
0011
0000
1001
,
0000
0000
0110
0000
0000
0000
1010
0000
0100
0000
0001
0010
0001
1000
0100
0010
,
0001
0000
1000
0010
0000
0110
0000
0101
,
0000
0000
1010
0000
0000
0000
1001
0000
1000
0000
0001
0010
0100
0000
1000
0000
,
1001
0000
0001
1000
0000
1010
0000
0001
,
2000
0000
0000
0000
0000
0000
0000
0000
0400
0000
0000
0000
0000
0000
0000
3300
,
0011
0000
0001
1000
0010
0100
0001
1000
,
0100
0000
0000
0000
0000
0000
0010
0000
0000
0000
0000
0000
0100
1000
0100
1000
0100
1000
0100
0000
0000
0010
0000
0000
,
0001
0000
0000
0000
0000
0000
1000
0000
0000
0001
0000
0000
1000
0000
0000
0000
0000
0000
0100
0000
0000
0000
0000
0000
1000
0000
0001
0000
1000
0000
0001
0000
1000
0000
0001
0000
1000
0000
0000
0000
0000
0000
0100
0000
0000
0000
0000
0000
,
1000
0000
0000
0000
0000
0000
0001
0000
0000
0010
0000
0000
0001
0000
0000
0000
0000
0000
1000
0000
0000
0000
0000
0000
0001
0000
0100
0000
0001
0000
0100
0000
0001
0000
0100
0000
0001
0000
0100
0000
0001
0000
0100
0000
0001
0000
0100
0000
,
0001
0000
1000
0001
0010
0001
1000
0001
,
0100
0000
0000
0000
0000
0000
0010
0000
0000
0000
0000
0000
0100
0001
0100
0001
0100
0001
0100
0000
0000
0001
0000
0000
,
1000
0000
0000
0000
0000
0000
0100
0000
0000
0010
0000
0000
0001
0000
0000
0000
0000
0000
1000
0000
0000
0000
0000
0000
0001
0000
0010
0000
0001
0000
0010
0000
0001
0000
0010
0000
0001
0000
0000
0000
0000
0000
1000
0000
0000
0000
0000
0000
,
0001
0000
0000
0000
0000
0000
0010
0000
0000
0100
0000
0000
1000
0000
0000
0000
0000
0000
0001
0000
0000
0000
0000
0000
1000
0000
0001
0000
1000
0000
0001
0000
1000
0000
0001
0000
1000
0000
0001
0000
1000
0000
0001
0000
1000
0000
0001
0000
,
1000
0000
0001
0100
0010
1000
0001
0010
,
0001
0000
0000
0000
0000
0000
0100
0000
0000
0000
0000
0000
0001
0100
0001
0100
0001
0100
0001
0000
0000
1000
0000
0000
,
0010
0000
1000
0001
0010
0100
1000
0010
,
0100
0000
0000
0000
0000
0000
0001
0000
0000
0100
0000
0000
0001
0000
0000
0000
0000
0000
1000
0000
0000
0000
0000
0000
0001
0000
0100
0000
0001
0000
0100
0000
0001
0000
0100
0000
0001
0000
0100
0000
0001
0000
0100
0000
0001
0000
0100
0000
,
0001
0000
1000
0001
0100
0010
1000
0100
,
0010
0000
0000
0000
0000
0000
0001
0000
0000
0000
0000
0000
0010
0100
0010
0100
0010
0100
0010
0000
0000
0001
0000
0000
,
0010
0000
0000
0000
0000
0000
0100
0000
0000
1000
0000
0000
0001
0000
0000
0000
0000
0000
0010
0000
0000
0000
0000
0000
0001
0000
1000
0000
0001
0000
1000
0000
0001
0000
1000
0000
0001
0000
0000
0000
0000
0000
0010
0000
0000
0000
0000
0000
,
0001
0000
1000
0001
0100
0000
0010
0000
1000
0000
0000
0000
0001
0000
0000
0000
,
1001
0000
1000
0010
0100
0010
1000
0001
,
0010
0000
0000
0000
0000
0000
0100
0000
0000
0000
0000
0000
0010
0001
0010
0001
0010
0001
0010
0000
0000
0100
0000
0000
,
1000
0000
0000
0000
0000
0000
0001
0000
0000
0010
0000
0000
0100
0000
0000
0000
0000
0000
1000
0000
0000
0000
0000
0000
0001
0000
1000
0000
0001
0000
1000
0000
0001
0000
1000
0000
0001
0000
0000
0000
0000
0000
0100
0000
0000
0000
0000
0000
,
0001
0000
0000
0000
0000
0000
1000
0000
0000
0010
0000
0000
0100
0000
0000
0000
0000
0000
0001
0000
0000
0000
0000
0000
1000
0000
0001
0000
1000
0000
0001
0000
1000
0000
0001
0000
1000
0000
0001
0000
1000
0000
0001
0000
1000
0000
0001
0000
,
1000
0000
0001
0100
0010
0100
0001
1000
,
0100
0000
0000
0000
0000
0000
0010
0000
0000
0000
0000
0000
0100
1000
0100
1000
0100
1000
0100
0000
0000
0010
0000
0000
,
0001
0000
0000
0000
0000
0000
1000
0000
0000
0001
0000
0000
0010
0000
0000
0000
0000
0000
0100
0000
0000
0000
0000
0000
1000
0000
0100
0000
1000
0000
0100
0000
1000
0000
0100
0000
1000
0000
0000
0000
0000
0000
0001
0000
0000
0000
0000
0000
,
1000
0000
0000
0000
0000
0000
0100
0000
0000
0010
0000
0000
0001
0000
0000
0000
0000
0000
1000
0000
0000
0000
0000
0000
0001
0000
1000
0000
0001
0000
1000
0000
0001
0000
1000
0000
0001
0000
1000
0000
0001
0000
1000
0000
0001
0000
1000
0000
,
0001
0000
1000
0001
0100
0010
1000
0100
,
0010
0000
0000
0000
0000
0000
0001
0000
0000
0000
0000
0000
0010
0100
0010
0100
0010
0100
0010
0000
0000
0001
0000
0000
,
1000
0000
0001
0010
0100
1000
0001
0100
,
0010
0000
0000
0000
0000
0000
1000
0000
0000
0001
0000
0000
0100
0000
0000
0000
0000
0000
0001
0000
0000
0000
0000
0000
1000
0000
0001
0000
1000
0000
0001
0000
1000
0000
0001
0000
1000
0000
0001
0000
1000
0000
0001
0000
1000
0000
0001
0000
,
1000
0000
0010
0100
0001
0100
0010
1000
,
0001
0000
0000
0000
0000
0000
0010
0000
0000
0000
0000
0000
0001
1000
0001
1000
0001
1000
0001
0000
0000
1000
0000
0000
,
0010
0000
0000
0000
0000
0000
0100
0000
0000
0001
0000
0000
1000
0000
0000
0000
0000
0000
0010
0000
0000
0000
0000
0000
0100
0000
0001
0000
0100
0000
0001
0000
0100
0000
0001
0000
0100
0000
0000
0000
0000
0000
0010
0000
0000
0000
0000
0000
,
0100
0000
0001
1000
0100
0000
0010
0000
0001
0000
0000
0000
1000
0000
0000
0000
,
1001
0000
0001
0100
0010
0100
0001
1000
,
0100
0000
0000
0000
0000
0000
0010
0000
0000
0000
0000
0000
0100
1000
0100
1000
0100
1000
0100
0000
0000
0010
0000
0000
,
0001
0000
0000
0000
0000
0000
1000
0000
0000
0001
0000
0000
1000
0000
0000
0000
0000
0000
0001
0000
0000
0000
0000
0000
0100
0000
0001
0000
0100
0000
0001
0000
0100
0000
0001
0000
0100
0000
0000
0000
0000
0000
0010
0000
0000
0000
0000
0000
,
0100
0000
0000
0000
0000
0000
0001
0000
0000
1000
0000
0000
0100
0000
0000
0000
0000
0000
0010
0000
0000
0000
0000
0000
0001
0000
1000
0000
0001
0000
1000
0000
0001
0000
1000
0000
0001
0000
1000
0000
0001
0000
1000
0000
0001
0000
1000
0000
,
0001
0000
0100
0001
0010
0100
1000
0001
,
0100
0000
0000
0000
0000
0000
0010
0000
0000
0000
0000
0000
0100
0001
0100
0001
0100
0001
0100
0000
0000
0001
0000
0000
,
1000
0000
0000
0000
0000
0000
0100
0000
0000
0010
0000
0000
0001
0000
0000
0000
0000
0000
1000
0000
0000
0000
0000
0000
0100
0000
0010
0000
0100
0000
0010
0000
0100
0000
0010
0000
0100
0000
0000
0000
0000
0000
1000
0000
0000
0000
0000
0000
,
0100
0000
0000
0000
0000
0000
0010
0000
0000
0001
0000
0000
1000
0000
0000
0000
0000
0000
0001
0000
0000
0000
0000
0000
1000
0000
0001
0000
1000
0000
0001
0000
1000
0000
0001
0000
1000
0000
0001
0000
1000
0000
0001
0000
1000
0000
0001
0000
,
1000
0000
0001
0100
0010
1000
0100
0010
,
0001
0000
0000
0000
0000
0000
0100
0000
0000
0000
0000
0000
0001
0100
0001
0100
0001
0100
0001
0000
0000
0100
0000
0000
,
0010
0000
1000
0010
0100
0001
0010
0100
,
1000
0000
0000
0000
0000
0000
0001
0000
0000
0010
0000
0000
0100
0000
0000
0000
0000
0000
1000
0000
0000
0000
0000
0000
0001
0000
1000
0000
0001
0000
1000
0000
0001
0000
1000
0000
0001
0000
1000
0000
0001
0000
1000
0000
0001
0000
1000
0000
,
0001
0000
1000
0001
0100
0010
1000
0100
,
1000
0000
0000
0000
0000
0000
0010
0000
0000
0000
0000
0000
1000
0001
1000
0001
1000
0001
1000
0000
0000
0001
0000
0000
,
0100
0000
0000
0000
0000
0000
0010
0000
0000
1000
0000
0000
0001
0000
0000
0000
0000
0000
0100
0000
0000
0000
0000
0000
0010
0000
1000
0000
0010
0000
1000
0000
0010
0000
1000
0000
0010
0000
0000
0000
0000
0000
0100
0000
0000
0000
0000
0000
,
0001
0000
0100
0010
1000
0000
0001
0000
0010
0000
0000
0000
0100
0000
0000
0000
,
1001
0101
1001
1010
,
0101
1001
1001
1010
,
1001
0000
1000
0100
0000
0010
0000
0001
,
1000
0000
0001
0100
0010
0000
1001
0000
,
1000
1000
1000
1000
,
1000
1000
1000
1000
;

//---------------dance-single - 14 (HPF!)----------------
#NOTES:
     dance-single:
     14 (HPF!):
     Hard:
     14:
     1.000,1.000,0.211,0.022,0.789,630.000,19.000,2.000,11.000,0.000:
0000
0000
0000
0000
,
0000
0000
0000
0000
,
0000
0000
0000
0000
,
0000
0000
0000
0000
,
0000
0000
0000
0000
,
0000
0000
0000
0000
,
0000
0000
0000
0000
,
0000
0000
0000
0000
,
1001
0000
0001
0100
0000
0100
0000
0100
,
0000
0100
0000
010M
1000
0000
0001
0001
,
1000
0000
1000
0010
0000
0010
0000
0010
,
0000
0010
0000
M010
0001
0000
1000
1000
,
0001
0000
0001
0100
0000
0100
0000
0100
,
0000
0100
0000
010M
1000
0000
0001
0001
,
1000
0000
1000
0010
0000
0010
0000
0010
,
0410
0000
0301
0001
1004
0000
1003
M000
,
1001
0000
0001
0010
0001
0100
0001
1000
,
0001
0010
0001
0100
0010
0000
0100
0100
,
0010
0000
0010
0100
0010
1000
0010
0100
,
0010
1000
0010
0100
0001
0000
2000
0000
,
3100
0000
0100
0010
0100
1000
0100
0010
,
0100
1000
0100
0010
0001
0000
1000
1000
,
0001
0000
0001
0100
0001
0010
0001
1000
,
0001
0000
0010
0000
0001
0000
0100
0000
0010
0000
0010
0000
2000
0000
0000
3000
,
1001
0000
0001
0010
0000
0100
0000
1000
,
0000
0010
0000
0100
0010
0010
1000
1000
,
0001
0000
1000
0100
0000
0010
0000
0100
,
0000
1000
0000
0001
0100
0100
0001
0001
,
1000
0000
0010
0100
0000
0001
0000
1000
,
0000
0010
0000
0100
0010
0010
1000
1000
,
0001
0000
1000
0100
0000
0010
0000
0100
,
4000
0000
3001
0001
0400
0000
0310
00M0
,
1001
0000
1000
0100
0010
0100
1000
0001
,
0100
0000
0000
0000
0001
0000
0000
0000
1000
0100
1000
0001
0010
0100
0010
0001
,
1000
0000
0001
0100
0001
0000
1000
0000
0001
0100
0010
1000
0001
0100
0010
1000
,
0010
0000
1000
0001
1000
0000
0001
0000
1000
0100
0010
0100
1000
0001
0010
0100
,
1000
0000
0001
0010
0100
0010
0001
1000
,
0100
0000
0000
0000
1000
0000
0000
0000
0001
0100
0010
0100
0001
1000
0010
1000
,
0001
0000
1000
0100
1000
0000
0001
0000
1000
0100
0010
0100
1000
0001
0010
0001
,
1000
0000
0001
0010
0001
0000
1000
0000
0001
0100
0010
0100
0001
1000
0010
1000
,
0001
0000
1000
0010
0100
0010
1000
0001
,
0100
0000
0000
0000
0001
0000
0000
0000
1000
0100
1000
0001
0010
0100
0010
0001
,
1000
0000
0001
0100
0010
1000
0001
0010
,
0100
0000
0010
0001
0010
0000
0001
0000
1000
0010
0100
0010
1000
0001
0100
0001
,
1000
0000
0001
0010
0100
0010
0001
1000
,
0001
0000
0000
0000
1000
0000
0000
0000
0001
0010
0001
1000
0100
0010
0100
1000
,
0001
0000
1000
0001
1000
0000
0001
0000
1000
0010
0100
0010
1000
0001
0100
0001
,
1000
0000
0001
0100
0001
0000
1000
0000
1004
0000
0000
0000
0000
0000
0000
0000
,
1MM3
0000
0001
0010
0100
0010
0001
1000
,
0100
0000
0000
0000
1000
0000
0000
0000
0001
0010
0100
0010
0001
1000
0100
1000
,
0001
0000
1000
0001
1000
0000
0001
0000
1000
0010
0100
0010
1000
0001
0100
0001
,
1000
0000
0001
1000
0001
0000
1000
0000
0001
0010
0100
1000
0001
0010
0001
1000
,
0100
0000
0010
0100
1000
0001
0010
0100
,
1000
0000
0000
0000
0001
0000
0000
0000
1000
0010
0100
0010
1000
0001
0100
0001
,
1000
0000
0001
0100
0001
0000
1000
0000
0001
0010
0100
1000
0001
0010
0001
1000
,
0100
0000
0010
0001
0010
0000
0001
0000
1000
0010
0100
0010
1000
0001
0100
0001
,
1000
0000
0001
0100
0010
1000
0001
1000
,
0100
0000
0000
0000
1000
0000
0000
0000
0001
0010
0001
1000
0100
1000
0001
0010
,
0100
0000
0010
0100
1000
0001
0010
0001
,
1000
0000
0001
0100
0001
0000
1000
0000
0010
0100
0001
1000
0010
1000
0001
0100
,
0001
0000
1000
0010
0100
0010
1000
0001
,
0010
0000
0000
0000
0100
0000
0000
0000
0010
0001
1000
0100
1000
0001
0010
0100
,
1000
0000
0001
1000
0001
0000
1000
0000
0001
0100
0010
1000
0001
0100
0010
0100
,
0001
0000
1000
0100
1000
0000
0001
0000
1004
0000
0000
0000
0000
0000
0000
0000
,
1MM3
0000
0001
0010
0100
0010
0001
1000
,
0010
0000
0000
0000
1000
0000
0000
0000
0001
0010
0001
1000
0100
0010
0100
1000
,
0001
0000
1000
0010
1000
0000
0001
0000
1000
0010
0100
0001
1000
0010
0100
0001
,
0100
0000
0001
1000
0001
0000
1000
0000
0001
0010
0100
0010
0001
1000
0100
0010
,
0001
0000
1000
0100
0010
0100
1000
0001
,
0010
0000
0000
0000
0001
0000
0000
0000
1000
0010
0100
0010
1000
0001
0100
0001
,
1000
0000
0001
0010
0001
0000
1000
0000
0001
0010
0100
0010
0001
1000
0100
1000
,
0001
0000
1000
0100
1000
0000
0001
0000
1000
0010
0100
0010
1000
0001
0100
0001
,
1000
0000
0001
0100
0010
0100
0001
1000
,
0010
0000
0000
0000
1000
0000
0000
0000
0001
0010
0001
1000
0100
0010
0100
1000
,
0001
0000
1000
0010
0100
0001
1000
0100
,
0010
0000
0100
1000
0100
0000
1000
0000
0001
0100
0010
0100
0001
1000
0010
1000
,
0001
0000
1000
0100
0010
0100
1000
0001
,
1000
0000
0000
0000
0001
0000
0000
0000
1000
0100
1000
0001
0010
0100
0010
0001
,
1000
0000
0001
1000
0001
0000
1000
0000
0001
0100
0010
0100
0001
1000
0010
1000
,
0001
0000
1000
0010
1000
0000
0001
0000
4001
0000
0000
0000
0000
0000
0000
3000
,
1001
1010
0110
0101
,
1001
0011
0110
1100
,
1001
0000
0001
0010
0000
0010
0000
001M
,
1000
0000
0001
0001
1000
M000
0004
0000
,
0000
0000
0000
0000
,
0000
0000
0000
0003
;

//---------------dance-single - 17 (Zaia)----------------
#NOTES:
     dance-single:
     17 (Zaia):
     Edit:
     17:
     1.000,1.000,0.633,0.022,0.867,654.000,57.000,2.000,0.000,9.000:
1001
0000
0000
0000
,
0000
0000
0000
0000
,
1001
0000
0000
0000
,
0000
0000
0000
0000
,
1001
0000
0000
0000
,
0000
0000
0000
0000
,
1001
0000
1001
0000
,
1001
0000
0000
0000
,
1001
0000
0010
0100
0000
0001
0000
0100
,
0000
0010
0000
1000
0001
0100
0010
0100
,
0101
0000
0100
0010
0000
1000
0000
0001
,
0000
0010
0000
0001
1000
0010
1000
0001
,
1001
0000
1000
0010
0000
0100
0000
0001
,
0000
0010
0000
0001
0100
0001
1000
0010
,
0110
0000
0100
0001
0000
1000
0000
0010
,
1001
0000
0000
0000
0000
0000
0000
0000
1000
0000
0010
0100
0010
1000
0001
0010
,
0001
0000
0100
0010
0000
1010
0000
0101
,
0000
1001
0000
0011
1000
0010
0100
0001
,
1001
0000
0010
0001
0000
1001
0000
1010
,
0000
0000
0110
0000
0000
0000
1001
0000
1000
0000
0001
1000
0010
0100
0010
1000
,
0001
0000
1000
0001
0000
0101
0000
1001
,
0000
0000
1010
0000
0000
0000
0110
0000
0001
0000
1000
0010
0100
0000
0001
0000
,
0101
0000
0001
0100
0000
0110
0000
0101
,
0000
0000
1001
0000
0000
0000
0011
0000
0001
0000
1000
0100
1000
0001
0010
0100
,
1000
0000
0010
0100
0000
1010
0000
1001
,
0000
0000
0101
0000
0000
0000
1010
0000
0100
0000
0001
1000
0010
0000
1000
0000
,
1100
0000
0001
0100
0000
0011
0000
1001
,
0000
0000
0110
0000
0000
0000
1010
0000
0100
0000
0001
0010
0001
1000
0100
0010
,
0001
0000
1000
0010
0000
0110
0000
0101
,
0000
0000
1010
0000
0000
0000
1001
0000
1000
0000
0001
0010
0100
0000
1000
0000
,
1001
0000
0001
1000
0000
1010
0000
0001
,
2000
0000
0000
0000
0000
0000
0000
0000
0200
0000
0000
0000
0000
0000
0000
3300
,
0011
0000
0001
1000
0010
0100
0001
1000
,
0100
0000
0000
0000
0000
0000
0010
0000
0000
0000
0000
0000
0001
0010
0001
1000
0100
1000
0001
0000
0000
0010
0000
0000
,
0001
0000
0000
0000
0000
0000
1000
0000
0000
0001
0000
0000
1000
0000
0000
0000
0000
0000
0100
0000
0000
0000
0000
0000
1000
0000
0010
0000
0100
0000
0001
0000
1000
0000
0100
0000
1000
0000
0000
0000
0000
0000
0100
0000
0000
0000
0000
0000
,
1000
0000
0000
0000
0000
0000
0001
0000
0000
0010
0000
0000
0001
0000
0000
0000
0000
0000
1000
0000
0000
0000
0000
0000
0001
0000
0100
0000
0010
0000
1000
0000
0001
0000
0010
0000
0001
0000
0000
0000
0000
0000
0100
0000
0000
0000
0000
0000
,
0010
0000
1000
0001
0010
0001
1000
0001
,
0100
0000
0000
0000
0000
0000
0010
0000
0000
0000
0000
0000
0100
0001
1000
0100
1000
0001
0100
0000
0000
0001
0000
0000
,
1000
0000
0000
0000
0000
0000
0100
0000
0000
0010
0000
0000
0001
0000
0000
0000
0000
0000
1000
0000
0000
0000
0000
0000
0001
0000
0010
0000
0100
0000
0010
0000
0001
0000
1000
0000
0010
0000
0000
0000
0000
0000
1000
0000
0000
0000
0000
0000
,
0001
0000
0000
0000
0000
0000
0010
0000
0000
0100
0000
0000
1000
0000
0000
0000
0000
0000
0001
0000
0000
0000
0000
0000
1000
0000
0100
0000
1000
0000
0001
0000
0100
0000
0001
0000
1000
0000
0000
0000
0000
0000
0010
0000
0000
0000
0000
0000
,
0100
0000
0001
0100
0010
1000
0001
0010
,
0001
0000
0000
0000
0000
0000
0100
0000
0000
0000
0000
0000
0001
1000
0010
0100
0001
1000
0100
0000
0000
1000
0000
0000
,
0010
0000
1000
0001
0010
0100
1000
0010
,
0100
0000
0000
0000
0000
0000
0001
0000
0000
0100
0000
0000
0001
0000
0000
0000
0000
0000
1000
0000
0000
0000
0000
0000
0001
0000
0010
0000
0001
0000
1000
0000
0010
0000
1000
0000
0001
0000
0000
0000
0000
0000
0100
0000
0000
0000
0000
0000
,
0010
0000
1000
0001
0100
0010
1000
0100
,
0010
0000
0000
0000
0000
0000
0001
0000
0000
0000
0000
0000
0010
0100
1000
0001
0100
0010
1000
0000
0000
0001
0000
0000
,
0010
0000
0000
0000
0000
0000
0100
0000
0000
1000
0000
0000
0001
0000
0000
0000
0000
0000
0010
0000
0000
0000
0000
0000
0001
0000
0100
0000
0010
0000
1000
0000
0001
0000
0010
0000
0100
0000
0000
0000
0000
0000
0010
0000
0000
0000
0000
0000
,
0001
0000
1000
0001
0100
0000
0010
0000
1000
0000
0000
0000
0001
0000
0000
0000
,
1001
0000
1000
0010
0100
0010
1000
0001
,
0010
0000
0000
0000
0000
0000
0100
0000
0000
0000
0000
0000
0010
0001
1000
0001
0100
0010
1000
0000
0000
0100
0000
0000
,
1000
0000
0000
0000
0000
0000
0001
0000
0000
0010
0000
0000
0100
0000
0000
0000
0000
0000
1000
0000
0000
0000
0000
0000
0001
0000
0100
0000
0001
0000
1000
0000
0100
0000
0010
0000
0001
0000
0000
0000
0000
0000
0100
0000
0000
0000
0000
0000
,
0001
0000
0000
0000
0000
0000
1000
0000
0000
0010
0000
0000
0100
0000
0000
0000
0000
0000
0001
0000
0000
0000
0000
0000
1000
0000
0010
0000
0100
0000
0001
0000
1000
0000
0100
0000
0010
0000
0000
0000
0000
0000
0100
0000
0000
0000
0000
0000
,
1000
0000
0001
0100
0010
0100
0001
1000
,
0100
0000
0000
0000
0000
0000
0010
0000
0000
0000
0000
0000
0100
1000
0001
1000
0010
0100
0001
0000
0000
0010
0000
0000
,
0001
0000
0000
0000
0000
0000
1000
0000
0000
0001
0000
0000
0010
0000
0000
0000
0000
0000
0100
0000
0000
0000
0000
0000
1000
0000
0100
0000
1000
0000
0001
0000
0100
0000
0001
0000
1000
0000
0000
0000
0000
0000
0001
0000
0000
0000
0000
0000
,
1000
0000
0000
0000
0000
0000
0100
0000
0000
0010
0000
0000
0001
0000
0000
0000
0000
0000
1000
0000
0000
0000
0000
0000
0001
0000
0010
0000
0100
0000
1000
0000
0001
0000
0100
0000
0001
0000
0000
0000
0000
0000
0010
0000
0000
0000
0000
0000
,
0001
0000
1000
0001
0100
0010
1000
0100
,
0010
0000
0000
0000
0000
0000
0001
0000
0000
0000
0000
0000
0100
0001
1000
0100
0010
0100
1000
0000
0000
0001
0000
0000
,
1000
0000
0001
0010
0100
1000
0001
0100
,
0010
0000
0000
0000
0000
0000
1000
0000
0000
0001
0000
0000
0100
0000
0000
0000
0000
0000
0001
0000
0000
0000
0000
0000
1000
0000
0100
0000
1000
0000
0001
0000
0100
0000
0001
0000
1000
0000
0000
0000
0000
0000
0010
0000
0000
0000
0000
0000
,
1000
0000
0010
0100
0001
0100
0010
1000
,
0001
0000
0000
0000
0000
0000
0010
0000
0000
0000
0000
0000
0001
0010
0100
1000
0001
0100
0010
0000
0000
1000
0000
0000
,
0010
0000
0000
0000
0000
0000
0100
0000
0000
0001
0000
0000
1000
0000
0000
0000
0000
0000
0010
0000
0000
0000
0000
0000
0100
0000
0001
0000
1000
0000
0001
0000
0010
0000
0100
0000
1000
0000
0000
0000
0000
0000
0010
0000
0000
0000
0000
0000
,
0100
0000
0001
1000
0100
0000
0010
0000
0001
0000
0000
0000
1000
0000
0000
0000
,
1001
0000
0001
0100
0010
0100
0001
1000
,
0100
0000
0000
0000
0000
0000
0010
0000
0000
0000
0000
0000
0100
1000
0001
0100
0001
1000
0100
0000
0000
0010
0000
0000
,
0001
0000
0000
0000
0000
0000
1000
0000
0000
0001
0000
0000
1000
0000
0000
0000
0000
0000
0001
0000
0000
0000
0000
0000
0100
0000
0010
0000
1000
0000
0001
0000
0010
0000
0100
0000
1000
0000
0000
0000
0000
0000
0010
0000
0000
0000
0000
0000
,
0100
0000
0000
0000
0000
0000
0001
0000
0000
1000
0000
0000
0100
0000
0000
0000
0000
0000
0010
0000
0000
0000
0000
0000
0001
0000
0100
0000
0010
0000
1000
0000
0001
0000
0010
0000
0001
0000
0000
0000
0000
0000
1000
0000
0000
0000
0000
0000
,
0001
0000
0100
0001
0010
0100
1000
0001
,
0100
0000
0000
0000
0000
0000
0010
0000
0000
0000
0000
0000
0100
0001
1000
0100
0010
0001
1000
0000
0000
0001
0000
0000
,
1000
0000
0000
0000
0000
0000
0100
0000
0000
0010
0000
0000
0001
0000
0000
0000
0000
0000
1000
0000
0000
0000
0000
0000
0100
0000
1000
0000
0100
0000
0010
0000
0001
0000
1000
0000
0010
0000
0000
0000
0000
0000
0001
0000
0000
0000
0000
0000
,
0100
0000
0000
0000
0000
0000
0010
0000
0000
1000
0000
0000
0001
0000
0000
0000
0000
0000
1000
0000
0000
0000
0000
0000
0001
0000
0010
0000
0100
0000
1000
0000
0001
0000
1000
0000
0010
0000
0000
0000
0000
0000
0100
0000
0000
0000
0000
0000
,
0001
0000
1000
0100
0010
0001
0100
0010
,
1000
0000
0000
0000
0000
0000
0100
0000
0000
0000
0000
0000
1000
0100
1000
0001
0100
0001
1000
0000
0000
0100
0000
0000
,
0010
0000
0001
0010
0100
1000
0010
0100
,
0001
0000
0000
0000
0000
0000
1000
0000
0000
0010
0000
0000
0100
0000
0000
0000
0000
0000
0001
0000
0000
0000
0000
0000
1000
0000
0100
0000
0010
0000
0100
0000
1000
0000
0001
0000
0100
0000
0000
0000
0000
0000
0010
0000
0000
0000
0000
0000
,
0100
0000
0001
1000
0100
0010
0001
0100
,
0001
0000
0000
0000
0000
0000
0010
0000
0000
0000
0000
0000
0001
1000
0010
1000
0001
0010
0001
0000
0000
1000
0000
0000
,
0100
0000
0000
0000
0000
0000
0010
0000
0000
0001
0000
0000
1000
0000
0000
0000
0000
0000
0100
0000
0000
0000
0000
0000
0010
0000
0001
0000
1000
0000
0001
0000
0100
0000
0010
0000
1000
0000
0000
0000
0000
0000
0100
0000
0000
0000
0000
0000
,
1000
0000
0100
0010
0001
0000
1000
0000
0010
0000
0000
0000
0100
0000
0000
0000
,
1111
1111
1111
1111
,
1111
1111
1111
1111
,
1111
0000
0001
0100
0000
0010
0000
1000
,
0001
0000
1000
0100
0010
0000
1001
0000
,
0001
0001
0001
0001
,
0001
0001
0001
0001
;
