#TITLE:Innocent Sorrow;
#SUBTITLE:;
#ARTIST:Abingdon Boys School;
#TITLETRANSLIT:;
#SUBTITLETRANSLIT:;
#ARTISTTRANSLIT:;
#CREDIT:;
#BANNER:innocentsorrowbnr.avi;
#BACKGROUND:dgrayman-bg.png;
#LYRICSPATH:innocentsorrow.lrc;
#CDTITLE:!timsilog.png;
#MUSIC:innocent sorrow.mp3;
#OFFSET:0.260;
#SAMPLESTART:37.088;
#SAMPLELENGTH:21.580;
#SELECTABLE:YES;
#BPMS:0.000=90.020,25.500=180.040;
#STOPS:;
#BGCHANGES:0.333=innocentsorrowV.avi=1.000=0=0=1,
0.750=innocentsorrowV.avi=1.000=0=0=1,
245.000=dgrayman-bg.png=1.000=0=0=1,
99999=-nosongbg-=1.000=0=0=0 // don't automatically add -songbackground-
;
// cache tags:
#FIRSTBEAT:1.500;
#LASTBEAT:245.000;
#SONGFILENAME:Songs/toune/innocent sorrow/innocentsorrow.sm;
#HASMUSIC:1;
#HASBANNER:1;
#MUSICLENGTH:90.232;
// end cache tags

//---------------dance-single - ----------------
#NOTES:
     dance-single:
     :
     Easy:
     4:
     0.331,0.373,0.144,0.321,0.000,167.000,13.000,29.000,0.000,0.000:
0000
0000
0000
2000
0000
3000
0020
0000
,
2030
0000
3000
0002
0000
0000
0003
0000
,
0000
0000
0000
1000
0000
0100
0000
1000
,
0000
0100
0000
0010
0000
0100
0000
0001
,
0000
1000
0000
0010
0000
0000
0000
0010
,
0000
0001
0000
0010
0000
0001
0000
1000
,
0000
0010
0000
1000
0000
0100
0000
0010
,
0000
0100
0000
1000
0000
0100
0000
0010
,
0000
0001
0000
0010
0000
0100
0000
0010
,
0000
0002
0000
0000
0003
0000
0000
0000
,
0000
0000
0000
0000
0000
1000
0000
0100
,
0000
0010
0000
0100
0000
0001
0000
0010
,
0000
0100
0000
1000
0000
0001
0000
2000
,
0000
3000
0000
0000
,
0000
0000
0000
0001
0000
0100
0000
0010
,
0000
1000
0000
0010
0000
1000
0000
0100
,
0000
0001
0000
0100
0000
1000
0000
0001
,
0000
2000
0000
0000
0000
3000
0000
0000
,
0000
0000
0000
1000
0000
0100
0000
0010
,
0000
0100
0000
1000
0000
0001
0000
0010
,
0000
0100
0000
0011
0000
0000
0000
1100
,
0000
0000
0000
0011
0000
0000
0000
2200
,
0000
0000
0000
3300
0000
0000
0000
0000
,
1100
0000
0012
0003
0000
0000
0000
0000
,
1000
0001
0010
0100
,
1000
0100
0000
0000
,
0001
0100
0010
1000
,
0000
1000
0000
0100
0000
0010
0000
0001
,
0000
1000
0000
0100
0000
0000
0000
0001
,
0000
0100
1000
0000
,
0000
0000
2002
0000
0000
0000
0000
3003
,
1100
0022
0033
0000
,
1000
0100
0010
0001
,
0010
0002
0003
0000
,
1000
0000
0000
0200
0000
0300
0020
0030
,
0000
0001
0000
1000
0000
0001
0000
1000
,
0000
0001
0000
1000
0000
0001
0000
0000
,
1010
0202
0000
0303
,
0001
0010
0100
0001
,
1000
0000
0002
0000
0000
0003
0000
0000
,
0010
0001
0010
0100
,
0010
0000
0000
1000
0000
0100
0000
0000
,
0000
0010
0000
0001
0000
0000
1000
0000
,
0000
0001
0000
1000
0000
0001
0000
0000
,
0000
0002
0000
0000
,
1003
0202
0303
0000
,
0000
1000
0000
0010
0000
0001
0000
0010
,
0000
0100
0000
0002
0000
0000
0003
0000
,
0000
0010
0000
0001
0000
0000
1000
0000
,
0000
0010
0000
0001
0000
1000
0000
0001
,
0000
1000
0000
0001
0000
1000
0000
0001
,
0000
1000
0000
0001
0000
0100
0000
0010
,
0000
0100
0000
0010
1000
0000
0010
0000
,
0001
0000
0020
0000
0000
0230
0000
0000
,
0000
0000
0300
0000
,
0000
0000
0000
1000
0000
0000
0000
0001
,
0000
0000
0000
1000
0000
0100
0000
0010
,
0000
0001
0000
0020
0000
0000
0030
0000
,
0000
0000
0000
2000
0000
0000
0000
3000
,
0000
0000
0000
0002
0000
0000
0000
0003
,
0000
0000
0000
0000
,
0000
1001
0000
0000
;

//---------------dance-single - Copied from----------------
#NOTES:
     dance-single:
     Copied from:
     Medium:
     7:
     0.442,0.611,0.122,0.432,0.078,229.000,11.000,39.000,0.000,0.000:
0000
0000
0000
2000
0000
3000
0020
0000
,
2030
0000
3000
0002
0000
0000
0003
0000
,
0000
0000
0000
0000
0000
0000
1000
1000
0000
0100
0000
0100
1000
0000
0000
0001
,
0000
0100
1000
0000
0100
0000
0020
0030
0001
0200
0300
0020
0002
0030
0000
0003
,
0000
0000
1000
0000
0000
0000
0010
0000
0000
1000
0000
0100
0010
0000
0000
0010
,
0000
0001
0001
0000
1000
0000
0100
0000
0000
0010
0000
0001
0000
0001
0000
0000
,
0000
0010
0000
1000
0000
0100
0000
0001
,
0010
0000
0000
0000
1000
0000
0100
0010
,
0000
0001
0000
0010
0000
0100
0010
0000
,
0010
0002
0000
0000
0000
0000
0003
0000
,
0000
0000
0000
1000
0000
1000
0000
0000
,
1000
0100
0000
0000
0010
0000
0001
1000
,
0000
0100
0000
0001
0000
0100
2000
0000
,
0000
0000
0000
0000
0000
3000
0000
0000
,
0000
0000
0000
0001
0000
1000
0100
0000
,
0000
0010
0000
0001
1000
0000
0100
0000
,
0000
1000
0000
0001
0000
1000
0001
0000
,
0010
0002
0000
0000
0103
0000
0000
0001
,
0000
1000
0000
0100
0000
0010
0001
0000
,
0000
0100
0000
0001
1000
0000
0100
0000
,
0000
0010
0000
0002
0000
0000
0000
2003
,
0000
0000
0000
3200
0000
0000
0000
0320
,
0000
0000
0000
0000
0031
1000
0100
0010
,
0011
0000
2200
0000
0000
0000
0300
3000
,
0100
0010
0001
1000
0000
0100
0010
0000
,
0001
2002
0000
3003
,
0001
0100
0100
0010
0000
0001
1000
0000
,
0000
0100
0000
1001
0000
0100
0000
0010
,
0000
0001
0000
0011
0000
0000
0000
0100
,
0000
0000
1000
0000
0001
0010
0000
0100
,
0000
0001
0002
0000
0000
0000
0000
0003
,
0110
0000
2200
0000
0000
0000
3000
1300
,
1000
0001
0010
0100
0000
1000
0001
0000
,
0100
0002
0000
0003
,
0000
1000
0000
0100
0000
0000
0001
0000
,
0000
1000
0000
0010
0200
0000
0000
0301
,
0000
0000
0000
1000
0000
0000
0000
0100
,
0010
0000
0002
0000
0000
0000
0000
0003
,
1000
0100
0010
0001
0000
0001
0010
0000
,
0100
2002
0000
3003
,
0001
0010
0100
1000
0000
0001
0010
0000
,
0000
0100
0000
0101
0000
0100
0000
0000
,
0000
0010
0000
0001
0000
0000
0000
1000
,
0000
0000
0100
0000
0010
0001
0000
1000
,
0000
0100
0020
0000
0000
0000
0030
0000
,
0001
0000
2200
0300
0000
0000
3000
0000
,
0001
1000
0100
0010
0000
0001
0010
0000
,
0001
2002
0000
3003
,
0000
0100
0000
0020
0000
0000
0032
0000
,
0003
1000
0000
0100
0010
0001
1000
0100
,
0000
0010
0001
0000
1000
0100
0010
0000
,
0001
0100
0010
1000
0100
0010
0001
0100
,
0000
0001
0100
0000
0001
1000
0000
0010
,
0000
0100
0000
0002
0000
0000
2003
0000
,
0000
0000
3000
0000
0000
0100
0000
0010
,
0000
0001
0000
1000
0000
0100
0000
0000
,
0010
0001
0100
0010
0000
0100
0010
0000
,
0001
0200
0000
0000
0000
0000
0000
0300
,
0000
0000
0000
0020
0000
0000
0000
0000
,
0000
0000
2030
0000
0000
0000
3000
0001
,
0000
0000
0010
0100
1000
0000
0001
0100
,
0010
1000
0100
0000
0000
0000
0000
0000
;

//---------------dance-single - Copied from Copied f----------------
#NOTES:
     dance-single:
     Copied from Copied f:
     Hard:
     9:
     0.711,0.815,0.931,0.488,0.155,321.000,84.000,44.000,0.000,8.000:
0000
0000
0000
2000
0000
3000
0020
0000
,
2030
0000
0000
0000
3000
0000
0002
0000
1000
0100
0010
1000
0103
0010
0100
0010
,
0001
0020
0000
0230
0000
0000
1300
1000
0000
0100
0000
0100
1000
0000
0000
0001
,
0000
0100
1000
0000
0100
0000
0020
0030
0001
0200
0300
0020
0002
0130
0000
0003
,
0000
0000
1000
0100
0000
0000
0010
0010
0000
1000
0000
0100
0010
0010
0100
0000
,
0000
0001
0010
0010
1000
0000
0100
0100
0000
0010
0000
0001
0010
0010
0000
0000
,
0000
0100
0000
0022
0000
0000
1033
0000
1000
0000
0110
0000
0000
0000
0001
0000
,
0010
1001
0000
0000
1000
0011
0100
0010
,
0000
0101
0000
0010
0000
0101
0010
0000
,
0010
0102
1000
0100
0010
1100
0103
0010
,
0001
1010
0100
1000
1000
0011
1000
0000
,
1000
0110
0000
0000
0010
1100
0001
1000
,
0000
0110
0000
0001
0000
1100
2000
0100
,
0010
0001
0010
0100
0001
3010
0100
1000
,
0100
0110
0001
0001
0000
1010
0100
0000
,
0000
0011
0000
0001
1000
0110
0100
0000
,
0000
1100
0000
0001
0000
0000
0001
1100
,
0010
0002
1000
0000
0103
0000
0000
0011
,
0000
1000
0000
0100
0000
1010
0001
0000
,
0000
0110
0000
0001
1000
0011
0100
0000
,
0000
0110
0000
0002
0000
0000
0000
2003
,
0000
0000
0000
3200
0000
0000
0000
0320
,
0000
0000
0000
0000
0031
1000
0100
0010
,
0011
0000
2200
0000
0000
0000
0300
3000
,
0100
1010
0001
1000
0000
0101
0010
0000
,
0001
0010
2002
0000
0000
0010
3003
0000
,
0001
1100
0100
0010
0000
0011
1000
0000
,
0000
0110
0000
0001
0000
1100
0000
0010
,
0000
0101
0000
0001
0000
0000
0000
0110
,
0000
0000
1000
1100
0001
0010
0000
0101
,
0000
0001
0002
0100
0000
0000
0000
0003
,
0110
0000
2200
0000
0300
0010
0000
3100
,
1000
0011
0010
0100
0000
1100
0001
0000
,
0100
1010
0002
0000
0000
0010
0003
0000
,
0000
1001
0000
0100
0000
1100
0001
0000
,
0000
1001
0000
0010
0200
1000
0000
0311
,
0000
0001
0000
1000
0110
0011
0000
0100
,
0010
0110
0002
0000
0000
0100
0000
0003
,
1000
0110
0010
0001
0000
1001
0010
0000
,
0100
0011
2002
0000
0000
0010
3003
0000
,
0001
0110
0100
1000
0000
1001
0010
0000
,
0000
0110
0000
0100
0000
0110
0000
0000
,
0000
0110
0000
0001
0000
0110
0000
1000
,
0000
0110
0100
0000
0010
0101
0000
1000
,
0000
0101
0020
0000
0000
0001
0030
0000
,
0012
0000
0003
0000
0000
0000
2200
0000
0000
0300
0000
0000
0000
0000
0000
0001
0000
0000
3000
0000
0000
0000
0000
0000
,
0001
1010
0100
0010
0000
0101
0010
0000
,
0001
0110
2002
0000
0000
0010
3003
0000
,
0000
0110
0000
0020
0000
0100
0032
0000
,
0003
1010
0000
0100
0010
0011
1000
0100
,
0000
0110
0001
0000
1000
0101
0010
0000
,
0001
0101
0010
1000
0100
1010
0001
0100
,
0000
1001
0100
0000
0001
1100
0000
0010
,
0000
0101
0000
0002
0010
0100
2013
0100
,
0000
0100
3010
0000
1000
1100
0000
0010
,
0000
0001
0000
1100
0000
0100
0000
0110
,
0010
1000
0100
0010
0000
0001
0010
0000
,
0001
0000
0200
0000
0010
0001
0010
0000
0000
0000
0001
0000
0000
0000
0300
0000
,
0000
0001
0000
0020
0000
0001
0000
0000
,
0000
0001
2030
0100
0100
0010
3100
0100
,
0010
0001
0010
0100
1000
0000
0001
0100
,
0010
1000
0101
0000
0000
0000
0000
0000
;
