#TITLE:Blazing Hate;
#SUBTITLE:Holy War (2002);
#ARTIST:Dragonland;
#TITLETRANSLIT:;
#SUBTITLETRANSLIT:;
#ARTISTTRANSLIT:;
#CREDIT:;
#BANNER:Blazing HateBN.png;
#BACKGROUND:Blazing HateBG.png;
#LYRICSPATH:;
#CDTITLE:Joe Dcd title.png;
#MUSIC:Dragonland_-_Holy_War_-_08_-_Blazing_Hate.mp3;
#OFFSET:-0.130;
#SAMPLESTART:134.240;
#SAMPLELENGTH:12.000;
#SELECTABLE:YES;
#BPMS:0.000=150.120,64.000=75.060,68.000=150.120,332.000=75.060,334.000=150.120,542.000=75.060,553.000=150.120,663.000=75.060;
#STOPS:;
#BGCHANGES:;
// cache tags:
#FIRSTBEAT:0.000;
#LASTBEAT:714.000;
#SONGFILENAME:Songs/Astronomic Metal Collection 2/(Joe D) Blazing Hate/Dragonland_-_Holy_War_-_08_-_Blazing_Hate.sm;
#HASMUSIC:1;
#HASBANNER:1;
#MUSICLENGTH:315.826;
// end cache tags

//---------------dance-single - ----------------
#NOTES:
     dance-single:
     :
     Hard:
     10:
     0.955,1.000,0.583,0.497,1.000,1770.000,184.000,157.000,0.000,4.000:
1001
0000
0000
0000
0000
0000
0022
0033
,
1100
0000
0000
0000
0000
0000
2020
3030
,
0101
0000
0000
0000
0000
0000
2002
3003
,
0110
0000
1001
0000
0110
0110
0120
0030
,
1001
0000
0000
0000
0000
0000
0022
0033
,
1100
0000
0000
0000
0000
0000
0202
0303
,
1010
0000
0000
0000
0000
0000
0022
0033
,
0110
0000
0000
0000
1001
0000
0000
0000
0010
0000
1000
0100
0010
0100
0010
0001
,
0010
0100
1000
0001
0100
0010
0100
0010
1000
0001
1000
0100
0010
0001
0010
0001
,
0010
0100
1000
0010
1000
0100
1000
0100
1000
0100
0010
0100
1000
0001
1000
0010
,
0100
1000
0100
0010
0001
1000
0001
1000
0001
0010
0100
0010
0001
0100
0001
0100
,
0001
0010
0001
0010
0100
0010
0100
0010
0100
1000
0100
1000
0100
0010
0100
0010
,
0100
0010
0001
0100
0001
0100
0010
1000
0010
1000
0100
0010
0100
0010
0001
1000
,
0001
1000
0010
0100
0010
0100
0010
1000
0010
1000
0001
1000
0001
1000
0010
0100
,
0010
0100
0010
1000
0010
1000
0100
0010
0100
0010
0001
1000
0001
1000
0100
0001
,
0100
0000
0000
0001
0000
0000
1000
0000
0000
0010
0000
0000
1000
0000
0000
0010
0000
0000
0100
0000
0000
0010
0000
0000
1000
0000
0000
0000
0100
0000
0000
0000
0010
0000
0000
0000
0001
0000
0000
0000
0010
0000
0000
0000
0100
0000
0000
0000
,
2001
3200
0320
0032
,
1003
0100
1000
0010
1000
0001
1000
0100
1000
0001
1000
0100
,
2002
0000
0000
3003
0000
0000
1000
0000
0100
0010
0001
0000
0100
0000
0010
0100
1000
0000
0001
0000
0010
0000
0100
0000
,
1001
0000
1000
0100
0010
0001
0020
0030
0001
1000
0001
1000
,
0020
0030
0100
0010
0100
0001
0020
0030
0100
1000
0100
1000
,
0200
0300
0001
0010
0100
1000
0200
0300
0001
0010
0100
0010
,
0200
0300
1000
0001
1000
0010
0200
0300
0100
0010
0100
0010
,
2000
3000
1000
0010
0100
0010
2000
3000
0010
0001
0010
0100
,
2000
3000
1000
0001
1000
0001
2000
3000
0100
0010
0100
0010
,
0002
0003
0100
1000
0100
0010
0002
0003
0001
0100
0010
0100
,
0001
1000
0001
0010
0001
0010
0100
0010
0100
1000
0100
1000
,
0120
0030
1000
0100
0010
0001
0020
0030
0001
1000
0001
1000
,
0020
0030
0100
0010
0100
0001
0020
0030
0100
1000
0100
1000
,
0200
0300
0001
0010
0100
1000
0200
0300
0001
0010
0100
0010
,
0200
0300
1000
0001
1000
0010
0200
0300
0100
0010
0100
0010
,
2000
3000
1000
0010
0100
0010
2000
3000
0010
0001
0010
0100
,
2000
3000
1000
0001
1000
0001
2000
3000
0100
0010
0100
0010
,
0002
0003
0100
1000
0100
0010
0002
0003
0001
0100
0010
0100
,
0001
1000
0001
0010
0001
0010
0100
0010
0100
1000
0100
1000
,
0110
0000
0001
0010
0001
0010
0001
0000
0001
0010
0001
0010
,
0001
0000
0001
0010
0001
0010
1100
0000
0011
0000
1010
0000
,
0101
0000
1000
0100
1000
0100
1000
0000
1000
0100
1000
0100
,
1000
0000
0000
0000
0000
0000
0000
0000
1000
0000
0000
0000
0100
0000
0000
0000
1000
0000
0000
0000
0100
0000
0000
0000
0010
0000
0000
0000
0000
0000
0001
0000
0000
0010
0000
0000
0100
0000
0000
0000
1000
0000
0000
0000
0001
0000
0000
0000
,
0210
0000
0000
0000
0010
0000
0300
0000
0000
1000
0100
0010
1002
0000
0000
0000
1000
0000
0100
0000
0000
0003
0000
0000
,
2100
0000
0000
0000
0100
0000
0010
0000
0000
3001
0010
0100
2001
0000
0000
0000
0001
0000
0010
0000
0000
3000
0100
0000
,
0021
0000
0000
0000
0001
0000
0000
0000
0030
0001
0010
0100
2010
0000
0000
0000
3001
0000
1000
0000
0001
0000
1000
0000
,
0110
0000
1000
0100
0000
0100
0010
0000
0010
0001
0000
0100
,
1001
0000
0000
0000
0000
0000
0000
0000
0000
0000
0000
0000
0000
0000
0000
0000
0000
0000
0100
0000
0000
0000
0000
0000
0010
0000
0000
0000
0000
0000
0001
0000
0000
0000
0000
0000
0000
0000
0000
0000
0000
0000
0000
0000
0000
0000
0000
0000
0100
0000
0000
0000
0000
0000
0000
0000
0000
0000
0000
0000
0000
0000
0000
0000
0000
0000
0010
0000
0000
0000
0000
0000
0100
0000
0000
0000
0000
0000
1000
0000
0000
0000
0000
0000
0000
0000
0000
0000
0000
0000
0000
0000
0000
0000
0000
0000
0010
0000
0000
0000
0000
0000
0000
0000
0000
0000
0000
0000
0000
0000
0000
0000
0000
0000
0100
0000
0000
0000
0000
0000
0010
0000
0000
0000
0000
0000
0001
0000
0000
0000
0000
0000
0000
0000
0000
0000
0000
0000
0000
0000
0000
0000
0000
0000
0010
0000
0000
0000
0000
0000
0000
0000
0000
0000
0000
0000
0000
0000
0000
0000
0100
0000
0000
0000
0000
0000
0000
0000
0000
0000
0000
0000
0000
0000
0000
0000
0010
0000
0000
0000
0000
0000
0000
0000
0000
0000
0000
0000
0000
0000
0000
0000
,
1001
0000
0001
0100
0001
0100
0001
0000
0001
0100
0001
0100
,
0001
0000
0001
0100
0001
0100
1001
0000
1100
0000
0110
0000
,
0101
0000
1000
0010
1000
0010
1000
0000
1000
0010
1000
0010
,
1000
0001
0001
0010
0010
0010
0100
0100
0100
1000
1000
1000
,
0210
0000
0000
0000
0010
0000
0300
0000
0000
1000
0100
0010
1002
0000
0000
0000
1000
0000
0100
0000
0000
0003
0000
0000
,
2100
0000
0000
0000
0100
0000
0010
0000
0000
3001
0010
0100
2001
0000
0000
0000
0001
0000
0010
0000
0000
3000
0100
0000
,
0021
0000
0000
0000
0001
0000
0000
0000
0030
0001
0010
0100
2010
0000
0000
0000
0100
0000
0010
0000
0000
3000
0000
0000
,
0011
0000
0110
0000
,
1100
0000
2002
3013
,
0110
0000
1000
0001
1000
0000
0100
0000
1000
0000
0000
0010
0001
0000
0100
0000
,
0001
0000
0000
1000
0010
0000
0100
0000
1000
0000
0000
0001
0100
0000
0001
0000
,
1000
0000
0100
0001
0100
0000
0001
0000
0010
0000
0000
0100
0001
0000
0010
0000
,
1000
0000
0000
0010
0001
0000
0010
0000
0100
0000
0000
1000
0001
0000
0100
0000
,
0001
0000
0100
0010
0100
0000
1000
0000
0001
0000
0000
1000
0100
0000
0001
0000
,
1000
0000
0000
0010
0001
0000
0010
0000
0100
0000
0000
0100
1000
0000
0010
0000
,
1000
0000
0010
0001
0010
0000
0100
0000
0010
0000
0000
1000
0001
0000
0100
0000
,
0001
0000
0000
0100
0010
0000
0100
0001
1000
0100
0010
0001
0110
0000
0000
0000
,
1001
0000
0100
0010
0100
0000
0001
0000
1000
0000
0000
0010
0001
0000
0100
0000
,
0001
0000
0000
0100
0010
0000
0100
0000
1000
0000
0000
0010
1000
0000
0001
0000
,
0100
0000
1000
0010
1000
0000
0001
0000
0010
0000
0000
0100
0001
0000
0010
0000
,
1000
0000
0000
0010
0001
0000
0010
0000
0100
0000
0000
1000
0001
0000
0100
0000
,
1001
0000
0010
0100
0010
0000
1000
0000
0001
0000
0000
0010
0100
0000
0001
0000
,
1000
0000
0000
0010
0001
0000
0010
0000
0100
0000
0000
0001
1000
0000
0010
0000
,
1002
0000
0000
0100
0010
0000
1000
0000
0100
0000
0000
1000
0100
0000
0013
0000
,
0110
0000
0100
1000
0100
1000
0100
1000
0100
0010
0001
0010
0100
1000
0100
0010
,
1001
1000
1100
1001
1000
1100
1001
1000
,
0110
0000
1000
0000
0110
0000
0011
0000
0100
0010
0100
0010
0100
0000
0010
0000
,
1001
1000
0101
0011
1000
0012
0023
0230
,
1301
0000
1000
0000
0110
0000
0001
0010
0100
0010
0100
1000
0001
1000
0100
1000
,
0110
1000
1000
0101
1000
1000
0110
0011
,
0101
0000
1000
0000
0011
0000
0100
0010
0001
1000
0001
0100
0010
0100
0010
0100
,
1001
0000
1100
0000
0100
0010
0100
0000
1000
0000
0110
0000
0001
0000
1010
0000
,
0100
0000
1001
0000
0010
0000
1100
0000
0010
0001
0010
0000
1000
0000
0011
0000
,
1100
0000
0011
0000
1000
0001
1000
0000
0010
0000
0101
0000
1000
0010
1000
0000
,
0100
0000
0110
0000
1000
0100
1000
0000
0100
0000
0011
0000
1000
0000
0101
0000
,
1001
1100
0001
0110
1000
0101
0010
1001
,
0010
0100
0001
0100
0001
0100
0001
0100
0010
1000
0010
1000
0010
1000
0010
1000
,
0110
0011
0110
1100
,
2002
0000
0000
3003
0020
0000
0030
0000
,
1001
0000
0000
0000
0000
0000
0220
0330
1000
0100
0010
0001
0010
0100
0010
0100
,
1000
0100
0010
0100
1000
0001
1000
0100
0010
0001
0010
0100
1000
0001
1000
0001
,
1000
0100
0010
0100
0010
0001
0010
0001
1000
0010
1000
0010
0100
0001
0100
0001
,
1000
0000
0100
0000
0020
0000
0030
0000
1000
0100
0010
0001
0010
0001
0010
0100
,
0010
0100
1000
0001
1000
0001
0100
0001
0100
0001
0010
0100
0010
0100
1000
0010
,
1000
0010
0100
0010
0100
0010
0001
0100
0001
0100
0010
1000
0010
1000
0100
0010
,
0100
0010
1000
0001
1000
0001
0010
0100
0010
0100
0001
1000
0001
1000
0100
0010
,
1000
0100
0010
0001
0010
0100
1001
0000
1000
0100
0010
0001
,
0020
0030
0001
1000
0001
1000
0020
0030
0100
0010
0100
0001
,
0020
0030
0100
1000
0100
1000
0200
0300
0001
0010
0100
1000
,
0200
0300
0001
0010
0100
0010
0200
0300
1000
0001
1000
0010
,
0200
0300
0100
0010
0100
0010
2000
3000
1000
0010
0100
0010
,
2000
3000
0010
0001
0010
0100
2000
3000
1000
0001
1000
0001
,
2000
3000
0100
0010
0100
0010
0002
0003
0100
1000
0100
0010
,
0002
0003
0001
0100
0010
0100
0001
1000
0001
0010
0001
0010
,
0100
0010
0100
1000
0100
1000
0020
0030
1000
0100
0010
0001
,
0020
0030
0001
1000
0001
1000
0020
0030
0100
0010
0100
0001
,
0020
0030
0100
1000
0100
1000
0200
0300
0001
0010
0100
1000
,
0200
0300
0001
0010
0100
0010
0200
0300
1000
0001
1000
0010
,
0200
0300
0100
0010
0100
0010
2000
3000
1000
0010
0100
0010
,
2000
3000
0010
0001
0010
0100
2000
3000
1000
0001
1000
0001
,
2000
3000
0100
0010
0100
0010
0002
0003
0100
1000
0100
0010
,
0002
0003
0001
0100
0010
0100
0020
0030
1000
0100
1000
0100
,
0020
0030
1000
0100
0010
0001
1100
0000
1100
0000
1100
0000
,
1100
0000
0000
0000
0000
0000
0000
0000
1100
0000
0000
0000
0000
0000
0000
0000
1100
0000
0000
0000
0000
0000
0000
0000
1001
0000
0000
0000
0000
0000
0100
0000
0000
0010
0000
0000
0100
0000
0000
0000
0000
0000
0001
0000
0000
0000
0000
0000
,
1000
0000
0000
0100
0001
0000
1000
0000
0001
0000
0000
1000
0010
0000
0100
0000
,
1000
0000
0000
0010
0100
0000
0001
0000
1000
0000
0100
0010
0100
0000
0001
0000
,
0010
0000
0000
1000
0001
0000
0010
0000
1000
0000
0000
0100
0001
0000
0010
0000
,
0100
0000
0000
1000
0001
0000
0010
0000
1000
0000
0100
0001
0100
0000
1000
0000
,
0001
0000
0000
1000
0100
0000
0001
0000
1000
0000
0000
0010
1000
0000
0010
0000
,
0100
0000
0000
0001
1000
0000
0010
0000
0001
0000
1000
0001
1000
0000
0100
0000
,
0010
0000
0000
1000
0100
0000
0001
0000
0010
0001
0010
0100
0010
0001
0010
0100
,
0001
0100
0001
1000
0001
0100
0001
1000
0110
0000
0100
0010
0100
0000
0001
0000
,
1000
0000
0000
0010
0001
0000
0100
0000
0001
0000
0000
1000
0010
0000
0100
0000
,
1000
0000
0000
0010
0100
0000
0001
0000
1000
0000
0100
0010
0100
0000
0001
0000
,
0010
0000
0000
1000
0001
0000
0010
0000
1000
0000
0000
0100
0001
0000
0010
0000
,
1000
0000
0000
0100
0001
0000
0100
0000
1010
0000
0100
0001
0100
0000
1000
0000
,
0001
0000
0000
0010
0100
0000
0001
0000
1000
0000
0000
0100
0001
0000
0010
0000
,
0100
0000
0000
0001
1000
0000
0010
0000
2001
0000
0000
0100
0001
0000
0010
0000
,
0001
0000
0000
0010
3100
0000
0010
0000
1010
0000
1010
0000
1010
0000
1010
0000
,
1010
0000
0001
0010
0100
1000
0100
0010
1001
0000
0010
0000
0100
0000
0011
0000
,
0110
0000
0000
1100
0000
0000
0110
0000
0011
0000
1000
0000
0110
0000
0001
0000
,
1100
0010
1001
0010
0110
0100
0011
0110
,
1100
0100
0011
1000
0110
1000
0011
0100
,
1001
0010
1100
0110
1001
0010
0100
1000
,
0110
1100
0010
0101
1000
1010
0100
1001
,
0010
0000
1100
0000
0010
0000
1001
0000
0110
0000
1000
0100
0010
0001
0020
0030
,
0100
1000
0100
0010
0002
0003
1000
0100
2000
3000
0100
0010
0100
0010
0200
0300
,
1000
0100
0020
0030
0002
0003
0020
0030
0200
0300
1000
0010
1000
0010
0200
0300
,
0010
0001
0020
0030
0200
0300
2000
3000
0020
0030
0001
0010
0100
1000
0200
0300
,
1000
0001
1000
0100
0020
0030
1000
0100
2002
3003
0100
0010
0100
0001
0200
0300
,
0010
0001
0010
0100
2000
3000
0200
0300
1000
0001
1000
0001
1000
0100
0010
0100
,
0010
0001
0010
0001
0010
0100
1000
0100
2001
0000
0000
0000
0100
0000
3000
0000
,
0220
0000
0330
0000
0202
0000
0303
0000
2010
0000
0000
0000
0010
3000
0002
0023
,
2032
0000
0000
0000
3003
0000
0200
0000
0311
0000
0000
0000
2000
0000
3000
0000
0210
0000
0000
0000
0000
0000
0000
0000
0010
0000
0000
0000
0000
0000
0301
1000
,
0220
0000
0000
0330
1001
0000
1000
0001
1000
0001
1000
0001
0110
0000
1000
0000
,
0110
0011
1000
0110
0011
1000
0101
1000
,
0101
0000
0110
0000
1000
0001
1000
0001
1000
0000
0010
0000
1001
0000
1000
0000
,
0101
0000
0011
0000
1000
0000
0012
0000
0023
0000
0230
0000
1300
0100
0010
0001
,
0010
0000
1000
0100
0010
0001
0010
0100
1000
0001
1000
0001
0110
0000
1000
0000
,
1010
0101
1000
0110
1001
0011
0110
1000
,
0011
0000
1001
0000
0100
0010
0001
0010
1001
0000
0000
0000
0011
0000
0000
0000
,
0011
0000
0000
0000
1100
0000
0000
0000
1100
0000
0000
0000
1000
0001
1000
0001
,
0010
0100
1000
0001
1000
0001
0010
0100
1000
0001
1000
0001
1000
0100
0010
0100
,
1000
0000
0000
0100
0000
0000
0010
0000
0000
0100
0000
0000
1000
0000
0000
0100
0000
0000
0010
0000
0000
0100
0000
0000
1000
0000
0000
0100
0000
0000
0010
0000
0000
0100
0000
0000
1000
0000
0000
0000
0100
0000
0000
0000
1000
0000
0000
0000
,
0100
0010
0100
0010
0001
0010
0001
0010
0100
1001
0000
0010
,
0100
0010
0100
1000
0000
0010
0100
0010
0100
0001
0000
1000
,
0100
1000
0100
0010
0001
0010
0100
1000
0100
0020
0000
0000
,
0030
0000
0000
0000
0000
0000
0000
0000
0000
0000
0000
0000
0000
0000
0000
0000
0000
0000
0100
0000
0000
0000
0000
0000
0010
0000
0000
0000
0000
0000
0000
0000
0000
0000
0000
0000
0000
0000
0000
0000
0000
0000
0000
0000
0000
0000
0000
0000
0001
0000
0000
0000
0000
0000
0000
0000
1000
0000
0000
0000
0000
0000
0000
0000
0001
0000
0000
0000
0000
0000
0000
0000
1000
0000
0000
0000
0000
0000
0000
0000
0001
0000
0000
0000
0000
0000
0000
0000
0100
0000
0000
0000
0000
0000
0000
0000
0020
0000
0000
0000
0000
0000
0000
0000
0000
0000
0000
0000
0000
0000
0000
0000
0000
0000
0000
0000
0000
0000
0000
0000
0030
0000
0000
0000
0000
0000
0000
0000
0000
0000
0000
0000
0001
0000
0000
0000
0000
0000
0000
0000
0000
0000
0000
0000
0200
0000
0000
0000
0000
0000
0000
0000
0000
0000
0000
0000
0000
0000
0000
0000
0000
0000
0000
0000
0000
0000
0000
0000
0000
0000
0000
0000
0000
0000
0000
0000
0000
0000
0000
0000
0000
0000
0000
0000
0000
0000
0000
0000
0000
0000
0000
0000
,
0300
0100
1000
0100
0010
0100
1000
0001
1000
0001
0010
0001
,
0010
0100
1000
0001
0010
0001
0010
0100
0010
1000
0100
1000
,
0100
0010
0001
1000
0100
1000
0100
0010
0001
1000
0100
0010
,
0100
1000
0100
0010
0001
0010
0002
0000
0003
0010
1000
0001
,
1000
0010
0001
1000
0001
0010
0100
1000
0100
1000
0100
0010
,
0001
0000
0000
0000
0100
0000
0000
0000
0001
0000
0000
0000
0100
0000
0010
0000
0100
0000
0010
0000
0100
0000
0010
0000
0100
0000
0000
1000
0000
0000
0001
0000
0000
0010
0000
0000
1000
0000
0000
0000
0100
0000
0000
0000
1000
0000
0000
0000
,
0100
0010
0001
1000
0100
1000
0100
0010
0001
1000
0100
1000
,
0100
0010
0001
1000
0100
1000
0100
0010
0100
0001
0010
0001
,
0010
0100
1000
0001
0010
0001
0010
0100
1000
0010
0001
0010
,
0100
1000
0100
0001
1000
0001
0010
0100
0010
2002
0000
0000
,
0000
0000
0000
0000
,
0000
0000
0000
0000
,
0000
0000
0000
0000
,
0000
0000
0000
0000
0000
3003
0020
0000
,
0000
0000
0000
0000
0000
0000
0000
0000
0000
0000
0000
0000
0000
0000
0000
0000
0030
0000
0000
0000
0000
0000
0000
0000
1000
0100
0010
0001
1000
0000
0100
0000
0020
0000
0000
0000
0000
0000
0000
0000
0000
0000
0000
0000
0000
0000
0000
0000
0000
0000
0000
0000
0000
0000
0000
0000
0030
0000
0000
0000
0000
0000
0000
0000
,
1000
0000
0000
0000
0000
0000
0100
0000
0000
0000
0000
0010
0002
0000
0000
0000
0000
0000
0000
0000
0000
0000
0000
0000
0003
0000
0000
0000
0000
0000
0200
0000
0000
0300
0000
0100
0020
0000
0000
0000
0000
0000
0030
0000
0000
0001
0010
0100
,
1000
0000
0000
0010
0000
0000
0200
0000
0000
0000
0000
0000
0000
0000
0000
0000
0000
0000
0000
0000
0000
0000
0000
0000
0000
0000
0000
0000
0000
0000
0300
0000
0000
0000
0000
0000
1000
0100
0010
0001
1000
0100
0010
0001
1000
0100
0010
0001
,
0100
0000
0000
0000
0010
0000
0000
0000
1000
0000
0000
0000
0001
0000
0000
0000
0100
0000
0000
0000
0010
0000
0000
0000
1000
0000
0000
0000
0001
0000
0000
0000
0100
0000
0000
0000
0010
0000
0000
0000
1000
0000
0000
0000
0001
0000
0000
0000
0010
0000
0000
0000
1000
0000
0000
0000
0010
0000
0000
0000
0001
0000
0000
0000
0100
0000
0000
0000
0001
0000
0000
0000
1000
0000
0000
0000
0100
0000
0000
0000
1000
0000
0000
0000
0001
0000
0000
0000
0100
0000
0000
0000
0001
0000
0000
0000
0200
0000
0000
0000
0000
0000
0000
0000
0000
0000
0000
0000
0000
0000
0000
0000
0000
0000
0000
0000
0000
0000
0000
0000
0000
0000
0000
0000
0000
0000
0000
0000
0000
0000
0000
0000
0000
0000
0000
0000
0000
0000
0000
0000
0000
0000
0000
0000
0300
0000
0000
0000
0000
0000
0000
0000
0000
1000
0000
0000
0100
0000
0000
0000
0000
0000
0000
0000
0000
1000
0000
0000
0020
0000
0000
0000
0000
0000
0000
0000
0000
0000
0000
0000
0000
0000
0000
0000
0000
0000
0000
0000
0000
0000
0000
0000
,
1030
0100
0010
0001
0000
0000
0000
0000
0000
0010
0000
0000
0200
0000
0000
0000
0000
0000
0000
0000
0000
0000
0000
0000
0000
0000
0000
0000
0000
0000
0000
0000
0000
0000
0000
0000
0300
0000
0000
0000
0000
0000
0020
0000
0000
0030
0000
0000
,
1000
0000
0000
0000
0100
0000
0000
0000
0010
0000
0000
0000
1000
0000
0000
0000
0100
0000
0000
0000
0010
0000
0000
0000
0001
0000
0000
0000
0010
0000
0000
0000
0100
0000
0000
0000
0001
0000
0000
0000
0010
0000
0000
0000
0100
0000
0000
0000
1000
0000
0000
0000
0010
0000
0000
0000
0001
0000
0000
0000
1000
0000
0000
0000
0010
0000
0000
0000
0001
0000
0000
0000
0100
0000
0000
0000
1000
0000
0000
0000
0001
0000
0000
0000
0100
0000
0000
0000
1000
0000
0000
0000
0001
0000
0000
0000
0010
0000
0000
0000
0100
0000
0000
0000
0001
0000
0000
0000
0010
0000
0000
0000
0100
0000
0000
0000
0001
0000
0000
0000
1000
0000
0000
0000
0100
0000
0000
0000
0001
0000
0000
0000
1000
0000
0000
0000
0000
0000
0000
0000
0000
0100
0000
0000
0020
0000
0000
0000
0000
0000
0000
0000
0000
0000
0000
0000
0000
0000
0000
0000
0000
0000
0000
0000
0000
0000
0000
0000
0000
0000
0000
0000
0000
0000
0000
0000
0000
0000
0000
0000
0000
0000
0000
0000
0000
0000
0000
0000
0000
0000
0000
0000
,
0000
0000
0000
0000
0000
0000
0000
0000
0030
0000
0000
0000
1000
0000
0000
0100
0000
0000
0010
0000
0000
0000
0000
0000
0000
0000
0000
0000
0000
0000
0100
0000
0000
0010
0000
0000
0001
0000
0000
0000
0000
0000
0000
0000
0000
0000
0000
0000
,
1000
0100
0010
0000
1000
0100
0010
0001
0000
1000
0001
0010
0100
1000
0000
0001
,
1000
0100
0010
0001
0000
1000
0001
0010
0100
1000
0000
0000
0100
0000
0001
0010
,
0100
0000
0000
0000
0010
0100
1000
0000
0000
0000
0001
0010
0100
0000
0000
0000
,
0010
0100
1000
0000
0010
0100
0001
1000
0010
0000
0100
0010
1000
0001
0100
0000
,
0010
0000
0000
0100
0000
0000
0001
0000
0000
1000
0000
0000
0010
0000
0000
0000
0000
0000
0100
0000
0000
0010
0000
0000
1000
0000
0000
0001
0000
0000
0100
0000
0000
0000
0000
0000
0020
0200
0000
0000
0000
0000
0000
0000
0000
0000
0000
0000
,
0000
0000
0330
0000
;
