#TITLE:Idol;
#SUBTITLE:(Aniki ga Poojingu de Danpa Ver.);
#ARTIST:Piyodan & Jea;
#TITLETRANSLIT:;
#SUBTITLETRANSLIT:;
#ARTISTTRANSLIT:;
#CREDIT:D. Nelson;
#BANNER:idol-bn.png;
#BACKGROUND:idol-bg.png;
#LYRICSPATH:;
#CDTITLE:muteCD.png;
#MUSIC:idol.ogg;
#OFFSET:0.015;
#SAMPLESTART:14.577;
#SAMPLELENGTH:21.210;
#SELECTABLE:YES;
#DISPLAYBPM:181.000;
#BPMS:0.000=181.036;
#STOPS:;
#BGCHANGES:;
// cache tags:
#FIRSTBEAT:12.000;
#LASTBEAT:375.000;
#SONGFILENAME:Songs/SHARPNELSTREAMZ v2/Idol (Aniko is Pojingu Version)/idol.sm;
#HASMUSIC:1;
#HASBANNER:1;
#MUSICLENGTH:124.330;
// end cache tags

//---------------dance-single - 12 (Mute)----------------
#NOTES:
     dance-single:
     12 (Mute):
     Challenge:
     12:
     0.993,1.000,0.338,0.418,0.579,769.000,42.000,52.000,36.000,0.000:

0000
0000
0000
0000
,
0000
0000
0000
0000
,
0000
0000
0000
0000
,
0011
0000
0001
1000
0010
0000
1000
0010
1000
0001
1000
0001
0010
0000
0100
1000
,
0100
0000
1000
0001
0100
0000
0010
0100
0010
1000
0001
0010
0100
0000
1100
0000
,
1001
0000
1000
0010
0100
0000
0010
1000
0001
1000
0001
0010
0100
0000
0010
0001
,
0010
0000
0001
1000
0010
0000
0100
0001
1000
0010
1000
0001
0010
0000
0000
0000
,
0010
0001
1000
0001
1000
0010
0100
0010
1000
0001
1000
0100
0010
0001
0010
0100
,
1000
0001
0100
0010
1000
0010
0100
0001
1000
0001
0010
0100
0010
0100
1000
0100
,
1000
0001
0100
0010
1000
0001
0010
0100
0010
0001
1000
0010
0100
0001
1000
0001
,
0010
0000
0000
0100
0000
0000
0010
0000
0000
0001
0000
0000
1000
0000
0000
0001
0000
0000
0100
0000
0000
0001
0000
0000
1000
0000
0000
0100
0000
0000
0010
0000
0000
0001
0000
0000
1000
0000
0001
0000
1000
0000
0001
0000
1000
0000
0001
0000
,
1000
0010
0100
0001
0010
0000
0001
0200
,
0000
0310
1000
0010
0100
0001
1000
0100
,
0010
0100
1000
0001
0100
0000
0001
0020
,
0000
0130
1000
0001
0100
0000
0010
2000
,
0000
0000
3001
0000
0010
0000
0001
0000
1000
0000
0100
M0MM
0100
0000
0002
0000
,
0000
0000
0013
0000
0100
0000
1000
0000
0001
0000
0010
MM0M
0010
0000
1000
0000
,
0001
0100
0001
0010
0100
1000
0010
0200
,
0000
0000
0000
0001
0000
0000
0000
0000
0000
0001
0000
0000
0302
0000
0000
0000
0000
0000
1003
0100
1000
0100
1000
0100
,
1000
0001
0100
0001
0010
0000
0001
0200
,
0000
0310
1000
0001
0010
0100
1000
0010
,
0100
0001
0010
0001
1000
0000
0010
0200
,
0000
0301
1000
0001
0010
0000
0001
2000
,
0000
0000
3010
0000
0100
0000
0010
0000
1000
0000
0100
M0MM
0100
0000
0002
0000
,
0000
0000
0013
0000
0001
0000
1000
0000
0001
0000
0010
MM0M
0010
0000
1000
0000
,
0010
0100
0010
1000
0001
0010
0001
0200
,
0000
0000
0000
0010
0000
0000
0000
0000
0000
0010
0000
0000
0320
0000
0000
0000
0000
0000
1030
0001
1000
0001
1000
0001
,
1000
0100
0010
0010
0002
1000
1003
0002
,
1000
0000
1003
0000
0100
0000
1000
0000
0020
0000
0000
0000
0230
0000
0000
0300
,
1001
1000
0001
0010
0110
0100
1000
0001
,
0101
0100
0110
0010
1010
1000
1001
0001
,
0010
0100
1000
1000
0002
0100
0103
0002
,
0100
0000
0103
0000
0010
0000
1000
0000
0200
0000
0000
0000
0320
0000
0000
0030
,
1100
1000
0001
1000
1010
0010
0100
0001
,
1001
0000
1000
0000
1100
0000
0100
0000
0110
0000
0010
0000
0011
0000
0001
1000
,
0001
1000
1010
0010
1000
0100
1100
1000
,
0001
0100
0101
0001
1000
0100
0110
0010
,
0001
1000
1010
0010
0100
0001
0011
0010
,
0100
1000
1001
0001
0100
0010
0110
0100
,
0001
1000
1100
0100
0010
0001
0101
0100
,
0010
1000
1100
0100
0010
0001
1001
1000
,
0001
0100
0110
0010
0100
0001
1001
1000
,
0100
0010
0011
0001
1000
0010
1010
1000
,
1001
0000
0001
0100
0010
0000
1000
0001
1000
0000
0100
0010
0001
0000
1000
0010
,
1000
0000
0001
0100
0010
0000
1000
0001
1000
0000
0100
0010
0001
0000
0010
0100
,
0010
0000
0100
1000
0001
0000
0100
0001
0100
0000
0010
1000
0001
0000
1000
0100
,
1000
0000
0001
1000
0010
0000
0100
0001
0100
0000
0010
0000
0100
0000
0001
1000
,
0100
0000
0010
0001
1000
0000
0010
0100
0010
0000
1000
0100
0010
0000
0001
0010
,
0001
0000
1000
0010
0100
0000
0001
1000
0001
0000
1000
0100
0010
0000
0100
1000
,
0100
0000
1000
0001
0010
0000
0001
1000
0001
0000
0100
0010
1000
0000
0004
0000
,
0100
0000
1000
0000
0010
0000
1000
0003
,
1000
0100
0000
0010
0000
0001
0000
1000
0000
0010
0000
0100
0001
0000
0000
0000
,
1001
0000
0000
0000
1001
0000
0000
0000
0001
0010
0001
0100
0001
1000
0010
1000
,
0001
0100
0010
1000
0100
0000
1000
0020
,
0000
0130
0001
0100
0010
1000
0001
0010
,
0100
0010
0001
1000
0010
0000
1000
0200
,
0000
0310
0001
1000
0010
0000
0100
0002
,
0000
0000
1003
0000
0100
0000
1000
0000
0001
0000
0010
MM0M
0010
0000
2000
0000
,
0000
0000
3100
0000
0010
0000
0001
0000
1000
0000
0100
M0MM
0100
0000
0001
0000
,
1000
0010
1000
0100
0010
0001
0100
0020
,
0000
0000
1000
0000
0000
0000
1000
0000
2030
0000
0000
3000
0011
0000
0000
0001
,
1000
0001
0100
0001
0010
0000
0001
0200
,
0000
0310
1000
0001
0010
0100
1000
0010
,
0100
0001
0010
0001
1000
0000
0010
0200
,
0000
0301
1000
0001
0010
0000
0001
2000
,
0000
0000
3010
0000
0100
0000
0010
0000
1000
0000
0100
M0MM
0100
0000
0002
0000
,
0000
0000
0013
0000
0001
0000
1000
0000
0001
0000
0010
MM0M
0010
0000
1000
0000
,
0010
0100
0010
1000
0001
0010
0001
0200
,
0000
0000
0000
0010
0000
0000
0000
0000
0000
0010
0000
0000
0320
0000
0000
0000
0000
0000
1030
0001
1000
0001
1000
0001
,
1000
0100
0010
0001
0100
0000
0001
0020
,
0000
0130
1000
0100
0010
0001
1000
0010
,
0100
0010
1000
0001
0010
0000
0001
0200
,
0000
0310
1000
0001
0010
0000
0100
2000
,
0000
0000
3001
0000
0100
0000
0001
0000
1000
0000
0010
MM0M
0010
0000
0002
0000
,
0000
0000
0103
0000
0010
0000
1000
0000
0001
0000
0100
M0MM
0100
0000
1000
0000
,
0001
0010
0001
0100
0010
1000
0100
0020
,
0000
0000
0000
0001
0000
0000
0000
0000
0000
0001
0000
0000
0032
0000
0000
0000
0000
0000
1003
0100
1000
0100
1000
0100
,
1000
0001
0010
0001
0100
0000
0001
0020
,
0000
0130
1000
0001
0100
0010
1000
0100
,
0010
0001
0100
0001
1000
0000
0100
0020
,
0000
0031
1000
0001
0100
0000
0001
2000
,
0000
0000
3100
0000
0010
0000
0100
0000
1000
0000
0010
MM0M
0010
0000
0002
0000
,
0000
0000
0103
0000
0001
0000
1000
0000
0001
0000
0100
M0MM
0100
0000
1000
0000
,
0001
0010
0100
1000
0001
1000
0001
0100
0001
1000
0100
1000
0001
0000
0200
0000
,
0000
0000
0000
0010
0000
0000
0000
0000
0000
0010
0000
0000
0340
0000
0000
0000
0000
0000
1030
0001
1000
0001
1000
0001
,
1000
0010
0100
0100
0002
1000
1003
0002
,
1000
0000
1003
0000
0010
0000
1000
0000
0200
0000
0000
0000
0320
0000
0000
0030
,
1001
1000
0001
0100
0110
0010
1000
0001
,
0011
0010
0110
0100
1100
1000
1001
0001
,
0100
0010
1000
1000
0002
0010
0013
0002
,
0010
0013
0100
1000
0020
0000
0230
0000
,
0301
1000
0001
0100
0010
1000
0001
0010
0100
0010
0001
1000
0010
0100
0001
1000
,
0100
0010
0100
1000
0001
0100
0001
0100
0010
1000
0010
0100
0001
1000
0001
0010
,
0200
0000
0000
0300
;
