#TITLE:Can't Stop Falling in Love – Super Euro Mix;
#SUBTITLE:;
#ARTIST:Naoki Feat. Paula Terry;
#TITLETRANSLIT:;
#SUBTITLETRANSLIT:;
#ARTISTTRANSLIT:;
#CREDIT:;
#BANNER:Can't Stop Falling In Love.jpg;
#BACKGROUND:Can't Stop Falling In Love-bg.png;
#LYRICSPATH:;
#CDTITLE:;
#MUSIC:CSFIL.mp3;
#OFFSET:-1.670;
#SAMPLESTART:40.380;
#SAMPLELENGTH:12.000;
#SELECTABLE:YES;
#BPMS:0.000=155.000;
#STOPS:;
#BGCHANGES:;
// cache tags:
#FIRSTBEAT:0.000;
#LASTBEAT:274.000;
#SONGFILENAME:Songs/aaa cant/CSFIL/Can't Stop Falling In Love.sm;
#HASMUSIC:1;
#HASBANNER:1;
#MUSICLENGTH:109.043;
// end cache tags

//---------------dance-single - ----------------
#NOTES:
     dance-single:
     :
     Hard:
     8:
     0.508,0.468,0.348,0.183,0.028,330.000,38.000,20.000,0.000,0.000:  // measure 1
0100
0000
0000
0000
0000
0000
0000
0110
0000
0000
1001
0000
0000
0000
0000
0000
,  // measure 2
1010
0000
0000
0000
0000
0000
0000
1000
0000
0000
0010
0000
0000
0000
0100
0000
,  // measure 3
0001
0000
0000
0000
0000
0000
0000
0011
0000
0000
0011
0000
0000
0000
0000
0000
,  // measure 4
1000
0000
0100
0010
0000
0000
0001
0100
,  // measure 5
0010
1100
0010
0011
,  // measure 6
0001
1000
0100
0000
0010
0001
0100
0000
,  // measure 7
0010
1000
0100
1000
0010
0100
0001
0000
,  // measure 8
1100
0000
0010
0100
0000
0000
0001
1000
,  // measure 9
0100
0000
0011
0000
0200
0000
0000
0310
,  // measure 10
0000
0010
1000
0000
1100
0000
0010
0000
,  // measure 11
0001
0000
0100
0000
2000
0000
0000
3100
,  // measure 12
0000
0100
0010
0000
1100
0000
0101
0000
,  // measure 13
0010
0000
0100
0000
2002
0000
3003
0001
,  // measure 14
0000
0010
0100
0000
1000
0000
0010
0000
,  // measure 15
0200
0000
0000
0001
0002
0000
0303
0000
,  // measure 16
0010
0001
1000
0010
0100
1000
0100
0001
,  // measure 17
0010
0000
0100
0000
1100
0000
0010
0001
,  // measure 18
0100
0000
0010
0000
1010
0000
0001
0100
,  // measure 19
0010
0000
1000
0000
0100
0000
0010
0001
,  // measure 20
0100
0010
1000
0100
1000
0010
0100
0000
,  // measure 21
0001
0000
0010
0100
0010
0000
0001
1000
,  // measure 22
0100
1000
0010
1000
0000
1000
0000
0001
,  // measure 23
0100
0010
0100
0001
0010
1000
0010
0100
,  // measure 24
1000
0010
0100
1001
,  // measure 25
0010
0000
0010
0000
0010
0000
0001
0200
,  // measure 26
0000
0010
0000
0310
1000
0000
0100
0000
,  // measure 27
0010
0000
0001
0000
1000
0100
0000
0100
,  // measure 28
0020
0001
0000
1000
0000
0001
0000
0000
,  // measure 29
0130
0000
1000
0000
0010
0000
0100
0001
,  // measure 30
1000
0100
0010
0001
,  // measure 31
0100
0000
0101
0000
1000
0100
0000
0010
,  // measure 32
0000
0001
1000
0010
0000
0100
0001
0000
,  // measure 33
0010
0001
1000
0010
1000
0100
0010
1000
,  // measure 34
0010
0001
0100
0000
0010
1000
0100
0000
,  // measure 35
0001
0100
1000
0100
0010
1000
0100
0010
,  // measure 36
0001
0000
0010
0000
0100
1000
0010
0000
,  // measure 37
0100
0000
0001
0020
0000
0100
0000
0001
,  // measure 38
0000
0000
0000
0130
1000
0000
0010
0100
,  // measure 39
0001
0000
1010
0000
0100
0001
1000
0100
,  // measure 40
0010
0000
0011
0000
0001
1000
0100
1000
,  // measure 41
0002
0000
0000
0010
0000
0000
1000
0000
,  // measure 42
0000
0100
0000
0000
0010
0000
0010
0000
,  // measure 43
2003
0000
0000
0100
0000
0000
0010
0000
,  // measure 44
0000
0000
0001
0000
0000
0001
0001
3002
,  // measure 45
0100
0010
1000
0103
,  // measure 46
0010
0100
1000
0010
,  // measure 47
0101
0000
0001
1000
1000
0000
0100
0000
,  // measure 48
0020
0001
0000
0001
0000
0001
0000
0031
,  // measure 49
1000
0010
0100
0001
1000
0100
0001
0100
,  // measure 50
1000
0000
0010
0000
0100
0001
0010
0000
,  // measure 51
0010
1000
0100
0010
0001
0100
0010
0100
,  // measure 52
0001
0000
0010
0000
0100
1000
0010
0000
,  // measure 53
0101
0000
1000
1100
0000
0011
0000
0110
,  // measure 54
0000
0000
0000
1000
0200
0000
0300
0000
,  // measure 55
0011
0010
1000
1100
,  // measure 56
0010
0001
0100
0110
,  // measure 57
1001
0000
0110
0000
2100
0000
3000
0010
,  // measure 58
0000
0010
0200
0000
0301
0000
0010
0000
,  // measure 59
0100
0000
1002
0000
0013
0000
0000
1100
,  // measure 60
0000
0001
0010
0000
0100
0000
0010
0000
,  // measure 61
1001
0000
1000
0000
1200
0000
0000
0010
,  // measure 62
0000
0010
0310
0000
0001
0000
1000
0000
,  // measure 63
0200
0000
0000
0010
0020
0000
0330
0000
,  // measure 64
0001
1000
0010
0100
0001
0010
0100
1000
,  // measure 65
0010
0000
0000
0000
0000
0000
0000
0101
0000
0000
1000
0000
0000
0000
0000
0000
,  // measure 66
0110
0000
0000
0000
0000
0000
0000
1010
0000
0000
0001
0000
0000
0000
1000
0000
,  // measure 67
0100
0000
0000
0000
0000
0000
0000
1001
0000
0000
0100
0000
0000
0000
0010
0000
,  // measure 68
1000
0001
0100
0001
0010
0001
1000
0100
,  // measure 69
0010
0000
0000
0000
;

//---------------dance-single - ----------------
#NOTES:
     dance-single:
     :
     Easy:
     4:
     0.339,0.343,0.193,0.119,0.000,225.000,21.000,13.000,0.000,0.000:  // measure 1
0011
0000
0000
0000
,  // measure 2
0110
0000
0000
0000
,  // measure 3
1001
0000
0000
0000
,  // measure 4
0010
0000
0100
0000
,  // measure 5
0001
1000
0100
0001
,  // measure 6
0100
0010
0001
1000
,  // measure 7
0010
0100
0001
1000
,  // measure 8
0200
0000
0000
0000
,  // measure 9
0310
0001
1000
0000
,  // measure 10
0100
1000
0010
0001
,  // measure 11
0010
0100
0001
0000
,  // measure 12
1000
0100
1000
0001
,  // measure 13
0100
0001
0010
0000
,  // measure 14
0100
1000
0010
1000
,  // measure 15
0002
0000
0203
0000
,  // measure 16
0320
0000
0000
0000
,  // measure 17
0130
1000
0010
0100
,  // measure 18
0001
0010
0100
1000
,  // measure 19
0001
0100
0001
1000
,  // measure 20
0100
0110
0010
0011
,  // measure 21
0001
1000
0010
0001
,  // measure 22
0010
1000
0100
0001
,  // measure 23
0100
0010
0001
0100
,  // measure 24
0110
0100
1100
1000
,  // measure 25
0001
0100
0010
1010
,  // measure 26
1000
0100
0010
0011
,  // measure 27
0001
1000
0010
0100
,  // measure 28
0002
0000
0000
0000
,  // measure 29
1003
0100
0001
0100
,  // measure 30
0010
1000
0010
0001
,  // measure 31
1000
0000
0010
0000
1000
0000
0100
2000
,  // measure 32
0000
0000
0000
3000
,  // measure 33
0001
0100
0001
0100
,  // measure 34
0010
1000
0100
0010
,  // measure 35
0001
0100
0001
0100
,  // measure 36
0010
1000
0100
1000
,  // measure 37
0010
0001
0010
1000
,  // measure 38
0100
0001
0100
0010
,  // measure 39
0001
0100
0001
1000
,  // measure 40
0100
1000
0010
1000
,  // measure 41
0001
0001
0100
0100
,  // measure 42
0010
0010
1000
1000
,  // measure 43
1100
0000
0011
0000
,  // measure 44
0101
0000
1010
1000
,  // measure 45
0100
0100
0010
0010
,  // measure 46
0001
1000
0010
0100
,  // measure 47
0001
0001
0001
1000
,  // measure 48
0100
0020
0000
0000
0000
0000
0030
0000
,  // measure 49
1001
0100
0001
0100
,  // measure 50
1001
0100
1000
0100
,  // measure 51
0010
0001
1000
0010
,  // measure 52
0100
0001
1000
0100
,  // measure 53
0110
0000
0010
0002
0000
0000
0003
0000
,  // measure 54
0000
0000
0000
1000
0200
0000
0000
0000
,  // measure 55
0310
0001
0100
0001
,  // measure 56
1000
0010
1000
0100
,  // measure 57
0010
0011
0001
0000
,  // measure 58
1000
0100
0010
0001
,  // measure 59
0100
0110
0010
0000
,  // measure 60
1000
0001
0100
0010
,  // measure 61
1000
1100
0001
0000
,  // measure 62
0001
0101
1000
0100
,  // measure 63
0010
0001
0100
0010
,  // measure 64
2000
0100
0001
0100
,  // measure 65
3002
0000
0000
0000
,  // measure 66
0203
0000
0000
0000
,  // measure 67
0320
0000
0000
0000
,  // measure 68
1030
0100
0001
0010
,  // measure 69
1001
0000
0000
0000
;

//---------------dance-single - ----------------
#NOTES:
     dance-single:
     :
     Medium:
     6:
     0.410,0.405,0.165,0.110,0.000,283.000,18.000,12.000,0.000,0.000:  // measure 1
0020
0000
0000
0000
,  // measure 2
0031
0000
0000
0000
0000
0000
0000
0100
,  // measure 3
0210
0000
0000
0000
,  // measure 4
1300
0000
0000
0000
0000
0000
0010
0100
,  // measure 5
1000
0010
0100
0001
,  // measure 6
1000
1100
0001
0101
,  // measure 7
0010
1000
0100
0010
,  // measure 8
0011
0000
0001
0100
0000
0000
0010
1000
,  // measure 9
0100
0010
0001
0100
,  // measure 10
1000
0000
0100
0000
0010
1000
0100
0000
,  // measure 11
0001
0011
1000
0010
,  // measure 12
0100
0000
0001
0000
1000
0100
1000
0000
,  // measure 13
0001
0101
0010
1000
,  // measure 14
0100
0000
0010
0000
0001
0100
0010
0000
,  // measure 15
2000
0000
0000
0100
3100
0000
0000
0000
,  // measure 16
1001
0000
0001
0000
0100
0000
0010
1000
,  // measure 17
0100
1000
1001
0001
,  // measure 18
0100
0000
0010
0000
1000
0000
0001
0100
,  // measure 19
0010
1000
0100
1000
,  // measure 20
0010
0100
0001
0000
1000
0100
0010
0000
,  // measure 21
0001
0100
1000
0100
,  // measure 22
0010
1000
0100
0000
0100
1000
0010
0000
,  // measure 23
0100
0001
0010
0100
,  // measure 24
2000
3001
0002
1003
,  // measure 25
0110
0001
1000
0100
,  // measure 26
0001
0000
0100
0000
0010
1000
0100
0000
,  // measure 27
0001
0000
0100
0000
0010
1000
0000
0000
,  // measure 28
0200
0010
0000
0010
0000
0310
0000
0000
,  // measure 29
0001
0100
0010
1000
,  // measure 30
0100
1000
0001
0000
0100
0001
1000
0000
,  // measure 31
0100
0000
0010
0000
0001
1000
0000
0100
,  // measure 32
0000
0010
0001
1000
0000
0010
0100
0000
,  // measure 33
0001
1000
0100
0010
,  // measure 34
0001
1000
0100
0000
0001
1000
0100
0000
,  // measure 35
0010
0001
0100
0010
,  // measure 36
1000
0001
0010
0000
0001
1000
0010
0000
,  // measure 37
0100
0001
1000
1100
,  // measure 38
1000
0001
0100
0101
,  // measure 39
0010
0000
1000
0100
0010
0000
0011
0000
,  // measure 40
0001
0000
0100
0010
1000
0000
1001
0000
,  // measure 41
0100
0000
0000
0100
0000
0000
0100
0000
,  // measure 42
0000
0100
0000
0000
1000
0000
1000
0000
,  // measure 43
0010
0000
0000
0010
0000
0000
0010
0000
,  // measure 44
0000
0000
0020
0000
0000
0000
0130
0001
,  // measure 45
1000
0100
0010
0011
,  // measure 46
0001
1000
0100
0010
,  // measure 47
0001
0100
0010
0000
0001
0100
0010
0000
,  // measure 48
1000
0000
0100
0000
0010
0001
0100
0000
,  // measure 49
0010
0000
1000
0000
0100
1000
0001
0000
,  // measure 50
0100
0001
1000
0000
0010
0001
1000
0000
,  // measure 51
0010
0000
0100
0000
0001
0010
0100
0000
,  // measure 52
1000
0010
0100
0000
0001
0010
1000
0000
,  // measure 53
0010
0000
0001
0100
0000
0010
0000
1000
,  // measure 54
0000
0000
0020
0000
,  // measure 55
0031
0100
1000
0010
,  // measure 56
0101
1000
0100
0010
,  // measure 57
0011
0000
0001
0000
1000
0000
1000
0010
,  // measure 58
1000
0001
0100
0010
,  // measure 59
1000
0000
0100
0000
0110
0000
0010
0001
,  // measure 60
0010
0100
1000
0001
,  // measure 61
0101
0000
0001
0000
0010
0000
0100
1000
,  // measure 62
0100
0010
0001
0100
,  // measure 63
0020
0000
0000
1000
1030
0000
0000
0000
,  // measure 64
0001
0000
0100
0000
0001
1000
0100
0000
,  // measure 65
0020
0000
0000
0000
,  // measure 66
0032
0000
0000
0000
0000
0000
0000
1000
,  // measure 67
2003
0000
0000
0000
,  // measure 68
3010
0000
0100
0000
0001
0000
1000
0100
,  // measure 69
0010
0000
0000
0000
;

//---------------dance-single - ----------------
#NOTES:
     dance-single:
     :
     Challenge:
     9:
     0.641,0.722,0.477,0.083,0.216,428.000,52.000,9.000,0.000,0.000:  // measure 1
0010
0000
0000
0000
0001
0000
0000
1000
0000
0000
0001
0000
0000
0000
0100
0000
,  // measure 2
0001
0000
0000
0000
1000
0000
0000
0100
0000
0000
0010
0000
0000
0000
0100
0000
,  // measure 3
0001
0000
0000
0000
1000
0000
0000
0100
0000
0000
0010
0000
0000
0000
0001
0000
,  // measure 4
0100
0000
0000
0000
0010
0000
0000
0100
0000
0000
0010
0000
0100
0000
0001
0000
,  // measure 5
1000
0000
1100
0000
0010
0001
1000
0100
,  // measure 6
0010
0000
1001
0000
0100
0010
0001
1000
,  // measure 7
0100
0000
0010
0000
0001
0010
0100
1000
,  // measure 8
0010
0100
0001
1000
0100
0010
0001
1000
0010
0100
0001
0010
0100
1000
0010
0100
,  // measure 9
0001
0000
1100
0000
0010
0000
0001
0100
,  // measure 10
0000
0010
1000
0000
0100
0000
0010
0000
,  // measure 11
1001
0000
0110
0000
0001
0000
1000
0100
,  // measure 12
0000
0010
0001
0000
0100
0000
0010
0000
,  // measure 13
1010
0000
0101
0000
1100
0000
0010
0001
,  // measure 14
0000
0100
0010
0000
1000
0000
0100
0000
,  // measure 15
0020
0000
0000
0001
0032
0000
0000
0000
,  // measure 16
1003
0100
0010
0001
0010
0100
1000
0001
0100
0010
1000
0010
0100
0001
1000
0100
,  // measure 17
0010
0011
1000
1010
,  // measure 18
0100
0001
0010
0100
1000
0010
0100
0000
,  // measure 19
0001
0000
1100
0000
0010
0001
0100
0000
,  // measure 20
1010
0010
0100
0001
0010
0100
1100
0000
,  // measure 21
0001
0100
0010
0000
1000
0100
0010
0000
,  // measure 22
0001
1000
1100
0000
0010
0001
0101
0000
,  // measure 23
1010
0000
0100
0000
0001
1000
0100
0000
,  // measure 24
0011
0001
0100
0010
1010
1000
0010
0100
,  // measure 25
0101
0000
0001
0000
1001
0000
1000
0010
,  // measure 26
0000
0101
0000
1000
0100
0000
0011
0000
,  // measure 27
1000
0000
0100
0000
0010
0001
1000
0010
,  // measure 28
0100
0020
0000
1000
0000
1000
0000
0000
,  // measure 29
1030
0000
0101
0000
1000
0100
0001
0100
,  // measure 30
0010
0001
0100
0010
1000
0100
0010
0000
,  // measure 31
0011
0000
0001
0000
1000
0100
0000
0010
,  // measure 32
0000
0001
1000
0010
0000
1001
1001
0000
,  // measure 33
0010
0001
1000
0010
0100
0001
1000
0100
,  // measure 34
0010
0001
0010
0000
0100
0000
0000
0000
1000
0010
1000
0000
0001
0000
0000
0000
,  // measure 35
0100
0010
1000
0001
0100
1000
0100
0010
,  // measure 36
1000
0100
1000
0000
0001
0000
0000
0000
1000
0100
1000
0000
0001
0000
0000
0000
,  // measure 37
0011
0000
1000
0010
0100
0000
0101
0000
,  // measure 38
1100
0000
0010
0001
0100
0010
1000
0000
,  // measure 39
0100
0010
0001
0000
1000
0100
0010
0000
,  // measure 40
0001
0100
0010
1000
0100
1000
0010
1000
,  // measure 41
0001
0000
0010
0010
0000
0100
0100
0000
,  // measure 42
1000
1000
0000
0000
0110
0000
1001
0000
,  // measure 43
0110
0000
1000
0100
0000
0010
0001
0000
,  // measure 44
0100
0010
1000
0000
0100
0010
0001
0100
,  // measure 45
0010
0110
0100
0110
,  // measure 46
0010
1000
0100
1000
0001
0010
0001
0100
,  // measure 47
1000
0100
0001
0000
1000
0100
0001
0000
,  // measure 48
2000
0010
0000
0001
0000
0100
0000
3010
,  // measure 49
0010
1000
0001
0100
0010
1000
0100
0010
,  // measure 50
0001
0100
0010
0000
1000
0000
0000
0000
0100
0010
0001
0000
1000
0000
0000
0000
,  // measure 51
0010
0001
0010
0100
0010
1000
0010
0001
,  // measure 52
0100
0010
1000
0000
0100
0000
0000
0000
0010
0001
1000
0000
0010
0000
0000
0000
,  // measure 53
1001
0000
0010
0110
0000
1001
0000
2100
,  // measure 54
0000
0000
0000
3010
0020
0000
1030
0100
,  // measure 55
0010
0001
0100
0001
0010
0001
1000
0100
,  // measure 56
1000
0010
0001
0010
1000
0100
0010
0000
,  // measure 57
0011
0000
1100
0000
1010
0000
0100
0001
,  // measure 58
0000
1000
0100
0000
0010
0001
0100
0000
,  // measure 59
1010
0000
0101
0000
0110
0000
0010
0001
,  // measure 60
0000
1000
0010
0000
0100
0001
1000
0000
,  // measure 61
1100
0000
0011
0000
1010
0000
0100
0001
,  // measure 62
0000
0010
0100
0000
0010
0000
0101
0000
,  // measure 63
2100
0000
0000
0010
0020
0000
3030
0000
,  // measure 64
0001
1000
0001
0010
0100
0010
0001
0100
0001
1000
0100
1000
0001
0010
0001
1000
,  // measure 65
0010
0000
0000
0000
0011
0000
0000
1000
0000
0000
0010
0000
0000
0000
0100
0000
,  // measure 66
0001
0000
0000
0000
1100
0000
0000
0100
0000
0000
0010
0000
0000
0000
0001
0000
,  // measure 67
1001
0000
0000
0000
1000
0000
0000
0010
0000
0000
0100
0000
0000
0000
0100
0000
,  // measure 68
0001
1000
0100
0010
0001
1000
0010
0100
0001
1000
0100
0010
0100
1000
0010
0100
,  // measure 69
0020
0000
0030
0000
;
