#TITLE:Die Like This;
#SUBTITLE:(Edit);
#ARTIST:Sunhiausa;
#TITLETRANSLIT:;
#SUBTITLETRANSLIT:;
#ARTISTTRANSLIT:;
#CREDIT:;
#BANNER:die like this bn.png;
#BACKGROUND:die like this bg.png;
#LYRICSPATH:;
#CDTITLE:;
#MUSIC:Die Like This (Edit).ogg;
#OFFSET:-0.017;
#SAMPLESTART:26.213;
#SAMPLELENGTH:12.000;
#SELECTABLE:YES;
#BPMS:0.000=229.000;
#STOPS:;
#BGCHANGES:;
// cache tags:
#FIRSTBEAT:60.000;
#LASTBEAT:624.000;
#SONGFILENAME:Songs/SPEEEDCOOOORE 4/Die Like This - [Tyler]/die like this.sm;
#HASMUSIC:1;
#HASBANNER:1;
#MUSICLENGTH:169.299;
// end cache tags

//---------------dance-single - T. Moore----------------
#NOTES:
     dance-single:
     T. Moore:
     Challenge:
     13:
     0.854,1.000,0.508,0.591,1.000,818.000,86.000,100.000,45.000,17.000:
0000
0000
0000
0000
,
0000
0000
0000
0000
,
0000
0000
0000
0000
,
0000
0000
0000
0000
,
0000
0000
0000
0000
,
0000
0000
0000
0000
,
0000
0000
0000
0000
,
0000
0000
0000
0000
,
0000
0000
0000
0000
,
0000
0000
0000
0000
,
0000
0000
0000
0000
,
0000
0000
0000
0000
,
0000
0000
0000
0000
,
0000
0000
0000
0000
,
0000
0000
0000
0000
,
M00M
0000
0000
0000
,
1000
0001
0011
0010
,
0100
1000
1001
0001
,
0100
0010
1010
1000
,
0100
0010
1100
1000
,
0001
0100
0110
0010
,
1000
0000
0001
0000
M010
M000
M100
M000
,
M010
M000
M001
M000
M100
M000
M010
M000
,
M100
M000
M001
M000
M010
M000
M100
M000
,
M110
0011
1001
1010
,
0101
0000
0000
1001
0000
0000
1100
0000
0000
0110
0000
0010
,
0001
1001
1010
0101
,
1001
0000
0000
0000
0000
0000
1100
0000
0000
0000
0000
0000
0011
0000
0000
0000
0000
0000
1000
0000
0010
0100
0001
0000
,
1000
1100
0011
0101
,
0110
0000
0000
1010
0000
0000
1001
0000
0000
0011
0000
0001
,
1000
1100
1001
0101
,
1010
0000
0000
1100
0000
0000
0011
0000
0001
0100
0000
0100
,
0010
0000
1000
0010
0100
0001
1000
0000
0001
0010
0100
1000
,
0001
0000
0001
0100
0000
0100
0010
0000
1000
0010
0100
0001
,
1000
0000
0100
0010
0001
1000
0010
0000
0100
0001
0010
0100
,
1000
0000
0000
0000
1000
0000
0001
0000
0000
0000
0001
0000
0100
0000
0000
0000
0010
0000
1000
0000
0001
0010
0100
0000
,
1000
0000
0001
0100
0010
1000
0100
0000
0010
0001
1000
0010
,
0100
0000
0100
0001
0000
0001
1000
0000
0100
0010
0001
0100
,
0010
0000
1000
0001
0010
0100
1000
0000
0010
0100
0001
1000
,
0100
0000
0100
0010
0000
0010
0001
0000
0100
0010
0000
0010
,
2000
0000
0000
0000
,
0000
0000
0000
0000
,
0000
0000
0000
0000
,
0000
0000
0000
0000
,
0000
0000
0000
0000
,
0000
0000
0000
0000
,
3000
0000
0000
0000
,
0000
0000
0000
0000
,
1000
0000
0000
0010
0000
0000
0100
0000
0001
0000
1000
0000
0100
0000
0010
0000
,
0001
0000
0000
0100
0000
0000
0010
0000
1000
0000
0100
0010
0000
0000
0001
0000
,
0000
0000
0000
0000
,
0000
0000
0000
0000
,
2000
0000
0000
0000
,
0000
0000
0000
0000
,
0000
0000
0000
0000
0000
0000
0000
3001
,
0010
0100
1000
0010
0100
0001
1000
0000
,
2222
0000
0000
0000
,
0000
0000
0000
0000
,
0000
0000
0000
0000
,
3333
0000
0000
0000
,
0002
0000
0000
0000
,
0000
0000
0000
0000
,
0023
0000
0000
0000
,
0000
0000
0000
0000
,
0230
0000
0000
0000
,
0000
0000
0000
0000
,
2300
0000
0000
0000
,
0000
0000
0000
0000
,
3020
0000
0000
0000
,
0000
0000
0000
0000
,
0000
0000
0000
0000
,
M000
0000
0000
0000
,
0130
0010
1000
0001
0010
0001
0100
0010
1000
0001
0010
0001
,
1000
0000
0010
0000
1000
0000
0001
0000
0100
0000
0001
0000
0010
0000
0100
0000
0010
0000
0001
0000
1000
0000
0010
0100
,
0001
1000
0100
0010
0001
1000
0001
0100
0010
1000
0010
0100
,
0001
0000
0010
0000
0100
0000
1000
0000
0001
0000
1000
0000
0010
0000
0100
0000
0001
0000
0010
0100
1000
0000
0001
0000
,
0100
0010
1000
0100
0010
0001
1000
0010
0100
0001
1000
0100
,
0010
0000
0100
0000
1000
0000
0001
0000
0010
0000
0001
0000
0100
0000
0010
0000
1000
0000
0001
0000
0010
0000
0100
1000
,
0001
0100
0010
1000
0010
0100
0001
1000
0100
0010
0100
1000
,
0001
1000
0010
0100
0010
1000
0001
0000
0001
0000
0010
0001
,
1000
0010
0100
0001
0100
0010
1000
0001
1000
0100
0010
0001
,
1000
0000
0100
0000
1000
0000
0001
0000
0100
0000
0001
0000
0010
0000
0100
0000
1000
0000
0001
0000
1000
0000
0010
0100
,
0001
1000
0001
0010
0100
1000
0001
0010
0001
0100
0010
1000
,
0001
0000
0010
0000
0100
0000
1000
0000
0001
0000
1000
0000
0010
0000
0100
0000
0001
0000
1000
0100
0010
0000
0001
0000
,
1000
0010
0100
0001
1000
0100
0010
0001
0010
0100
1000
0001
,
0100
0010
1000
0001
0010
0001
0100
0010
1000
0001
0010
0100
,
1000
0100
1000
0001
0010
0001
1000
0001
0100
0010
0100
0001
1000
0001
0010
0100
,
1000
0000
0000
0001
0000
0000
0100
0000
0000
0010
0000
0000
1000
0000
0000
0000
0001
0000
0000
0000
0010
0000
0000
0000
0100
0000
0000
0000
0000
0000
0000
0000
0100
0000
0000
0000
0000
0000
0000
0000
1000
0000
0000
0000
0010
0000
0000
0000
,
1000
0000
0000
0001
0000
0000
0010
0000
0100
1000
0000
0001
,
1000
0000
0000
0000
0010
0000
0000
0000
0100
0000
0000
0000
0001
0000
0000
0000
1000
0000
0000
0000
0001
0000
0000
0000
0010
0000
0000
0100
0000
0000
0010
0000
0000
0001
0000
0000
1000
0000
0000
0010
0000
0000
0100
0000
0000
0001
0000
0000
,
2000
0000
0000
0000
0000
0000
0000
0000
0022
3000
0000
0000
0000
0000
0000
0000
,
2200
0000
0000
0033
0000
0000
0000
0000
0000
0000
0000
0000
0022
0000
0000
3300
0000
0000
0000
0000
0000
0000
0000
0000
2200
0000
0000
0033
0000
0000
0000
0000
0000
0000
0000
0000
3301
0000
1000
0000
0001
0000
0000
0000
0010
0000
0000
0000
,
0100
1000
0001
0100
0010
1000
0001
0010
0100
1000
0100
0010
,
0001
0000
1000
0000
0001
0000
0100
0000
0001
0000
1000
0000
0100
0000
0010
0000
0001
0000
0100
0000
0001
0000
0010
0100
,
1000
0001
1000
0010
0100
0001
1000
0100
0010
0001
1000
0001
,
0100
0001
1000
0100
1000
0001
0100
0000
0100
0000
0010
1000
,
0001
0010
0001
1000
0100
1000
0001
0010
0001
1000
0001
0100
0010
1000
0001
1000
,
0100
0010
0100
1000
0001
0010
0001
1000
0001
0100
0010
1000
0001
1000
0100
0010
,
0001
1000
0001
0100
0001
1000
0100
0010
0001
0100
0001
0010
,
0100
0000
1000
0000
0001
0000
0100
0000
0001
0000
1000
0000
0010
0000
0100
0000
0001
0000
0010
0100
1000
0000
0001
0000
,
0100
0010
1000
0100
1000
0010
0100
0001
0010
0100
0010
0001
,
0100
0010
1000
0100
0010
0001
1000
0010
0100
0001
0010
0100
,
2000
0000
0000
3000
0000
0000
0000
0000
0000
0000
0000
0000
0202
0000
0000
0000
0303
0000
0000
0000
0000
0000
0000
0000
2020
0000
0000
0000
0000
0000
3030
0000
0000
0000
0000
0000
0202
0000
0000
0000
0000
0000
0000
0000
0303
0000
0000
0000
,
2020
0000
0000
0000
0000
0000
0000
0000
0000
0000
0000
0000
3232
0000
0000
0000
0000
0000
0000
0000
0000
0000
0000
0000
2020
0000
0000
0000
0303
0000
0000
0000
0000
0000
0000
0000
0202
0000
0000
0000
0000
0000
0000
0000
0000
3333
0000
0000
,
2222
0000
0000
0000
,
0003
0000
0000
0000
,
0030
0000
0000
0000
,
0300
0000
0000
0000
,
3001
0010
0100
1000
0010
0100
0002
0000
0000
2003
0000
0000
,
3200
0000
0000
0310
0100
1000
0002
0000
0000
2003
0000
0000
,
3020
0000
0000
0130
0001
0010
0200
0000
0000
2300
0000
0000
,
3002
0000
0000
1003
0010
1000
0002
0000
0000
0023
0000
0000
,
0031
1000
0100
0010
0001
0100
0020
0000
0000
2030
0000
0000
,
3002
0000
0000
0013
0001
1000
0200
0000
0000
0320
0000
0000
,
0032
0000
0000
1003
0010
0100
0002
0000
0000
2003
0000
0000
,
3200
0000
0000
0310
0001
0010
0200
0000
0000
2300
0000
0000
,
3001
0010
0001
0100
0010
1000
0100
0000
0000
0110
0000
0000
,
0011
0000
0000
0001
1000
0001
0100
0000
0000
0010
0000
0000
,
1000
0000
0000
0001
0010
0100
1000
0000
0000
0001
0000
0000
,
0100
0000
0000
0010
1000
0001
1000
0000
0000
0100
0000
0000
,
0010
0001
0010
0100
1000
0010
0100
0000
0000
0001
0000
0000
,
1000
0000
0000
0000
0000
0000
0100
0000
0010
0000
0100
0000
100M
0000
0000
000M
0000
0000
001M
0000
0000
000M
0000
0000
,
010M
0000
0000
000M
0000
0000
001M
0000
1000
000M
0100
0000
001M
0000
0000
000M
0000
0000
010M
0000
0000
000M
0000
0000
,
100M
0000
0000
000M
0000
0000
001M
0000
1000
000M
0010
0000
010M
0000
0000
000M
0000
0000
001M
0000
0000
000M
0000
0000
,
1010
1100
0011
0101
,
1001
0000
0000
1100
0000
0000
0011
0000
0000
0101
0000
0001
,
1000
1100
0011
1001
,
0101
0000
0000
0000
0000
0000
1010
0000
0000
0000
0000
0000
1001
0000
0000
0000
0000
0000
0001
0000
0010
0100
1000
0000
,
0001
0101
1010
1100
,
1001
0000
0000
0011
0000
0000
0101
0000
0000
1001
0000
1000
,
0100
0011
1001
1010
,
0222
0000
0000
0000
0000
0333
0000
0000
0000
0000
2220
0000
0000
0000
0000
0000
0000
0000
0000
0000
3330
0000
0000
0000
,
1001
0000
0000
0001
0010
0100
1000
0000
0000
0001
0000
0000
,
0100
0000
0000
0010
1000
0010
0100
0000
0000
0001
0000
0000
,
1000
0000
0000
0100
0010
0100
1000
0000
0000
0001
0000
0000
,
0100
0000
0000
0010
1000
0001
1000
0000
0000
0100
0000
0000
,
0010
0001
0010
0100
1000
0010
0100
0000
0000
0001
0000
0000
,
1000
0000
0000
0100
0010
0100
1000
0000
0000
0001
0000
0000
,
0200
0000
0300
0020
2030
3200
0320
0000
0030
0002
0000
0003
,
2002
0000
3003
2002
0000
3003
2002
0000
3003
2002
0000
3003
,
1000
0100
0010
0001
1000
0100
1000
0001
0010
0001
1000
0010
1000
0001
0100
0001
,
1000
0100
0010
0001
1000
0010
1000
0001
0100
0001
1000
0100
0010
0001
1000
0001
,
0100
0010
1000
0100
1000
0010
0100
0001
1000
0100
1000
0001
,
0100
0000
0010
0000
1000
0000
0100
0000
0010
0000
0001
0000
1000
0000
0001
0000
0100
0000
0010
1000
0010
0000
0100
0000
,
0001
1000
0001
0010
0001
0100
0010
1000
0010
0100
0001
1000
,
0001
0010
0001
1000
0100
1000
0001
0100
0010
1000
0001
1000
,
0200
0000
0000
0000
0300
0000
0000
0000
0000
0000
0000
0000
2020
0000
0000
0000
0000
0000
3030
0000
0000
0000
0000
0000
0202
0000
0000
0000
0000
0000
0000
0000
0000
0303
0000
0000
2020
0000
0000
0000
0000
0000
0000
0000
0000
0000
0000
0000
,
3232
0000
0000
0000
2020
0303
0000
0000
0202
0000
3030
0000
2020
0000
0000
3333
,
2222
0000
0000
0000
,
0003
0000
0000
0000
,
0000
0000
0000
0000
,
0030
0000
0000
0000
,
0000
0000
0000
0000
,
0300
0000
0000
0000
,
3000
0000
0000
0000
,
0000
0000
0000
0000
,
000M
0000
0000
0000
;
