#TITLE:Salieri Strikes Back;
#SUBTITLE:;
#ARTIST:Warmen;
#TITLETRANSLIT:;
#SUBTITLETRANSLIT:;
#ARTISTTRANSLIT:;
#CREDIT:;
#BANNER:../Banner.png;
#BACKGROUND:../BG.png;
#LYRICSPATH:;
#CDTITLE:../CDTitleBRAEDEN.png;
#MUSIC:Salieri_Strikes_Back.ogg;
#OFFSET:0.811;
#SAMPLESTART:31.980;
#SAMPLELENGTH:12.000;
#SELECTABLE:YES;
#BPMS:0.000=241.250,1230.000=230.000,1231.000=220.000,1232.000=210.000,1233.000=200.000,1236.000=210.000,1241.000=200.000,1250.000=195.000,1255.000=140.000;
#STOPS:;
#BGCHANGES:0.000=Salieri_Strikes_Back-bg.png=1.000=0=0=1,
99999=-nosongbg-=1.000=0=0=0 // don't automatically add -songbackground-
;
// cache tags:
#FIRSTBEAT:4.000;
#LASTBEAT:1258.000;
#SONGFILENAME:Songs/Index Tesseract/Salieri Strikes Back  - [Braeden]/Salieri_Strikes_Back.sm;
#HASMUSIC:1;
#HASBANNER:1;
#MUSICLENGTH:319.145;
// end cache tags

//---------------dance-single - ----------------
#NOTES:
     dance-single:
     :
     Challenge:
     21:
     1.000,1.000,0.426,0.219,0.840,2480.000,136.000,70.000,28.000,0.000:

0000
0000
0000
0000
,
1000
0100
0010
0100
1000
0100
0010
0100
,
0010
0001
0010
0100
0010
0001
0010
0100
,
1000
0010
0100
0010
1000
0010
0100
0010
,
1000
0001
0010
0100
1000
0001
0100
0010
,
1000
0100
0010
0100
1000
0001
0100
0010
,
1000
0100
0010
0100
1000
0001
0100
0010
,
0100
0001
0100
0010
1000
0001
0010
0100
,
2000
3200
0320
0032
2003
3020
0230
0302
,
1003
0100
0010
0001
0100
0100
0010
0010
,
1000
1000
0100
0100
0010
0010
0001
0001
,
0100
0100
0010
0010
1000
0100
1000
0001
,
0100
0010
0100
0001
1000
0100
0010
0100
,
1000
0010
0100
0001
1000
0100
0010
0001
,
1000
0010
1000
0100
0010
0100
1000
0001
,
0100
0010
0100
0001
1000
0100
0010
0001
,
0100
0100
0100
0100
0010
0010
0010
0010
,
1000
0100
M010
0001
0100
0010
1M00
0001
,
0010
0100
10M0
0001
0100
0010
100M
0100
,
0010
0001
M010
0100
1000
0001
M100
0010
,
1000
0100
001M
0100
1000
0001
M100
0010
,
1010
0100
M001
0100
0010
1000
010M
0010
,
0001
0010
M100
1000
0001
0100
001M
1000
,
0100
0010
M001
0010
0100
1000
00M1
0100
,
0010
0010
100M
1000
0100
0100
M010
0010
,
1001
1000
0100
0010
0001
0010
0100
1000
,
0001
0010
0100
1000
0100
0010
0001
1000
,
1001
0001
0010
0100
1000
0001
0100
0010
,
0100
0001
1000
0010
0100
0001
1000
0010
,
1010
0100
0001
0100
0010
1000
0100
0010
,
0100
1000
0001
0010
0100
1000
0001
1000
,
1010
0100
0001
1000
0100
0010
0001
0100
,
0010
0010
1000
1000
0100
0100
0010
0100
,
0040
0034
0043
0034
4003
3400
4300
3400
,
0340
0034
0043
0034
0403
0340
0430
0340
,
1030
0100
0010
0001
1000
0100
0010
0100
1000
0100
0010
0001
0100
0010
1000
0001
,
0010
0100
1000
0001
0100
0010
0100
0001
1000
0100
0010
0100
1000
0001
0100
0010
,
4000
0000
0000
0000
0000
0000
0000
0000
0000
0000
0000
0000
3001
0000
0010
0000
0100
0000
1000
0000
0000
0001
0000
0000
0100
0000
0000
0010
0000
0000
1000
0000
0000
0100
0000
0000
0010
0000
0000
0100
0000
0000
1000
0000
0000
0001
0000
0000
,
0100
0010
1000
0001
0100
0010
1000
0100
0010
0100
1000
0001
0010
0100
1000
0001
,
1000
0000
0100
0000
0010
0000
0001
0000
0010
0000
0100
0000
1000
0000
0000
0001
0000
0000
0100
0000
0000
0010
0000
0000
1000
0000
0000
0100
0000
0000
0010
0000
0000
0100
0000
0000
1000
0000
0000
0001
0000
0000
0100
0000
0000
0010
0000
0000
,
1000
0000
0000
0100
0000
0000
0010
0000
0000
0001
0000
0000
0010
0000
0000
0100
0000
0000
1000
0000
0010
0000
0100
0000
0020
0000
0000
0000
0000
0000
0000
0000
0000
0000
0000
0000
0000
0000
0000
0000
0000
0000
0000
0000
0000
0000
0000
0000
,
2030
0000
3400
0310
0001
0100
0040
1030
,
0100
0010
0004
0013
0100
1000
0004
0103
,
0010
1000
0400
0310
0001
0100
0040
1030
,
0100
0010
0004
0103
0010
1000
0400
0310
,
0004
0000
0000
0000
0000
0000
0000
0000
0000
1003
0000
0000
0000
0000
0000
0000
0100
0000
0000
0000
0010
0000
0000
0000
0100
0000
0000
0000
1000
0000
0000
0000
0001
0000
0000
0000
0100
0000
0000
0000
0000
0000
0010
0000
0000
1000
0000
0000
,
0001
0000
0000
0000
0100
0000
0000
0000
0010
0000
0000
0000
1000
0000
0000
0001
0000
0000
0010
0000
0000
0100
0000
0000
2000
0000
0000
0000
0000
0000
3001
0000
0000
0100
0000
0000
0010
0000
0000
1000
0000
0000
0100
0000
0000
0010
0000
0000
,
0100
0000
0000
1000
0000
0000
0001
0000
0000
0100
0000
0000
0010
0000
0000
1000
0000
0000
0100
0000
0000
0010
0000
0000
0100
0000
0000
0000
0010
0000
0000
0000
0001
0000
0000
0000
0100
0000
0000
0000
0010
0000
0000
0000
0100
0000
0000
0000
,
0001
0010
0100
0010
0001
0010
0100
1000
0001
0100
0010
1000
,
0100
0010
M001
0010
0100
1000
00M1
0100
,
0010
1000
010M
0010
0100
1000
00M1
0100
,
0010
1000
010M
0010
0100
1000
00M1
0100
,
0001
0010
M100
1000
0100
1000
00M1
0100
,
0010
1000
0100
0010
0100
1000
00M1
0100
,
0010
1000
0001
0010
0100
1000
00M1
0100
,
0010
0100
0001
1000
0100
0010
0M01
0010
,
0001
0001
0100
0100
0010
0010
10M0
0100
,
0010
0010
0001
0001
0100
0100
0010
0010
,
1000
1000
0100
0100
0010
0010
0001
0001
,
1001
0100
0010
0010
0100
0100
0001
0001
,
0100
0100
0010
0010
1000
1000
0100
0100
,
1001
0010
0100
0100
0001
0001
1000
1000
,
0100
0100
0010
0010
0001
0001
0100
0100
,
0010
1000
0010
1000
0001
0100
0001
0100
,
0101
0010
1000
0010
1010
0100
0001
0100
,
0010
1000
0100
1000
0001
0000
1001
0000
,
1010
1001
0101
1001
,
1010
0110
1001
1010
,
1001
1010
0101
1001
,
1000
0100
0010
0100
1000
0001
0100
0010
,
1000
0001
0010
0100
1000
0001
0100
0010
,
1010
1010
0101
0101
,
1100
0100
0010
0010
0001
0001
0100
0100
,
0004
0010
0000
0100
0000
1000
0000
0013
,
0400
0010
0000
0001
0000
0010
0000
0010
,
4300
0010
0000
0001
0000
0010
0000
3100
,
0040
0100
0000
1000
0000
0100
0000
1030
,
0004
0040
0000
0000
0000
0000
0033
0000
,
4000
0040
0000
0000
0000
0000
3030
0000
,
0004
0400
0000
0000
0000
0000
0303
0000
,
1000
1000
0010
0010
0100
0100
0001
0001
,
4001
0000
0000
0000
3000
0000
0010
0100
,
0040
0000
0000
0000
0000
0000
0130
0001
,
0400
0000
0000
0320
0000
0000
4030
0000
,
3004
0000
0000
0000
0003
0000
0010
0100
,
0020
0230
0302
0203
0320
2030
3002
0203
,
0320
2030
3200
0320
0032
0023
0230
1300
,
0000
0000
0001
0000
0000
0000
1000
0000
0010
0100
0001
0100
0010
1000
0001
0100
,
0040
0000
0000
0000
0000
0000
1030
0100
,
0010
0001
0200
0310
1000
0001
0200
0310
,
1000
0100
0020
0031
0100
0010
2000
3010
,
4000
0000
0000
3040
0000
0000
0430
0000
,
0000
0000
0300
0000
0001
0010
0100
1000
,
0004
0000
0103
0040
,
0000
0000
4030
3400
4300
3000
0001
0010
,
0400
4300
3004
0403
0340
4030
3400
0340
,
0031
0010
0100
1000
0001
0010
0100
1000
,
0001
0010
0100
1000
0001
0100
0010
1000
,
0001
0010
0100
1000
0010
0100
0001
1000
,
0100
0010
0100
0010
0001
1000
0001
1000
,
0010
0100
0010
0100
0001
0010
0100
1000
,
0001
0010
0001
0010
0100
1000
0100
1000
,
0001
0100
0001
1000
0001
0010
0001
0100
,
0010
1000
0100
1000
0001
0010
0100
1000
,
0010
0010
0100
0001
1000
0100
0010
0001
,
1000
1000
0100
0010
0001
0010
0100
1000
,
0001
0100
0010
1000
0100
0010
0100
1000
,
0001
0001
0100
0010
1000
0100
0010
0100
,
1000
1000
0001
0100
0010
1000
0100
0010
,
0001
0001
0100
0010
1000
0100
0010
0001
,
0100
0010
1000
0100
1000
0001
0010
0100
,
1000
0001
0100
0010
1000
0100
0010
0100
,
1000
1000
0001
0100
0010
1000
0100
0010
,
0100
0010
0001
0010
0100
1000
0001
0100
0010
1000
0100
0010
,
0100
1000
0001
0100
0010
1000
0100
0010
0100
1000
0001
0010
,
0100
1000
0001
0100
0010
0100
0001
1000
0100
0010
0100
1000
,
0001
0010
0100
1000
0001
0100
0010
0100
0001
1000
0100
0010
,
0001
0010
0100
1000
0001
0100
0010
1000
0001
0010
0100
1000
,
0001
0100
0010
1000
0100
0010
0100
1000
0001
0010
0100
1000
,
0001
0100
0010
0100
0001
1000
0100
0010
0100
1000
0001
0100
,
0010
1000
0100
0010
0100
1000
0001
0100
0010
1000
0100
0010
,
0100
1000
0100
0010
0001
0010
0100
1000
0001
0100
0010
1000
,
0001
0000
1000
0001
1000
0000
0100
0000
0010
0001
0010
0000
0100
0000
1000
0000
0100
0000
0010
0000
0001
1000
0001
0000
,
1000
0000
0100
0010
0100
0000
0010
0000
0001
0010
0100
0000
1000
0000
0100
0010
0001
0000
0010
0000
0100
1000
0001
0000
,
0100
0000
0010
1000
0100
0000
0010
0000
0001
0010
0100
0000
1000
0000
0100
0010
0001
0000
1000
0000
0010
0100
0001
0000
,
1000
0000
0000
0000
0100
0000
0000
0000
0010
0000
0000
0000
0001
0000
0000
0000
0010
0000
0000
0000
0100
0000
0000
0000
1000
0000
0000
0001
0000
0000
1000
0000
0010
0000
0000
0000
0100
0000
0000
0000
0001
0000
1000
0000
0000
0010
0000
0000
,
0100
0000
0001
0000
1000
0100
1000
0000
0001
0000
0100
0020
0130
0000
0010
0000
,
1000
0100
1000
0000
0001
0000
0100
0010
0100
0000
0010
0000
1000
0000
0001
0100
,
0010
1000
0100
0010
0100
1000
0001
0100
0010
0100
0001
1000
,
0004
0013
0100
1000
0001
0100
0040
1030
,
0004
0013
0100
4000
3100
0010
0004
0103
,
0040
1030
0400
0310
0001
0100
0010
1000
,
0100
0010
0001
0010
0400
0000
0000
0000
,
4300
0000
0000
0000
0000
0000
3001
0001
,
0100
0010
1000
0100
0010
0100
1000
0001
,
0100
0010
1000
0100
0010
0100
1000
0001
,
0010
0100
1000
0001
0100
0010
1000
0100
,
4000
0000
0000
0000
3000
0000
0004
0043
,
0034
0043
0430
4300
3004
0403
0340
4030
,
3004
0000
0403
0340
0430
0340
4030
3400
,
0340
0430
4300
3004
0403
0340
4030
3040
,
0430
0000
0000
0000
0000
0000
0000
0000
0000
0000
0000
0000
0000
0000
0000
0000
0301
0000
1000
0000
0100
0000
0000
1000
0000
0000
0001
0000
0100
0000
0000
0000
,
0010
0000
0000
1000
0000
0000
0020
0000
0000
0000
0000
0000
0130
0000
0000
0001
0000
0000
0100
0000
0000
0010
0000
0000
4000
0000
0000
0000
0000
0000
0000
0000
0000
0000
0000
0000
0000
0000
0000
0000
0000
0000
3100
0000
0010
0000
0001
0000
,
0400
0000
0340
4030
3040
4030
3001
0100
,
0010
0010
1000
1000
0100
0100
0010
0010
,
0001
0100
0101
0010
1000
0010
1010
1000
,
0100
1000
1100
0010
0001
0010
0011
0001
,
0100
0001
0101
0010
1000
0010
1010
1000
,
0001
1000
1001
0010
0100
0010
0110
1000
,
1001
0000
0000
0000
0010
0000
0000
0100
,
0000
0000
0001
0000
0000
1001
0000
0000
,
1000
1001
0010
0010
,
1000
0100
0010
0100
0000
0000
0010
0001
0100
0010
0000
0000
,
1010
0000
0000
0000
1000
0000
0000
0000
0001
0000
0000
0000
0000
0001
0000
0000
,
0000
0000
0000
0000
1000
0000
0000
0000
0000
0000
0000
0001
0000
0000
0000
0000
0000
0000
0010
0000
0000
0000
0000
0000
0000
0000
0000
0000
0000
0000
0000
0000
,
1001
1001
0000
0110
,
0110
0000
1000
0010
0100
0000
0001
0000
,
1001
0020
0030
1001
,
0200
0300
0011
0004
,
0203
0000
0310
1000
,
0000
0000
0001
1000
0010
0000
0100
0000
,
0202
0303
2020
3030
,
0000
2000
3200
0310
,
1001
0110
0000
1000
,
0001
0000
0000
0100
0110
0000
0001
0000
,
1000
0001
1001
0010
,
0100
0000
0001
0100
0010
0000
0000
1000
,
0100
0010
1001
0100
,
0010
0000
0100
0001
0100
0010
1000
0100
,
0010
0001
1010
0100
,
0001
0000
0000
0000
1001
0000
0001
0100
,
0010
1000
0101
0010
,
2000
0000
0000
3010
0100
0000
0004
0000
,
1003
0000
0000
0000
1001
0000
0010
0100
,
0020
0000
0000
0000
0000
0000
0030
0000
1010
0000
0000
0000
0100
0001
0100
0001
,
0100
0001
1000
0001
0100
0010
1000
0100
,
0020
0000
0000
0030
2000
0000
3000
0000
,
1001
1000
0100
0010
0001
0000
0100
0000
,
0000
0000
0000
0000
0001
0010
0100
1000
0100
0010
0001
1000
0040
0000
0000
0000
,
0030
0000
0000
0000
0100
0001
1000
0100
0010
0100
1000
0001
0400
0000
0000
0000
,
0300
0000
0000
0000
0001
0010
0100
1000
0001
0100
0010
1000
0100
0000
0000
0000
,
0020
0000
0031
0000
0000
0000
0001
1000
,
0200
0300
0011
0001
,
1000
0010
0110
1000
,
0001
1000
0100
0010
0100
1000
0001
0100
,
0010
0000
0000
0000
0000
0000
0000
0000
1000
0000
0000
0000
0100
0000
0000
0010
0000
0000
0001
0000
1000
0000
0010
0000
0100
0000
0000
0000
0000
0000
0010
0000
0000
1000
0000
0000
0100
0000
0010
0000
0001
0000
0010
0000
0100
0000
1000
0000
,
0001
0100
0010
1000
0100
0010
0100
0010
0001
0010
0100
0010
,
0004
0103
0010
0200
,
0320
0230
0320
0230
0320
2030
3020
2030
,
3001
0000
0000
0000
0000
0000
0100
0000
0000
0000
0000
0000
0010
0000
0000
0000
1000
0000
0000
0000
0001
0000
0000
0000
0100
0000
0000
0001
0000
0000
0010
0000
0000
0100
0000
0000
1000
0000
0000
0001
0000
0000
0100
0000
0000
0010
0000
0000
,
1000
0000
0000
0000
0010
0000
0000
0000
0100
0000
0000
0000
0001
0000
0000
1000
0000
0000
0100
0000
0000
0010
0000
0000
0001
0000
0000
0000
0000
0000
1000
0000
0000
0000
0000
0000
0001
0000
0000
0010
0000
0000
0100
0000
0000
1000
0000
0000
,
0010
0000
0100
0000
0001
0010
0100
1000
,
0000
0000
0000
0000
0020
0000
0000
0000
0030
0000
0000
0000
1000
0100
0010
0001
,
0010
0000
0000
0100
0000
0000
1000
0000
0000
0001
0000
0000
0100
0000
0000
0010
0000
0000
1000
0000
0000
0100
0000
0000
0010
0000
0000
0000
0001
0000
0000
0000
0010
0000
0000
0000
0100
0000
0000
0000
1000
0000
0000
0000
0001
0000
0000
0000
,
0100
0000
0000
0010
0000
0000
1000
0000
0000
0001
0000
0000
0010
0000
0100
0000
1000
0000
0001
0000
0010
0000
0100
0000
0010
0000
0000
0001
0000
0000
0010
0000
0000
0100
0000
0000
1000
0000
0000
0000
0010
0000
0000
0000
0100
0000
0000
0000
,
0001
0000
0000
0000
1000
0000
0000
0000
0100
0000
0000
0000
0010
0000
0000
0000
0100
0000
0000
0000
1000
0000
0000
0000
0001
0000
0000
0100
0000
0000
0010
0000
0000
1000
0000
0000
0001
0000
0000
0010
0000
0000
0100
0000
0000
1000
0000
0000
,
0001
0000
0000
0100
0000
0000
0010
0000
0000
1000
0000
0000
0100
0000
0010
0000
0100
0000
1000
0000
0001
0000
0010
0000
0100
0000
0000
0010
0000
0000
0001
0000
0000
0000
0000
0000
0010
0000
0000
0000
0100
0000
0000
0000
1000
0000
0000
0000
,
0002
0103
0020
2030
,
3001
0000
0400
0000
0310
0000
1000
0010
,
1010
1010
0000
0000
0001
0001
0100
0010
,
1000
0100
0010
0100
1000
0001
0100
0010
,
1000
0400
0300
0010
,
0004
0000
0000
0003
1000
0000
0040
0000
,
0000
0000
0130
0001
2000
0000
0000
0000
,
3040
0000
0000
0000
0031
0000
0010
0010
,
1000
0010
1001
0200
,
0310
0000
1000
0100
0010
0100
1000
0001
,
0000
0000
0110
0000
1001
0000
1000
0100
,
0010
0100
1000
0001
0100
0010
1000
0100
,
0040
0000
0000
0000
0000
0000
0000
0000
0000
0031
0100
0010
,
4000
0000
3001
0010
,
0100
1000
0101
0010
,
1000
0000
0000
0001
0100
0000
0010
1000
,
0001
0000
0000
0000
0010
0100
1000
0001
0100
0010
1000
0100
0010
0100
1000
0001
,
0100
0010
1000
0100
0010
0100
1000
0001
0010
0100
1000
0001
0100
0010
1000
0001
,
1000
0010
0100
0001
0100
0010
1000
0100
,
0010
0100
1000
0001
0010
0100
1000
0001
,
0100
0010
0200
0000
0000
0000
0000
0000
0300
0000
0000
0000
0100
0001
0100
0000
,
0010
0000
0000
1000
0000
0000
0010
0000
0000
0000
0000
0000
1000
0000
0000
0000
0000
0000
0100
0000
0000
0000
0000
0000
0010
0000
0000
0000
0000
0000
0001
0000
0000
0000
0000
0000
0010
0000
0000
0000
0000
0000
0100
0000
1000
0000
0001
0000
,
0020
0000
0000
0130
1000
0001
0100
0010
1000
0002
0000
0000
,
1003
0000
0000
0100
0000
0000
0010
0000
0000
0001
0000
0000
0010
0000
0000
0100
0000
0000
1000
0000
0000
0001
0000
0000
0100
0000
0000
0000
0000
0000
0010
0000
1000
0000
0001
0000
0100
0000
0000
0000
0001
0000
0000
0000
1000
0000
0000
0000
,
0002
0000
0000
0000
0000
0000
1003
0100
0010
0100
1000
0001
,
0400
0000
0340
0000
0030
1000
0100
0010
0001
0010
0100
1000
0001
0100
0010
1000
,
0001
0100
0010
1000
0001
0010
0100
1000
0001
0100
0010
0100
0001
0010
0001
1000
,
0100
0010
0100
1000
0001
0100
0010
0100
0001
0000
0100
0000
0010
0000
1000
0010
,
4000
0000
0000
0000
0000
0000
3001
0010
0100
1000
0001
0100
,
0010
0000
0000
1000
0000
0000
0100
0000
0000
0010
0000
0000
0100
0000
0000
1000
0000
0000
0001
0000
0010
0000
0100
0000
,
1000
0000
0000
0000
0010
0000
0000
0000
0100
0000
0000
0000
0001
0000
0000
0010
0000
0000
0100
0000
0000
1000
0000
0000
0001
0000
0000
0000
0000
0000
1000
0000
0000
0100
0000
0000
0010
0000
0000
0001
0000
0000
0000
0000
0000
1000
0000
0000
,
0010
0000
0000
0100
0000
0000
0001
0000
0000
1000
0000
0000
0100
0000
0000
0010
0000
0000
0100
0000
0000
1000
0000
0000
0100
0000
0010
0000
0001
0000
0010
0000
0100
0000
0010
0000
0001
0000
0000
0000
1000
0000
0000
0000
0010
0000
0000
0000
,
0200
0000
0000
0000
0000
0000
0000
0000
0000
0000
0000
0000
0300
0000
0000
0001
0000
0000
0010
0000
0000
0100
0000
0000
1000
0000
0000
0010
0000
0000
0100
0000
0001
0000
0100
0000
0010
0000
0000
1000
0000
0000
0100
0000
0000
0010
0000
0000
,
0001
0000
0000
1000
0000
0000
0010
0000
0000
0100
0000
0000
0001
0000
0000
1000
0000
0000
0100
0000
0000
1000
0000
0000
0100
0000
0000
0000
0010
0000
0000
0000
0001
0000
0000
0000
1000
0000
0000
0000
0000
0000
0100
0000
0000
0010
0000
0000
,
0001
0000
0000
0000
0000
0000
1000
0000
0010
0000
0100
0000
0001
0000
0000
0100
0000
0000
0010
0000
0000
1000
0000
0000
0100
0000
0000
1000
0000
0000
0001
0000
0000
0010
0000
0000
0100
0000
0000
1000
0000
0000
0001
0000
0000
0100
0000
0000
,
0010
0000
0000
1000
0000
0000
0100
0000
0000
0010
0000
0000
0100
0000
0000
1000
0000
0000
0001
0000
0000
0100
0000
0000
0010
0000
0000
0000
1000
0000
0000
0000
0100
0000
0000
0000
1000
0000
0000
0000
0001
0000
0000
0000
0010
0000
0000
0000
,
0100
0010
0001
0010
0100
1000
0001
0100
0010
0100
0001
1000
0100
0010
0100
1000
,
0001
0010
0100
1000
0001
0100
0010
0100
0001
1000
0100
0010
0100
1000
0001
0100
,
0010
1000
0001
0010
0100
1000
0001
0010
0001
1000
0100
0010
0100
1000
0001
0010
,
0100
1000
0001
0010
0001
1000
0010
0100
0001
0010
0001
1000
0100
0010
0100
1000
,
0001
0010
0100
1000
0001
0100
0010
1000
0100
0010
0100
1000
0001
0010
0100
1000
,
0001
0100
0010
1000
0100
0010
0100
1000
0001
0010
0100
1000
0001
0100
0010
1000
,
0001
0010
0100
1000
0001
0100
0010
1000
0100
0010
0100
1000
0001
0010
0100
1000
,
0001
0100
0010
1000
0100
0010
0100
1000
0001
0010
0100
1000
0001
0100
0010
1000
,
0100
1000
0001
0010
0100
1000
0001
0100
0010
1000
0100
0010
0100
1000
0001
0010
,
0100
1000
0001
0100
0010
1000
0100
0010
0100
1000
0001
0010
0100
1000
0001
0100
,
0010
0100
0001
1000
0100
0010
0100
1000
0001
0100
0010
1000
0100
0010
0100
1000
,
0001
0010
0100
0010
0001
0100
0010
0100
0001
1000
0100
0010
0100
1000
0001
0100
,
0010
1000
0001
0010
0001
1000
0100
0010
0100
1000
0001
0010
0100
1000
0001
0100
,
0010
1000
0100
0010
0100
1000
0001
0010
0100
1000
0001
0100
0010
1000
0100
0010
,
0100
1000
0001
0010
0100
1000
0001
0100
0010
0100
0001
1000
0100
0010
0100
1000
,
0001
0010
0100
1000
0001
0100
0010
1000
0001
0100
0010
1000
0001
0010
0100
0010
,
0001
0100
0010
1000
0001
0000
1001
0000
,
0110
0101
1010
1001
,
1000
0100
0010
0001
1000
0000
1001
0000
,
0110
0011
1001
0110
,
0001
0010
0100
1000
0001
0100
0010
1000
,
0100
0010
0100
1000
0001
0010
0100
1000
,
0001
0100
0010
1000
0001
0100
0010
1000
,
1010
0100
0001
0100
1010
0001
0100
0010
,
1010
0100
0001
1000
0001
0100
0010
1000
,
0100
0010
0100
1000
0001
0010
0100
1000
,
0001
0100
0010
0100
0001
1000
0100
0010
,
0100
1000
0001
0100
0010
1000
0001
0010
,
0100
0010
0001
0010
0100
0010
0001
1000
,
0100
0010
0100
1000
0001
0100
0010
1000
,
0100
0010
0001
0010
0100
1000
0001
0100
,
0010
1000
0100
0010
0001
0010
0100
1000
,
0001
0100
0010
1000
0010
1000
0001
0100
,
0001
1000
0001
0100
0001
0010
0100
1000
,
0100
0010
0001
0100
0010
1000
0001
0010
,
0100
0010
0001
0100
0010
1000
0001
0010
,
0100
0010
0001
0010
0100
1000
0001
0100
,
0010
0100
0001
1000
0100
0010
0100
1000
,
0001
0010
0100
1000
0001
0100
0010
0100
,
0001
1000
0100
0010
0100
1000
0001
0100
,
0010
0010
0010
0010
1000
1000
1000
1000
,
0001
0001
0001
0001
0001
0001
0001
0001
,
0100
0100
0100
0100
0010
0010
0010
0010
,
1000
1000
1000
1000
1000
1000
1000
1000
,
0001
0001
0001
0001
0100
0100
0100
0100
,
0010
0010
0010
0010
0010
0010
0010
0010
,
0100
0100
0100
0100
0010
0010
0010
0010
,
0100
0100
0100
0100
0100
0100
0100
0100
,
0001
0010
0001
0010
0100
1000
0100
1000
,
0001
0100
0001
0100
0001
0100
0001
0100
,
0010
1000
0010
1000
0001
0010
0001
0010
,
0100
1000
0100
1000
0100
1000
0100
1000
,
0001
0100
0001
0100
0010
1000
0010
1000
,
0010
0100
0010
0100
0010
0100
0010
0100
,
0001
0010
0001
1000
0001
0010
0001
1000
,
0010
0100
0010
1000
0010
0100
0001
0100
,
0010
1000
0010
0100
0001
0100
0010
1000
,
0100
0010
0100
1000
0001
0100
0010
1000
,
0001
0010
0001
1000
0100
0010
0100
1000
,
0001
0010
0100
1000
0001
0100
0010
0100
,
0001
1000
0100
0010
0100
1000
0001
0100
,
0010
1000
0100
0010
0001
0010
0100
1000
,
0001
0100
0010
1000
0100
0010
0100
1000
,
0001
0010
0100
1000
0001
0100
0010
1000
,
0010
0100
1001
0010
0100
0001
1010
0100
,
0001
1000
0101
0010
1000
0100
1001
0010
,
0100
0010
1001
0100
0010
0100
0011
1000
,
0100
1000
0101
0010
1000
0010
0101
0010
,
1000
0100
1001
0010
0100
0010
1001
0100
,
0010
1000
0101
0010
1000
0100
1001
0010
,
0100
0001
1000
0100
0010
0100
1000
0001
,
0010
0100
1000
0001
0100
0010
0100
0000
,
1001
1000
0100
0010
0001
1000
0100
0010
,
0100
1000
0001
0100
0010
1000
0100
0010
,
0100
1000
0001
0100
0010
1000
0100
0010
,
0100
1000
0001
0010
0100
1000
0001
1000
,
0100
0010
0100
1000
0001
0100
0010
1000
,
0100
0010
0100
1000
0001
0010
0100
1000
,
0001
0100
0010
1000
0100
0010
0100
1000
,
0001
0100
0010
1000
0001
0010
0100
1000
0001
0100
0010
1000
0001
0000
0000
0000
0000
0000
0000
0000
0000
0000
0000
0000
,
0000
0000
1000
0010
,
2002
0000
3003
0000
;
