#TITLE:Lava Reef Zone - Act 2;
#SUBTITLE:- Sonic & Knuckles;
#ARTIST:Sonic Team;
#TITLETRANSLIT:;
#SUBTITLETRANSLIT:;
#ARTISTTRANSLIT:;
#CREDIT:;
#BANNER:Lava Reef Zone - Banner.PNG;
#BACKGROUND:Lava Reef Zone - Background.PNG;
#LYRICSPATH:;
#CDTITLE:;
#MUSIC:Sonic & Knuckles - Lava Reef Zone Act 2 ~ Hidden Palace Zone.mp3;
#OFFSET:-0.145;
#SAMPLESTART:50.000;
#SAMPLELENGTH:12.000;
#SELECTABLE:YES;
#BPMS:0.000=119.950;
#STOPS:;
#BGCHANGES:;
// cache tags:
#FIRSTBEAT:0.000;
#LASTBEAT:190.500;
#SONGFILENAME:Songs/new cc/Sonic & Knuckles - Lava Reef Zone - Act 2 (Crazylegz Edit)/Lava Reef.sm;
#HASMUSIC:1;
#HASBANNER:1;
#MUSICLENGTH:111.255;
// end cache tags

//---------------dance-single - ----------------
#NOTES:
     dance-single:
     :
     Hard:
     10:
     0.562,0.570,0.351,0.198,0.854,377.000,39.000,22.000,0.000,0.000:
0000
0000
0000
0000
,
0000
0000
0000
0000
,
0000
0000
0000
0000
,
1000
0100
0010
0001
0010
0100
0010
0001
,
1001
1000
0010
0001
0010
1000
0100
1000
,
0010
0000
1000
0010
0000
1000
0000
0001
0000
0100
0000
0001
0100
0000
0101
0000
,
0001
0000
0010
0100
0000
1000
0000
0100
0000
0010
0000
0001
0010
0000
0011
0000
,
0001
0000
1000
0010
0000
1000
0000
0010
0000
0100
0000
0010
1000
0000
1010
0000
,
0010
0000
0100
0001
0000
0100
0000
0010
0000
1000
0000
0001
1000
0000
1001
0000
,
0001
0000
0010
0100
0000
0010
0000
0001
0000
1000
0000
0100
1000
0000
1100
0000
,
1000
0000
0010
0100
0000
0010
0000
1000
0000
0001
0000
0100
0001
0000
0101
0000
,
0010
0000
0100
0001
0000
0010
0000
0100
0000
1000
0000
0100
0010
0000
0011
0000
,
0010
0000
0100
1000
0000
0100
0000
0010
0000
0001
0000
0010
0100
0000
1100
0000
,
1000
0000
0010
0100
0000
0010
0000
1000
0000
0001
0000
0010
0001
0000
0011
0000
,
0010
0000
0100
0010
0000
0001
0000
1000
0000
0010
0000
1000
0010
0000
1010
0000
,
1000
0001
0100
0010
0000
0100
0000
0001
0000
1000
0000
0010
1000
0000
1010
0000
,
0010
1000
0010
0100
0000
0001
0000
0010
0000
0100
0000
1000
0100
0000
1100
0000
,
2002
0000
0003
0020
0000
0030
0200
3300
,
2200
0000
0000
0000
0000
0000
3300
0001
,
0100
0001
0100
0010
0000
0100
0000
0001
0000
0100
0000
0010
1000
0000
1010
0000
,
1000
0010
0100
0001
0000
0100
0000
0010
0000
0100
0000
0001
0010
0000
0011
0000
,
2200
0000
3000
0020
0000
0300
0002
0030
,
0200
0000
0000
0303
,
0001
0010
0100
1000
0100
1000
0100
1000
0100
0010
0100
1000
0001
1000
0100
0010
,
0001
0100
0001
1000
0100
0010
0001
0100
0001
1000
0100
0010
0001
0100
0001
1000
,
0001
0000
1000
0010
0000
1000
0000
0010
0000
0100
0000
0001
0100
0000
0101
0000
,
0001
0000
0010
0100
0000
0010
0000
0001
0000
1000
0000
0001
1000
0000
1001
0000
,
1000
0000
0010
0100
0000
0010
0000
1000
0000
0001
0000
0010
0001
0000
0011
0000
,
0010
0000
0100
1000
0000
0100
0000
0010
0000
0001
0000
0100
0001
0000
0101
0000
,
0100
0000
0001
0100
0000
0010
0000
0100
0000
0001
0000
1000
0010
0000
1010
0000
,
0010
0000
1000
0010
0000
0100
0000
0010
0000
1000
0000
0001
0010
0000
0011
0000
,
0001
0000
0010
0100
0000
1000
0000
0100
0000
0010
0000
0001
1000
0000
1001
0000
,
1000
0000
0010
1000
0000
0010
0000
0100
0000
0001
0000
0010
0001
0000
0011
0000
,
0001
0000
0010
0001
0000
0100
0000
0010
0000
0100
0000
0001
1000
0000
1010
0000
,
1001
0000
0001
0010
0000
0001
0000
1000
0000
0010
0000
1000
0100
0000
1100
0000
,
1000
0010
0100
0001
0000
0010
0000
0100
0000
0010
0000
0001
1000
0000
1001
0000
,
0001
0010
0100
1000
0000
0100
0000
0010
0000
0001
0000
1000
0001
0000
1001
0000
,
2002
0000
3000
0200
0000
0300
0020
0033
,
0022
0000
0000
0000
0000
0000
0033
0100
,
1000
0100
0010
0001
0000
0010
0000
0100
0000
0010
0000
0001
0010
0000
0011
0000
,
0001
0100
0010
1000
0000
0010
0000
0100
0000
0010
0000
1000
0010
0000
1010
0000
,
2020
0000
3000
0200
0000
0030
0002
0300
,
0020
0000
0000
0033
,
0001
0010
0001
1000
0001
0010
0001
1000
0001
0010
0001
0010
0100
1000
0100
1000
,
0100
0010
0100
1000
0100
0010
0100
1000
0100
0010
0100
1000
0100
1000
0001
0100
,
0001
0000
0100
0001
0000
0100
0000
0010
0000
1000
0000
0010
1000
0000
1010
0000
,
0010
0000
0100
0001
0000
0100
0000
0010
0000
0100
0000
0001
0100
0000
0101
0000
,
1001
0000
0000
0000
;

//---------------dance-single - ----------------
#NOTES:
     dance-single:
     :
     Medium:
     6:
     0.307,0.296,0.180,0.000,0.000,219.000,20.000,0.000,0.000,0.000:
0000
0000
0000
0000
,
0000
0000
0000
0000
,
0000
0000
0000
0000
,
1000
0100
0010
0000
0001
0010
0001
0000
,
0001
0100
0010
0000
1000
0010
1000
0000
,
1001
0000
0001
0000
0100
0000
0001
0100
,
0001
0000
1000
0000
0010
0000
0100
0010
,
1000
0000
0100
0000
0010
0000
0001
0010
,
0100
0000
0010
0000
0001
0000
1000
0001
,
1000
0000
0010
0000
0100
0000
0010
1000
,
0100
0000
0010
0000
0100
0000
1000
0001
,
0100
0000
0001
0000
0100
0000
0001
0100
,
0010
0000
0100
0000
0010
0000
0100
0010
,
1000
0000
0010
0000
1000
0000
0010
1000
,
0100
0000
1000
0000
0100
0000
1000
0100
,
0010
0011
0001
0101
,
1000
1010
1000
1100
,
1001
0000
0001
0000
0100
0001
0100
0001
,
1000
0000
0100
0000
0010
0100
0010
0100
,
0001
0100
1000
0100
,
0001
0100
1000
0100
,
1100
0000
1000
0000
0010
1000
0010
1000
,
0001
0000
0100
0000
0001
0100
0001
0100
,
0010
1000
0001
0010
,
0011
0001
1000
0100
,
0110
0000
0010
0000
0001
0000
0010
0001
,
0010
0000
0100
0000
1000
0000
0100
1000
,
0100
0000
1000
0000
0001
0000
0100
0001
,
0100
0000
0001
0000
0100
0000
0010
1000
,
0010
0000
1000
0000
0001
0000
1000
0001
,
1000
0000
0001
0000
1000
0000
0001
1000
,
0001
0000
0010
0000
0100
0000
1000
0100
,
0010
0000
0001
0000
0010
0000
0001
1000
,
0100
0000
1000
0000
0100
0000
1000
0001
,
0100
0000
0001
0000
0100
0000
0001
0100
,
0010
1010
0001
0011
,
1000
1100
0001
0101
,
1001
0000
1000
0000
0001
0100
0001
0100
,
0001
0000
1000
0000
0100
1000
0100
1000
,
0100
0010
0001
1001
,
1000
0001
0100
0101
,
1001
0000
0100
0000
0010
1000
0010
1000
,
0001
0000
0010
0000
0100
1000
0100
1000
,
0001
0010
0100
1000
,
1100
0100
0010
0001
,
0011
0000
0010
0000
0001
0000
1000
0001
,
1000
0000
0010
0000
0100
0000
0001
1000
,
1001
0000
0000
0000
;

//---------------dance-single - Copied from----------------
#NOTES:
     dance-single:
     Copied from:
     Easy:
     4:
     0.275,0.275,0.386,0.072,0.009,163.000,43.000,8.000,0.000,0.000:
0000
0000
0000
0000
,
0000
0000
0000
0000
,
0000
0000
0000
0000
,
1001
0000
0000
0000
0000
0000
0000
0001
,
0001
0000
0000
0000
0000
0000
0000
1000
,
1001
0001
0100
0001
,
0101
1000
0010
0110
,
1020
0000
0000
0000
0000
0200
0030
0001
,
0302
0000
0000
0003
,
1002
0000
0000
0000
0000
0010
0000
0103
,
2000
0000
0000
0000
0000
0000
0001
0001
,
3002
0000
0000
0000
0000
0103
0000
0100
,
0020
0000
0000
1030
,
2010
0000
0000
0000
0000
0010
0000
0001
,
3001
1000
0100
0010
,
0000
0000
0001
1000
0000
0000
1000
0001
0000
0000
0000
0000
0000
0000
0000
0000
,
0110
1010
1000
0100
,
1001
0001
0100
0001
,
1001
1000
0100
1000
,
1001
0100
1000
0100
,
0001
0100
1000
0100
,
1100
1000
0010
1010
,
1001
0100
0001
0101
,
0110
1000
0001
0010
,
0011
0001
1000
0100
,
0110
0010
0001
0010
,
0011
0100
1000
0100
,
1100
1000
0001
0100
,
0101
0001
0100
0010
,
1010
1000
0001
1000
,
1001
0001
1000
0001
,
1001
0010
0100
0010
,
0110
0001
0010
0001
,
1100
1000
0100
1000
,
0101
0001
0100
0001
,
0110
1010
0001
0010
,
0110
1100
0001
0100
,
1001
1000
0001
0100
,
0101
0010
1000
0100
,
1100
0010
0001
1000
,
1001
0001
0100
0001
,
1001
0100
0010
1000
,
1001
0010
0100
1000
,
1100
1000
0100
1000
,
1100
0100
0010
0001
,
0011
0010
0001
1000
,
1001
0010
0100
0001
,
1001
0000
0000
0000
;

//---------------dance-single - Copied from----------------
#NOTES:
     dance-single:
     Copied from:
     Challenge:
     11:
     0.723,0.706,0.306,0.054,1.000,523.000,34.000,6.000,0.000,0.000:
2000
0000
0000
3002
,
0000
0000
0203
0000
,
0000
0320
0000
0000
,
1030
0100
0010
0001
0010
0100
1000
0100
0010
0100
1000
0100
1000
0010
1000
0010
,
1000
0001
0100
0001
1000
0001
0100
0001
1000
0001
0010
0100
1000
0001
0010
0100
,
0010
0000
1000
0010
0000
1000
0000
0001
0000
0100
0000
0001
0100
0000
0101
0000
,
0001
0000
0010
0100
0000
1000
0000
0100
0000
0010
0000
0001
0010
0000
0011
0000
,
0001
0000
1000
0010
0000
1000
0000
0010
0000
0100
0000
0010
1000
0000
1010
0000
,
0010
0000
0100
0001
0000
0100
0000
0010
0000
1000
0000
0001
1000
0000
1001
0000
,
0001
0000
0010
0100
0000
0010
0000
0001
0000
1000
0000
0100
1000
0000
1100
0000
,
1000
0000
0010
0100
0000
0010
0000
1000
0000
0001
0000
0100
0001
0000
0101
0000
,
0010
0000
0100
0001
0000
0100
0000
0010
0000
0001
0000
0010
0001
0000
0011
0000
,
0001
0000
0100
1000
0000
0100
0000
0010
0000
1000
0000
0010
1000
0000
1100
0000
,
1000
0000
0010
0100
0000
0010
0000
1000
0000
0001
0000
0010
0001
0000
0011
0000
,
0010
0000
0100
0010
0000
0001
0000
1000
0000
0010
0000
1000
0010
0000
1010
0000
,
1000
0001
0100
0010
0000
0100
0000
0001
0000
1000
0000
0010
1000
0000
1010
0000
,
0010
1000
0010
0100
0000
0001
0000
0010
0000
0100
0000
1000
0100
0000
1100
0000
,
0001
0010
0100
1000
0100
1000
0100
1000
0001
1000
0001
1000
0010
1000
0010
1000
,
0001
0100
0001
1000
0001
0100
0001
1000
0001
0010
0100
1000
0100
0010
0001
0010
,
0100
0001
0100
0010
0000
0100
0000
0001
0000
0100
0000
0010
1000
0000
1010
0000
,
1000
0010
0100
0001
0000
0100
0000
0010
0000
0100
0000
0001
0010
0000
0011
0000
,
0001
0010
0100
1000
0100
0010
0001
0010
0100
0010
0001
1000
0001
0000
1001
0000
,
1000
0100
0010
0001
0010
0100
1000
0100
0010
0100
1000
0001
1000
0000
1001
0000
,
0001
0010
0100
1000
0100
1000
0100
1000
0100
0010
0100
1000
0001
1000
0100
0010
,
0001
0100
0001
1000
0100
0010
0001
0100
0001
1000
0100
0010
0001
0100
0001
1000
,
0001
0100
0001
0010
0001
0100
0001
0010
0001
1000
0100
1000
0001
0100
0001
0100
,
0001
0010
0100
1000
0001
0010
0100
1000
0001
0010
0100
0010
0001
0000
1001
0000
,
1000
0000
0010
0100
0000
0010
0000
1000
0000
0001
0000
0010
0001
0000
0011
0000
,
0010
0000
0100
1000
0000
0100
0000
0010
0000
0001
0000
0100
0001
0000
0101
0000
,
0100
0000
0001
0100
0000
0010
0000
0100
0000
0001
0000
1000
0010
0000
1010
0000
,
0010
0000
1000
0010
0000
0100
0000
0010
0000
1000
0000
0001
0010
0000
0011
0000
,
0001
0000
0010
0100
0000
1000
0000
0100
0000
0010
0000
0001
1000
0000
1001
0000
,
1000
0000
0010
1000
0000
0010
0000
0100
0000
0001
0000
0010
0001
0000
0011
0000
,
0001
0000
0010
0001
0000
0100
0000
0010
0000
0100
0000
0001
1000
0000
1010
0000
,
1001
0000
0001
0010
0000
0001
0000
1000
0000
0010
0000
1000
0100
0000
1100
0000
,
1000
0010
0100
0001
0000
0010
0000
0100
0000
0010
0000
0001
1000
0000
1001
0000
,
0001
0010
0100
1000
0000
0100
0000
0010
0000
0001
0000
1000
0001
0000
1001
0000
,
0001
0100
0010
1000
0001
0100
0010
1000
0010
0100
0001
0010
0100
1000
0010
1000
,
0010
0100
0001
0100
0010
0100
0001
0010
0001
1000
0001
1000
0001
1000
0001
0100
,
1000
0100
0010
0001
0000
0010
0000
0100
0000
0010
0000
0001
0010
0000
0011
0000
,
0001
0100
0010
1000
0000
0010
0000
0100
0000
0010
0000
1000
0010
0000
1010
0000
,
1000
0010
0100
0001
1000
0010
0100
0001
0010
0100
1000
0010
0100
0000
1001
0000
,
0001
0010
0100
1000
0001
0010
0100
1000
0100
0001
0100
1000
0100
0000
1001
0000
,
0001
0010
0001
1000
0001
0010
0001
1000
0001
0010
0001
0010
0100
1000
0100
1000
,
0100
0010
0100
1000
0100
0010
0100
1000
0100
0010
0100
1000
0100
1000
0001
0100
,
0001
0100
0010
1000
0001
0100
0010
1000
0001
0100
0001
1000
0100
1000
0010
1000
,
0100
0010
0001
0010
0100
1000
0100
0010
0001
1000
0001
0100
0001
0000
0101
0000
,
2002
0000
0000
0000
0000
3003
0000
0000
;
