#TITLE:Bye Loved Ones;
#SUBTITLE:;
#ARTIST:DJKurara;
#TITLETRANSLIT:;
#SUBTITLETRANSLIT:;
#ARTISTTRANSLIT:;
#CREDIT:lolipo;
#BANNER:bye-bn.png;
#BACKGROUND:bye-bg.png;
#LYRICSPATH:;
#CDTITLE:;
#MUSIC:Bye Loved Ones.ogg;
#OFFSET:1.052;
#SAMPLESTART:119.192;
#SAMPLELENGTH:12.000;
#SELECTABLE:YES;
#BPMS:0.000=230.000;
#STOPS:;
#BGCHANGES:;
// cache tags:
#FIRSTBEAT:4.000;
#LASTBEAT:588.250;
#SONGFILENAME:Songs/SPEEEDCOOOORE 4/Bye Loved Ones - [Lolipo]/Bye Loved Ones.sm;
#HASMUSIC:1;
#HASBANNER:1;
#MUSICLENGTH:156.501;
// end cache tags

//---------------dance-single - lolipo----------------
#NOTES:
     dance-single:
     lolipo:
     Challenge:
     17:
     1.000,1.000,0.089,0.083,1.000,1666.000,14.000,13.000,0.000,0.000:

0000
0000
0000
0000
,
2000
3000
0100
0000
0010
0000
0100
0000
1000
0000
0001
0000
0100
0000
0001
0000
,
0010
0100
1000
0001
0100
0010
0100
0001
,
1000
0010
0100
0010
1000
0100
0010
0001
,
1000
0010
0100
0001
1000
0001
0010
0100
,
1000
0010
0100
0010
1000
0001
0010
0001
,
0100
0010
1000
0001
0010
0100
0010
0001
,
1000
0100
0010
0100
1000
0001
0100
0010
,
1000
0100
0010
0001
1000
0001
0100
0010
,
2000
3000
0100
0000
0010
0000
0001
0000
0100
0000
0010
0000
1000
0000
0001
0000
,
0010
0001
1000
0100
1000
0010
0100
0001
,
0010
0100
1000
0010
0100
0001
1000
0100
,
1000
0001
0010
0001
0100
0010
1000
1000
,
0001
0100
0001
0100
0010
1000
0100
1000
,
0100
0010
0001
0100
0010
1000
0001
1000
,
0100
0000
0400
0300
0010
0000
0001
0000
1000
0000
1000
0000
0010
0000
0100
0000
,
0001
0000
1000
0000
0100
0000
1000
0000
0001
1000
0001
1000
0010
0000
0100
0000
,
0010
1000
0001
1000
0100
0010
0001
1000
0001
0100
0010
1000
0010
0100
0001
1000
,
0001
0010
0100
1000
0010
1000
0100
1000
0001
0100
0010
1000
0100
1000
0001
0010
,
0100
0010
0001
1000
0001
1000
0010
0100
0001
1000
0100
0010
0001
1000
0001
0100
,
0010
1000
0001
0100
0001
0010
0100
1000
0001
1000
0010
0100
0001
1000
0100
1000
,
0001
1000
0010
0100
0001
1000
0100
0010
0100
1000
0001
0100
0010
1000
0001
1000
,
0100
0010
0100
1000
0001
0100
0001
1000
0010
1000
0100
0010
0001
0100
0001
1000
,
0020
0030
2000
3000
0002
0003
0200
0300
,
0010
0000
1000
1000
0001
0000
0100
0000
,
0010
1000
0001
1000
0100
0010
0001
1000
0001
0100
0010
1000
0010
0100
0001
1000
,
0001
0010
0100
1000
0010
1000
0100
1000
0001
0100
0010
1000
0100
1000
0001
0010
,
0100
0010
0001
1000
0001
1000
0010
0100
0001
1000
0100
0010
0001
1000
0001
0100
,
0010
1000
0001
0100
0001
0010
0100
1000
0001
1000
0010
0100
0001
1000
0100
1000
,
0001
1000
0010
0100
0001
1000
0100
0010
0100
1000
0001
0100
0010
1000
0001
1000
,
0100
0010
0100
1000
0001
0100
0001
1000
0010
1000
0100
0010
0001
0100
0001
1000
,
0010
0100
0001
1000
0100
0010
0001
1000
,
0001
0100
0010
1000
0001
1000
0010
0100
0001
1000
0100
0010
0100
1000
0001
1000
,
0010
0000
0000
0000
,
0000
0000
0000
0110
,
1001
1000
0010
0100
,
0001
0010
0001
0100
,
0010
1000
0001
0010
,
0001
0000
0000
0000
0100
0000
0000
0000
0010
0000
1000
0000
0001
0100
0001
0100
,
0010
1000
0001
0100
,
0010
1000
0001
0010
,
0100
0000
0000
0000
0000
0000
0000
0000
1000
0000
0000
0000
0000
0000
0000
0000
0000
0000
0000
0000
0000
0000
0000
0000
0000
0001
0000
0000
0000
0000
0000
0000
0000
0000
0000
0000
0000
0000
0000
0000
0000
0001
0000
0000
0000
0000
0000
0000
0100
0000
0000
0000
0000
0000
0000
0000
0010
0000
0000
0000
0000
0000
0000
0000
,
1000
0001
1000
0001
0010
0000
0001
0000
1000
0000
0010
0000
0100
0000
0000
0000
,
0001
0010
0001
0000
1000
0000
0010
0000
0100
0000
0001
0000
1000
0000
0001
0000
,
0100
0010
0100
0000
0001
0000
1000
0000
0100
0000
0100
0000
0010
0000
0000
0000
,
0001
1000
0001
0000
0100
0000
0010
0000
1000
0000
0001
0000
1000
0000
0100
0000
,
1000
0010
1000
0000
0001
0000
0100
0000
0020
0030
2000
3000
0020
0030
2000
3000
,
0001
0100
0010
1000
0100
1000
0010
0100
,
0001
1000
0100
1000
0001
0001
0010
0100
,
1000
0001
1000
0010
0100
0000
0000
0001
0010
0000
0000
0000
0001
1000
0010
0100
,
0002
0003
0000
0000
0100
0000
0010
0000
1000
0001
1000
0100
0010
0001
1000
0001
,
0100
0001
1000
0001
0010
0100
1000
0001
1000
0010
0100
0001
0100
0010
1000
0001
,
1000
0100
0010
0001
0100
0001
0010
0001
1000
0010
0100
0001
0010
0001
1000
0100
,
0010
0100
1000
0001
1000
0001
0100
0010
1000
0001
0010
0100
1000
0001
1000
0010
,
0100
0001
1000
0010
1000
0100
0010
0001
1000
0001
0100
0010
1000
0100
0010
0001
,
1000
0001
0100
0010
1000
0001
0010
0100
0010
0001
1000
0010
0100
0001
1000
0001
,
0010
0100
0010
0001
1000
0010
1000
0001
0100
0001
0010
0100
1000
0010
1000
0001
,
0100
0010
1000
0001
0100
0001
1000
0010
0100
0010
1000
0001
0010
0100
1000
0001
,
1000
0000
0100
0100
1000
0000
0001
0000
,
0100
0001
1000
0001
0010
0100
1000
0001
1000
0010
0100
0001
0100
0010
1000
0001
,
1000
0100
0010
0001
0100
0001
0010
0001
1000
0010
0100
0001
0010
0001
1000
0100
,
0010
0100
1000
0001
1000
0001
0100
0010
1000
0001
0010
0100
1000
0001
1000
0010
,
0100
0001
1000
0010
1000
0100
0010
0001
1000
0001
0100
0010
1000
0001
0010
0001
,
1000
0001
0100
0010
1000
0001
0010
0100
0010
0001
1000
0010
1000
0001
0010
0001
,
0100
0010
1000
0010
0100
0001
1000
0100
1000
0001
0010
0100
1000
0010
1000
0001
,
0100
0001
1000
0001
0010
0100
1000
0001
0100
0010
0100
0001
1000
0010
1000
0100
,
1000
0001
0010
0100
1000
0001
0100
0001
1000
0010
0100
0001
0010
0001
1000
0100
,
0010
0000
0001
0000
,
0100
0000
0000
0010
1000
0000
0100
0000
,
0100
0000
0000
1000
0010
0000
0100
0000
,
0001
0000
0000
1000
0000
0000
0001
0000
0010
0000
0000
0000
0010
0000
0000
0000
,
0100
0000
1000
0000
,
0001
0000
0000
0100
0010
0000
1000
0000
,
0100
0000
1000
0000
0000
0000
0001
0000
0000
0000
1000
0010
0100
0000
0000
0000
,
0001
1000
0100
0010
0001
1000
0010
0100
0001
0000
1000
0000
0100
0000
0000
0000
,
1000
0100
1000
0001
0010
0001
1000
0001
0100
0010
1000
0001
0100
0001
1000
0100
,
0010
0100
1000
0001
0100
0001
0010
0001
1000
0100
0010
0001
0100
0010
1000
0001
,
0100
0001
1000
0100
1000
0001
0100
0010
0100
0001
1000
0100
0010
0001
0100
0001
,
1000
0010
1000
0001
0010
0001
1000
0010
0100
0001
1000
0001
0100
0001
0010
0100
,
1000
0001
1000
0100
1000
0001
0010
0100
0010
0001
1000
0010
1000
0001
0100
0001
,
1000
0100
0010
0001
0100
0010
0100
0001
0010
0001
1000
0001
0010
0100
1000
0001
,
0100
0001
1000
0010
0100
0001
0010
0001
1000
0100
1000
0001
0010
0100
1000
0001
,
0200
0300
0000
0000
0001
0000
1000
0000
0010
0000
1000
0000
0001
0000
0010
0000
,
0001
0010
0100
1000
0001
1000
0100
0010
0001
0100
0010
1000
0001
0010
0001
1000
,
0100
1000
0001
0100
0010
0100
0001
1000
0001
0010
0001
0100
0010
1000
0001
1000
,
0100
1000
0001
0100
0010
1000
0001
0010
0001
1000
0010
0100
0001
0010
0001
1000
,
0100
1000
0001
0100
0010
0100
0001
1000
0100
0010
0100
1000
0001
0100
0010
1000
,
0001
0100
0010
0100
0001
1000
0100
0010
0001
0010
0100
1000
0010
1000
0001
0100
,
0001
0010
0001
1000
0100
0010
0001
0100
0001
1000
0010
0100
0001
1000
0001
0100
,
0010
0000
0100
0000
0001
0000
4000
3000
,
0001
0000
0100
0000
0001
0000
0100
0000
0010
1000
0001
1000
0100
0000
0000
0000
,
1000
0100
0010
0001
1000
0010
0100
0001
1000
0100
1000
0001
0010
0001
1000
0001
,
0100
0010
1000
0100
1000
0001
1000
0100
0010
0001
1000
0001
0010
0001
0100
0010
,
1000
0001
0010
0001
1000
0100
0010
0001
0010
0100
1000
0001
1000
0010
1000
0100
,
1000
0001
0100
0010
1000
0001
0010
0001
1000
0100
1000
0001
1000
0100
0010
0001
,
0100
0010
1000
0001
1000
0100
0010
0001
1000
0001
0010
0001
0100
0000
0000
0000
,
0001
0000
0100
0000
0010
0000
1000
0000
0001
0010
0100
0000
1000
0000
0000
0000
,
0001
1000
0010
0000
1000
0100
0010
0000
0001
1000
0001
0000
1000
0001
0100
0000
,
0101
0000
1001
0000
1000
0100
0010
0001
,
0100
0010
1000
0001
0010
0001
1000
0100
0010
0001
1000
0001
0100
0010
1000
0100
,
1000
0001
0010
0100
1000
0001
0010
0001
1000
0010
1000
0001
0010
0100
1000
0001
,
0100
0010
0100
0001
1000
0100
1000
0001
0010
0100
0010
0001
0100
0010
1000
0001
,
0010
0001
0100
0010
1000
0001
1000
0100
1000
0001
0010
0001
1000
0010
1000
0100
,
0010
0001
1000
0100
1000
0001
0100
0010
0100
0001
1000
0100
0010
0001
1000
0010
,
1000
0001
0010
0100
1000
0010
1000
0001
0100
0010
1000
0010
0100
0001
0010
0100
,
1000
0000
0000
0000
0000
0000
0000
0000
0000
0000
0000
0000
0000
0000
0000
0000
0000
0000
0000
0000
0000
0000
0000
0000
0000
0001
0000
0000
0000
0000
0000
0000
0000
0000
0000
0000
0000
0000
0000
0000
0000
0001
0000
0000
0000
0000
0000
0000
1000
0000
0000
0000
0000
0000
0000
0000
0100
0000
0000
0000
0000
0000
0000
0000
,
1000
0000
0010
0000
0100
0000
0001
0000
1000
0100
0010
0000
0001
0000
1000
0000
,
0010
0100
0001
1000
0100
1000
0001
0100
0010
1000
0001
0010
0100
1000
0100
0010
,
0001
1000
0001
0100
0010
0100
0001
1000
0010
1000
0001
0010
0100
1000
0001
0100
,
0010
1000
0001
0010
0001
1000
0010
0100
0001
1000
0100
1000
0010
1000
0100
0010
,
0001
1000
0010
1000
0100
1000
0001
0100
0010
1000
0001
0000
1000
0000
0001
0000
,
0010
0000
0000
0000
0001
1000
0001
1000
0100
0000
0000
0000
0010
0001
0010
0001
,
1000
0000
0000
0000
0001
0000
0100
0010
1000
0000
0001
0100
0001
0000
0000
0000
,
1000
0100
0010
0001
0000
1000
1000
0010
,
0100
0001
1000
0001
0010
0100
1000
0001
1000
0001
0100
0010
1000
0001
0010
0001
,
0100
0001
1000
0001
0010
0100
1000
0001
1000
0010
0100
0001
0100
0010
1000
0001
,
1000
0100
0010
0001
0100
0001
0010
0001
1000
0010
0100
0001
0010
0001
1000
0100
,
0010
0100
1000
0001
1000
0001
0100
0010
1000
0001
0010
0100
1000
0001
1000
0010
,
0100
0001
1000
0010
1000
0100
0010
0001
1000
0001
0100
0010
1000
0001
0010
0001
,
1000
0001
0100
0010
1000
0001
0010
0100
0010
0001
1000
0010
0100
0001
1000
0001
,
0010
0100
0010
0001
1000
0010
1000
0001
0100
0001
0010
0100
1000
0010
1000
0001
,
0100
0010
1000
0001
0010
0001
1000
0100
0010
0100
1000
0001
0100
0001
1000
0100
,
0010
0000
0000
0000
0001
0000
0100
0000
0010
1000
0100
0010
0004
0000
0003
0000
,
0010
0001
1000
0001
0010
0100
1000
0001
1000
0010
0100
0001
0100
0010
1000
0001
,
1000
0100
0010
0001
0100
0001
0010
0001
1000
0010
0100
0001
0010
0001
1000
0100
,
0010
0100
1000
0001
1000
0001
0100
0010
1000
0001
0010
0100
1000
0001
1000
0010
,
0100
0001
1000
0010
1000
0100
0010
0001
1000
0001
0100
0010
1000
0001
0010
0001
,
1000
0001
0100
0010
1000
0001
0010
0100
0010
0001
1000
0010
0100
0001
1000
0001
,
0010
0100
0010
0001
1000
0010
1000
0001
0100
0001
0010
0100
1000
0010
1000
0001
,
0100
0010
1000
0001
0010
0100
0010
0001
1000
0100
1000
0001
0100
0010
0100
0001
,
1000
0000
0000
0000
0010
0000
0100
0000
0001
0010
0100
1000
0004
0000
0003
0000
,
0100
0010
1000
0001
0010
0100
1000
0100
0010
0001
1000
0010
1000
0001
0010
0001
,
0100
0001
1000
0010
0100
0001
1000
0001
0010
0100
1000
0001
0100
0010
1000
0100
,
1000
0001
0010
0100
1000
0001
0010
0001
1000
0100
1000
0001
0100
0010
1000
0001
,
1000
0100
0010
0001
1000
0001
0010
0001
1000
0100
1000
0100
0010
0001
1000
0001
,
1000
0100
1000
0001
0100
0010
0100
0001
1000
0100
0010
0001
0010
0100
1000
0001
,
0100
0001
1000
0100
1000
0001
0100
0010
1000
0001
1000
0100
0010
0001
1000
0010
,
0100
0000
0001
0010
0100
0000
1000
0000
,
0001
0010
0100
0010
0001
1000
0010
1000
0001
1000
0010
0100
0001
1000
0100
0010
,
0001
0000
0000
0000
,
1001
0000
0000
0000
,
1100
0000
0000
0000
,
0101
0000
0000
1001
,
1001
0000
0000
0000
,
0101
0000
0000
0000
,
1001
0000
0011
0000
,
0110
0000
0000
0100
1000
0000
0001
0000
,
0201
0300
0000
0000
0000
0000
0000
0000
0000
0000
0000
0000
0000
0000
0000
0000
;
