#TITLE:Ala Rosso;
#SUBTITLE:;
#ARTIST:Kryptos;
#TITLETRANSLIT:;
#SUBTITLETRANSLIT:;
#ARTISTTRANSLIT:;
#CREDIT:Mad Matt;
#BANNER:../Zeppelin_bn.png;
#BACKGROUND:../bg_Zeppelin.png;
#LYRICSPATH:;
#CDTITLE:../cdtitle_ZAiA.png;
#MUSIC:Kryptos - Ala Rosso.ogg;
#OFFSET:-0.350;
#SAMPLESTART:67.454;
#SAMPLELENGTH:22.960;
#SELECTABLE:YES;
#BPMS:0.000=168.000;
#STOPS:;
#BGCHANGES:;
// cache tags:
#FIRSTBEAT:4.000;
#LASTBEAT:368.000;
#SONGFILENAME:Songs/Cirque du Zeppelin/Ala Rosso - [Zaia]/Ala Rasso.sm;
#HASMUSIC:1;
#HASBANNER:1;
#MUSICLENGTH:135.680;
// end cache tags

//---------------dance-single - 13/9/8/37----------------
#NOTES:
     dance-single:
     13/9/8/37:
     Challenge:
     14:
     1.000,1.000,0.074,0.125,1.000,1261.000,10.000,17.000,0.000,0.000:
0000
0000
0000
0000
,
1000
0001
1000
0100
0010
0000
0100
1000
0000
0001
1000
0000
0010
0000
0100
0000
,
0001
0010
0001
1000
0001
0000
0100
0010
0000
1000
0010
0000
1000
0000
0001
0000
,
0010
0001
1000
0001
0100
0000
0010
0100
0000
0001
1000
0000
0100
0000
0010
0000
,
0001
1000
0100
1000
0001
0000
0100
0010
0000
1000
0001
0000
0010
0000
0100
0000
,
1000
0010
1000
0001
0100
0000
0001
0010
0000
0001
1000
0000
0010
0000
1000
0000
,
0100
1000
0010
1000
0001
0000
0100
0001
0000
1000
0001
0000
1000
0000
0100
0000
,
0010
0001
1000
0001
0100
0000
0010
0100
0000
0001
1000
0000
0100
0000
0010
0000
,
0001
1000
0010
1000
0001
1000
0100
0010
0100
1000
0001
1000
0001
0100
0010
1000
,
0001
0100
0001
0010
0001
1000
0100
0010
0100
1000
0001
0100
0010
1000
0010
1000
,
0001
0010
0001
0100
0001
1000
0100
0010
0100
1000
0001
0100
0010
1000
0001
1000
,
0100
0010
0100
1000
0010
1000
0001
1000
0100
0010
0100
0010
0001
1000
0010
0100
,
0001
1000
0010
1000
0100
1000
0001
0100
0010
1000
0001
1000
0001
0010
0100
1000
,
0001
0010
0001
0100
0001
1000
0010
0100
0010
1000
0001
0010
0100
1000
0100
1000
,
0001
0100
0001
0010
0001
1000
0010
0100
0010
1000
0001
0010
0100
1000
0001
1000
,
0010
0100
0010
1000
0100
1000
0001
1000
0010
0100
0010
0100
0001
1000
0100
0010
,
0001
1000
0100
1000
0010
0100
0001
0010
0001
0010
0100
1000
0001
0100
0010
1000
,
0100
0010
0001
0010
0001
0100
0001
1000
0010
0100
0010
1000
0001
1000
0001
0010
,
0100
1000
0100
1000
0010
1000
0001
0100
0010
0100
0001
1000
0001
1000
0100
1000
,
0010
0100
0001
0100
0001
0010
0001
0100
0010
0100
0001
0010
0100
1000
0001
0100
,
0010
1000
0100
1000
0001
0010
0001
0100
0010
1000
0001
0010
0100
1000
0020
0000
,
0000
0000
0000
0000
0000
0000
0000
0000
0000
0000
0000
0000
0000
0000
1030
0001
,
0200
0000
0000
0000
0000
0000
0000
0000
0000
0000
0000
0000
0000
0000
0000
0000
0000
0000
0000
0000
0000
0000
0000
0000
0000
0000
0000
0000
0000
0000
0000
0000
0000
0000
0000
0000
0000
0000
0000
0000
0000
0000
0000
0000
0000
0000
0000
0000
0320
0000
0000
0000
0000
0000
0000
0030
1010
0000
0000
0000
0000
0000
0000
0000
,
2001
0000
0000
0000
0000
0000
0000
0000
0000
0000
0000
0000
0000
0000
0000
0000
0000
0000
0000
0000
0000
0000
0000
0000
3001
0000
0000
0000
0000
0000
0000
0000
0010
0000
0000
0000
0000
0000
0000
0000
0001
0000
0000
0000
0000
0000
0000
0000
2000
0000
0000
0000
0000
0000
0000
3000
1100
0000
0000
0000
0000
0000
0000
0000
,
0120
0000
0000
0000
0000
0000
0000
0000
0000
0000
0000
0000
0000
0000
0000
0000
0000
0000
0000
0000
0000
0000
0000
0000
0000
0000
0000
0000
0000
0000
0000
0000
0000
0000
0000
0000
0000
0000
0000
0000
0000
0000
0000
0000
0000
0000
0000
0000
0032
0000
0000
0000
0000
0000
0000
0000
0000
0000
0000
0000
0000
0000
0000
0003
,
0021
0000
0000
0000
0000
0000
0000
0000
0000
0000
0000
0000
0000
0000
0000
0000
0230
0000
0000
0000
0000
0000
0000
0000
0000
0000
0000
0000
0000
0000
0000
0300
2100
0000
0000
0000
0000
0000
0000
0000
0000
0000
0000
0000
0000
0000
0000
0000
3002
0000
0000
0000
0000
0000
0000
0003
0101
0000
0000
0000
0000
0000
0000
0000
,
0210
0000
0000
0000
0000
0000
0000
0000
0000
0000
0000
0000
0000
0000
0000
0000
0000
0000
0000
0000
0000
0000
0000
0000
0000
0000
0000
0000
0000
0000
0000
0000
0000
0000
0000
0000
0000
0000
0000
0000
0000
0000
0000
0000
0000
0000
0000
0000
0320
0000
0000
0000
0000
0000
0000
0030
0110
0000
0000
0000
0000
0000
0000
0000
,
1002
0000
0000
1003
0010
0100
0001
1000
,
0100
0010
0100
1000
0001
1000
0001
0100
0010
0100
0001
1000
0100
1000
0001
0100
,
0010
1000
0001
0100
0001
1000
0100
0010
0001
1000
0001
0100
0010
1000
0001
0010
,
0100
1000
0001
1000
0010
0100
0001
1000
0010
1000
0100
0010
0001
1000
0001
0100
,
0001
1000
0100
1000
0001
0100
0010
1000
0010
0100
0001
0010
0100
1000
0001
0100
,
0001
1000
0100
1000
0010
0100
0010
1000
0100
0010
0001
0100
0001
1000
0001
0100
,
0010
0100
0001
1000
0001
0010
0100
0010
0001
1000
0001
0100
0010
1000
0001
1000
,
0001
0010
0100
1000
0001
0100
0010
1000
0001
0100
0001
0010
0100
1000
0001
1000
,
0010
1000
0001
0010
0001
1000
0010
0100
0001
0100
0010
1000
0100
0010
0001
1000
,
0010
1000
0001
0010
0001
0100
0010
0100
0001
0010
0100
1000
0010
1000
0001
1000
,
0010
0000
0100
0000
0010
0000
0100
0000
0002
0000
0003
0000
2000
0000
3001
0010
,
0100
0000
1000
0001
0010
0001
0100
0001
1000
0010
1000
0100
1000
0001
0100
0001
,
1000
0100
1000
0001
0100
0001
0010
0001
1000
0100
1000
0010
1000
0001
0010
0001
,
1000
0010
0100
0010
1000
0001
1000
0100
1000
0001
0010
0001
0100
0010
0100
0001
,
1000
0001
0010
0100
1000
0001
1000
0010
0100
0010
1000
0001
0010
0100
1000
0001
,
0100
0010
0100
0001
1000
0100
1000
0010
1000
0001
0010
0100
1000
0001
0100
0001
,
1000
0100
0010
0001
1000
0010
1000
0100
1000
0001
0010
0001
0100
0001
1000
0100
,
1000
0010
0100
0001
1000
0010
1000
0001
0010
0100
1000
0001
1000
0010
0100
0001
,
1000
0100
1000
0100
0010
0001
1000
0010
0100
0001
0100
0001
1000
0010
0100
0000
,
0000
0000
0000
0000
0000
0000
0000
0000
0000
0000
0000
0001
1000
0000
0100
0000
,
1000
0001
1000
0010
0100
0000
0010
1000
0000
0001
1000
0000
0100
0000
0010
0000
,
0001
0100
0001
1000
0001
0000
0010
0100
0000
1000
0100
0000
1000
0000
0001
0000
,
0100
0001
1000
0001
0010
0000
0100
0010
0000
0001
1000
0000
0010
0000
0100
0000
,
0001
1000
0010
1000
0001
0000
0010
0100
0000
1000
0001
0000
0100
0000
0010
0000
,
1000
0100
1000
0001
0010
0000
0001
0100
0000
0001
1000
0000
0100
0000
1000
0000
,
0010
1000
0100
1000
0001
0000
0010
0001
0000
1000
0001
0000
1000
0000
0010
0000
,
0100
0001
1000
0001
0010
0000
0100
0010
0000
0001
1000
0000
0010
0000
0100
0000
,
0001
1000
0100
1000
0001
1000
0010
0100
0010
1000
0001
1000
0001
0010
0001
1000
,
0010
1000
0100
0010
0001
0100
0001
0010
0100
0010
0001
1000
0001
0100
0010
0100
,
0001
1000
0001
0010
0100
1000
0001
0100
0010
1000
0001
1000
0010
0100
0001
0010
,
0001
0100
0001
1000
0010
1000
0100
1000
0001
0100
0001
1000
0001
0010
0100
1000
,
0001
0100
0010
0100
0001
1000
0001
0010
0001
1000
0100
1000
0001
0100
0010
1000
,
0100
1000
0010
0100
0001
0010
0001
1000
0010
0100
0001
1000
0001
1000
0100
0010
,
0100
1000
0001
0100
0001
1000
0100
1000
0001
0010
0100
1000
0001
1000
0010
0100
,
0001
0010
0100
1000
0001
0010
0001
1000
0010
1000
0100
0010
0001
1000
0001
0100
,
0010
0100
0001
0010
0001
1000
0100
1000
0001
0100
0010
0100
0001
1000
0001
0010
,
0100
1000
0010
0100
0001
0010
0001
0100
0010
0100
0001
1000
0001
0010
0100
0010
,
0001
1000
0001
0100
0010
1000
0001
0010
0100
1000
0001
1000
0100
0010
0001
0100
,
0001
0010
0001
1000
0100
1000
0010
1000
0001
0010
0001
1000
0001
0100
0010
1000
,
0001
0010
0100
0010
0001
1000
0001
0100
0001
1000
0010
1000
0001
0010
0100
1000
,
0010
1000
0100
0010
0001
0100
0001
1000
0100
0010
0001
1000
0001
1000
0010
0100
,
0010
1000
0001
0010
0001
1000
0010
1000
0001
0100
0010
1000
0001
1000
0100
0010
,
0001
0100
0010
1000
0001
0100
0001
1000
0100
1000
0010
0100
0001
1000
0001
0010
,
0100
0010
0001
0100
0001
1000
0010
1000
0001
0010
0100
1000
0001
1000
0010
0100
,
0001
0000
1000
0100
1000
0001
1000
0100
1000
0001
1000
0001
0100
0001
0100
0001
,
1000
0010
0100
0001
1000
0010
0100
0001
1000
0001
0010
0100
1000
0001
0010
0001
,
0100
0010
0100
0001
1000
0010
1000
0001
0100
0001
0010
0100
1000
0001
1000
0010
,
1000
0001
0010
0001
1000
0010
0100
0001
0100
0010
1000
0100
0010
0001
1000
0010
,
1000
0001
0010
0001
0100
0010
0100
0001
0010
0100
1000
0010
1000
0001
1000
0010
,
0100
0010
1000
0001
1000
0100
0010
0100
1000
0001
1000
0010
0100
0001
1000
0001
,
1000
0100
0010
0001
1000
0010
0100
0001
1000
0010
1000
0100
0010
0001
1000
0001
,
0100
0001
1000
0100
1000
0001
0100
0010
1000
0010
0100
0001
0010
0100
1000
0001
,
0100
0001
1000
0100
1000
0010
0100
0010
1000
0100
0010
0001
0100
0001
1000
0001
,
0010
0100
1000
0001
0100
0010
0100
0001
1000
0001
0010
0001
1000
0100
1000
0100
,
0010
0100
1000
0001
0100
0001
0010
0001
1000
0100
1000
0010
1000
0001
0010
0001
,
1000
0010
1000
0001
0010
0001
0100
0001
1000
0010
1000
0100
1000
0001
0100
0001
,
1000
0100
0010
0100
1000
0001
1000
0010
1000
0001
0100
0001
0010
0100
0010
0001
,
1000
0001
0100
0010
1000
0001
1000
0100
0010
0100
1000
0001
0100
0010
1000
0001
,
0010
0100
0010
0001
1000
0010
1000
0100
1000
0001
0100
0010
1000
0001
0010
0001
,
1000
0010
0100
0001
1000
0100
1000
0010
1000
0001
0100
0001
0010
0001
1000
0010
,
1000
0100
0010
0001
1000
0100
1000
0001
0100
0010
1000
0001
1000
0100
0010
0001
,
1000
0010
0100
0010
0100
0001
1000
0001
0010
0100
1000
0001
0010
0100
0010
0100
,
1000
0010
1000
0001
0100
0001
1000
0100
0010
0001
1000
0001
0100
0010
0100
0001
,
0010
0100
1000
0001
0100
0001
1000
0100
0010
0100
1000
0001
1000
0010
1000
0100
,
0020
0000
0000
0000
,
0030
0000
0000
0000
;

//---------------dance-single - 5/8/9-10----------------
#NOTES:
     dance-single:
     5/8/9-10:
     Hard:
     12:
     1.000,1.000,0.081,0.361,1.000,1014.000,11.000,49.000,0.000,0.000:
0000
0000
0000
0000
,
1000
0001
1000
0100
0010
0000
0100
1000
0000
0001
1000
0000
0010
0000
0100
0000
,
0001
0010
0001
1000
0001
0000
0100
0010
0000
1000
0010
0000
1000
0000
0001
0000
,
0010
0001
1000
0001
0100
0000
0010
0100
0000
0001
1000
0000
0100
0000
0010
0000
,
0001
1000
0100
1000
0001
0000
0100
0010
0000
1000
0001
0000
0010
0000
0100
0000
,
1000
0010
1000
0001
0100
0000
0001
0010
0000
0001
1000
0000
0010
0000
1000
0000
,
0100
1000
0010
1000
0001
0000
0100
0001
0000
1000
0001
0000
1000
0000
0100
0000
,
0010
0001
1000
0001
0100
0000
0010
0100
0000
0001
1000
0000
0100
0000
0010
0000
,
0001
1000
0010
1000
0001
1000
0100
0010
0100
1000
0001
1000
0001
0100
0010
1000
,
0001
0000
0010
0000
0001
0000
1000
0010
0000
0100
0001
0000
0010
0000
0001
0000
,
1000
0000
0100
0000
0010
0000
0001
1000
0000
0001
0100
0000
0010
0000
1000
0000
,
0100
0000
0010
0000
0100
0000
1000
0001
0000
0010
0001
0000
1000
0000
0010
0000
,
0100
0000
0001
0000
0010
0000
0100
1000
0000
0001
1000
0000
0010
0000
1000
0000
,
0001
0000
0100
0000
0001
0000
1000
0100
0000
0010
0001
0000
0100
0000
0001
0000
,
1000
0000
0010
0000
0100
0000
0001
1000
0000
0001
0010
0000
0100
0000
1000
0000
,
0010
0000
0100
0000
0010
0000
1000
0001
0000
0100
0001
0000
1000
0000
0100
0000
,
1000
0001
0010
0001
0100
0010
1000
0100
1000
0100
0010
0001
1000
0010
0100
0001
,
0010
0100
1000
0100
1000
0010
1000
0001
0100
0010
0100
0001
1000
0001
1000
0100
,
0010
0001
0010
0001
0100
0001
1000
0010
0100
0010
1000
0001
1000
0001
0010
0001
,
0100
0010
1000
0010
1000
0100
1000
0010
0100
0010
1000
0100
0010
0001
1000
0010
,
0100
0001
0010
0001
1000
0100
1000
0010
0100
0001
1000
0100
0010
0001
0200
0000
,
0000
0000
0000
0000
0000
0000
0000
0000
0000
0000
0000
0000
0000
0000
0301
1000
,
0020
0000
0000
0000
0000
0000
0000
0000
0000
0000
0000
0000
0000
0000
0000
0000
0000
0000
0000
0000
0000
0000
0000
0000
0000
0000
0000
0000
0000
0000
0000
0000
0000
0000
0000
0000
0000
0000
0000
0000
0000
0000
0000
0000
0000
0000
0000
0000
0230
0000
0000
0000
0000
0000
0000
0300
0101
0000
0000
0000
0000
0000
0000
0000
,
1002
0000
0000
0000
0000
0000
0000
0000
0000
0000
0000
0000
0000
0000
0000
0000
0000
0000
0000
0000
0000
0000
0000
0000
1003
0000
0000
0000
0000
0000
0000
0000
0100
0000
0000
0000
0000
0000
0000
0000
1000
0000
0000
0000
0000
0000
0000
0000
0002
0000
0000
0000
0000
0000
0000
0003
0011
0000
0000
0000
0000
0000
0000
0000
,
0210
0000
0000
0000
0000
0000
0000
0000
0000
0000
0000
0000
0000
0000
0000
0000
0000
0000
0000
0000
0000
0000
0000
0000
0000
0000
0000
0000
0000
0000
0000
0000
0000
0000
0000
0000
0000
0000
0000
0000
0000
0000
0000
0000
0000
0000
0000
0000
2300
0000
0000
0000
0000
0000
0000
0000
0000
0000
0000
0000
0000
0000
0000
3000
,
1200
0000
0000
0000
0000
0000
0000
0000
0000
0000
0000
0000
0000
0000
0000
0000
0320
0000
0000
0000
0000
0000
0000
0000
0000
0000
0000
0000
0000
0000
0000
0030
0012
0000
0000
0000
0000
0000
0000
0000
0000
0000
0000
0000
0000
0000
0000
0000
2003
0000
0000
0000
0000
0000
0000
3000
1010
0000
0000
0000
0000
0000
0000
0000
,
0120
0000
0000
0000
0000
0000
0000
0000
0000
0000
0000
0000
0000
0000
0000
0000
0000
0000
0000
0000
0000
0000
0000
0000
0000
0000
0000
0000
0000
0000
0000
0000
0000
0000
0000
0000
0000
0000
0000
0000
0000
0000
0000
0000
0000
0000
0000
0000
0230
0000
0000
0000
0000
0000
0000
0300
0110
0000
0000
0000
0000
0000
0000
0000
,
2001
0000
0000
3001
0100
0010
1000
0001
,
0010
0100
0010
0001
1000
0001
1000
0010
0100
0010
1000
0001
0010
0001
1000
0010
,
0100
0001
1000
0010
1000
0001
0010
0100
1000
0001
1000
0010
0100
0001
1000
0100
,
1000
0000
0010
0000
0200
0000
0000
0000
0301
1000
0010
0100
0000
0001
0010
0100
,
1000
0000
0001
0000
0020
0000
0000
0000
0031
0100
0001
1000
0000
0100
1000
0001
,
0200
0000
0000
0000
0320
0000
0000
1030
0000
0001
0000
0010
0100
0000
1000
0000
,
0001
0000
0100
0000
0001
0000
0010
0000
0100
0000
0000
1000
0001
0000
0100
0000
,
0001
0000
0010
0000
0200
0000
0000
0000
1300
0001
0010
0100
0000
1000
0010
0100
,
0001
0000
1000
0000
0020
0000
0000
0000
1030
0100
1000
0001
0000
0100
0001
1000
,
0200
0000
0000
0000
0320
0000
0000
0031
0000
1000
0000
0010
0100
0000
0001
0000
,
1000
0000
0100
0000
1000
0000
0001
0000
1001
0000
0000
0000
0000
0000
1000
0001
,
0100
0000
0001
1000
0100
1000
0010
1000
0001
0100
0001
0010
0001
1000
0010
1000
,
0001
0010
0001
1000
0010
1000
0100
1000
0001
0010
0001
0100
0001
1000
0100
1000
,
0001
0100
0010
0100
0001
1000
0001
0010
0001
1000
0100
1000
0010
0100
0010
1000
,
0001
1000
0100
0010
0001
1000
0001
0100
0010
0100
0001
1000
0100
0010
0001
1000
,
0010
0100
0010
1000
0001
0010
0001
0100
0001
1000
0100
0010
0001
1000
0010
1000
,
0001
0010
0100
1000
0001
0100
0001
0010
0001
1000
0100
1000
0010
1000
0001
0010
,
0001
0100
0010
1000
0001
0100
0001
1000
0100
0010
0001
1000
0001
0100
0010
1000
,
0001
0010
0001
0010
0100
1000
0001
0100
0010
1000
0010
1000
0001
0100
0010
0000
,
0000
0000
0000
0000
0000
0000
0000
0000
0000
0000
0000
1000
0001
0000
0010
0000
,
0001
1000
0001
0100
0010
0000
0100
0001
0000
1000
0001
0000
0010
0000
0100
0000
,
1000
0010
1000
0001
1000
0000
0100
0010
0000
0001
0010
0000
0001
0000
1000
0000
,
0010
1000
0001
1000
0100
0000
0010
0100
0000
1000
0001
0000
0100
0000
0010
0000
,
1000
0001
0100
0001
1000
0000
0100
0010
0000
0001
1000
0000
0010
0000
0100
0000
,
0001
1000
0100
1000
,
0010
0100
0001
0010
,
0001
0100
0010
1000
,
0001
1000
0100
1000
0001
1000
0010
0100
0010
1000
0001
1000
0001
0010
0001
1000
,
0020
0130
0002
0023
0031
1000
0010
0100
,
0001
1000
0001
0010
0100
1000
0010
2000
,
3002
0013
0002
0203
0310
1000
0001
0010
,
0001
1000
0100
1000
0001
0100
0010
2000
,
3002
0013
0200
2300
3001
0100
0010
0100
,
0001
0000
0010
0000
0001
0000
1000
0000
0010
0000
0100
0000
0001
0000
0010
0100
,
2000
3001
1000
0010
0200
0301
0010
0001
,
1000
0000
0010
0100
0000
0001
1000
0000
0100
0010
0001
1000
0010
0100
0010
0100
,
0002
0013
0002
0203
0301
1000
0100
0010
,
0001
1000
0001
0100
0010
1000
0100
2000
,
3002
0103
0002
0023
0130
1000
0001
0100
,
0001
1000
0010
1000
0001
0010
0100
2000
,
3002
0103
0020
2030
3001
0010
0100
0010
,
0001
0000
0100
0000
0001
0000
1000
0000
0100
0000
0010
0000
0001
0000
0100
0010
,
2000
3001
1000
0100
0020
0031
0100
0001
,
1000
0000
0100
0010
0000
0001
1000
0000
0010
0100
0001
1000
0100
0010
0100
0010
,
0001
0000
1000
0100
1000
0001
1000
0100
1000
0001
1000
0001
0100
0001
0100
0001
,
1000
0010
0100
0001
1000
0010
0100
0001
1000
0001
0010
0100
1000
0001
0010
0001
,
0100
0010
0100
0001
1000
0010
1000
0001
0100
0001
0010
0100
1000
0001
1000
0010
,
1000
0001
0010
0001
1000
0010
0100
0001
0100
0010
1000
0100
0010
0001
1000
0010
,
1000
0001
0010
0001
0100
0010
0100
0001
0010
0100
1000
0010
1000
0001
1000
0010
,
0100
0010
1000
0001
1000
0100
0010
0100
1000
0001
1000
0010
0100
0001
1000
0001
,
1000
0100
0010
0001
1000
0010
0100
0001
1000
0010
1000
0100
0010
0001
1000
0001
,
0100
0001
1000
0100
1000
0001
0100
0010
1000
0010
0100
0001
0010
0100
1000
0001
,
0100
0001
1000
0100
1000
0010
0100
0010
1000
0100
0010
0001
0100
0001
1000
0001
,
0010
0000
0000
0100
0000
0000
1000
0000
0000
0001
0000
0000
0100
0000
0001
0000
,
1000
0100
1000
0001
0100
0001
0010
0001
1000
0100
1000
0010
1000
0001
0010
0001
,
1000
0010
1000
0001
0010
0001
0100
0001
1000
0010
1000
0100
1000
0001
0100
0001
,
1000
0100
0010
0100
1000
0001
1000
0010
1000
0001
0100
0001
0010
0100
0010
0001
,
1000
0001
0100
0010
1000
0001
1000
0100
0010
0100
1000
0001
0100
0010
1000
0001
,
0010
0100
0010
0001
1000
0010
1000
0100
1000
0001
0100
0010
1000
0001
0010
0001
,
1000
0010
0100
0001
1000
0100
1000
0010
1000
0001
0100
0001
0010
0001
1000
0010
,
1000
0100
0010
0001
1000
0100
1000
0001
0100
0010
1000
0001
1000
0100
0010
0001
,
1000
0010
0100
0010
0100
0001
1000
0001
0010
0100
1000
0001
0010
0100
0010
0100
,
1000
0010
1000
0001
0100
0001
1000
0100
0010
0001
1000
0001
0100
0010
0100
0001
,
0010
0100
1000
0001
0100
0001
1000
0100
0010
0100
1000
0001
1000
0010
1000
0100
,
0020
0000
0000
0000
,
0030
0000
0000
0000
;

//---------------dance-single - 1/1/2/1/1/1----------------
#NOTES:
     dance-single:
     1/1/2/1/1/1:
     Medium:
     10:
     0.887,1.000,0.052,0.420,0.590,778.000,7.000,57.000,0.000,1.000:
0000
0000
0000
0000
,
0001
0100
0010
1000
0100
1000
0001
0010
,
0001
1000
0010
0100
0001
1000
0100
0010
,
0100
1000
0001
0100
0010
0100
0001
0010
,
0001
1000
0010
1000
0100
1000
0001
0010
,
0001
0100
0010
1000
0001
1000
0100
0010
,
0001
1000
0001
0100
0001
1000
0100
0010
,
0100
1000
0001
0100
0010
0100
0001
1000
,
0001
1000
0010
1000
0001
1000
0100
0010
0100
1000
0001
1000
0001
0100
0010
1000
,
0001
0000
0010
0000
0001
0000
1000
0010
0000
0100
0001
0000
0010
0000
0001
0000
,
1000
0000
0100
0000
0010
0000
0001
1000
0000
0001
0100
0000
0010
0000
1000
0000
,
0100
0000
0010
0000
0100
0000
1000
0001
0000
0010
0001
0000
1000
0000
0010
0000
,
0100
0000
0001
0000
0010
0000
0100
1000
0000
0001
1000
0000
0010
0000
1000
0000
,
0001
0000
0100
0000
0001
0000
1000
0100
0000
0010
0001
0000
0100
0000
0001
0000
,
1000
0000
0010
0000
0100
0000
0001
1000
0000
0001
0010
0000
0100
0000
1000
0000
,
0010
0000
0100
0000
0010
0000
1000
0001
0000
0100
0001
0000
1000
0000
0100
0000
,
1000
0001
0010
0001
0100
0010
1000
0100
1000
0100
0010
0001
1000
0010
0100
0001
,
0010
0000
0100
1000
0001
0000
0100
0000
0001
0000
0010
0000
0001
0000
0100
0000
,
0010
0000
1000
0001
0100
0000
0010
0000
1000
0000
0001
0000
0010
0000
0100
0000
,
1000
0000
0001
0100
0010
0000
0100
0000
0001
0000
1000
0000
0001
0000
0010
0000
,
0100
0000
1000
0010
0100
0000
0001
0000
1000
0000
0001
0000
0100
0000
0020
0000
,
0000
0000
0000
0000
0000
0000
0000
0000
0000
0000
0000
0000
0000
0000
1030
0001
,
0200
0000
0000
0000
0000
0000
0320
1030
,
2001
0000
0000
3001
0010
0001
2000
3100
,
0120
0000
0000
0032
,
1203
0000
0000
0000
0000
0000
0000
0000
0000
0000
0000
0000
0000
0000
0000
0000
0320
0000
0000
0000
0000
0000
0000
0000
0000
0000
0000
0000
0000
0000
0000
0030
0012
0000
0000
0000
0000
0000
0000
0000
0000
0000
0000
0000
0000
0000
0000
0000
2003
0000
0000
0000
0000
0000
0000
0000
3010
0000
0000
0000
0000
0000
0000
0000
,
0120
0000
0000
0000
0000
0000
0230
0310
,
2001
0000
0000
3001
0100
0010
1000
0001
,
0010
0100
0010
0001
1000
0001
1000
0010
0100
0010
1000
0001
0010
0001
1000
0010
,
0100
0001
1000
0010
1000
0001
0010
0100
1000
0001
1000
0010
0100
0001
1000
0100
,
1000
0000
0010
0000
0200
0000
0000
0000
0301
1000
0010
0100
0000
0001
0010
0100
,
1000
0000
0001
0000
0020
0000
0000
0000
0031
0100
0001
1000
0000
0100
1000
0001
,
0200
0000
0000
0000
0320
0000
0000
1030
0000
0001
0000
0010
0100
0000
1000
0000
,
0001
0000
0100
0000
0001
0000
0010
0000
0100
0000
0000
1000
0001
0000
0100
0000
,
0001
0000
0010
0000
0200
0000
0000
0000
1300
0001
0010
0100
0000
1000
0010
0100
,
0001
0000
1000
0000
0020
0000
0000
0000
1030
0100
1000
0001
0000
0100
0001
1000
,
0200
0000
0000
0000
0320
0000
0000
0031
0000
1000
0000
0010
0100
0000
0001
0000
,
1000
0000
0100
0000
1000
0000
0001
0000
1001
0000
0000
0000
0000
0000
1000
0001
,
0100
0001
1000
0010
0100
0010
1000
0100
,
0010
0001
1000
0010
1000
0001
0010
0100
,
0010
0001
0100
0001
1000
0010
1000
0100
,
1000
0001
0010
0100
1000
0001
0100
0010
,
1000
0001
0010
0100
0010
0001
1000
0010
,
0100
0010
1000
0001
1000
0100
1000
0001
,
0100
0001
0010
0001
1000
0100
0010
0001
,
1000
0100
1000
0100
0010
0001
1000
0010
0100
0001
0100
0001
1000
0010
0100
0000
,
0000
0000
0000
0000
0000
0000
0000
0000
0000
0000
0000
0001
1000
0000
0100
0000
,
1000
0001
1000
0010
0100
0000
0010
1000
0000
0001
1000
0000
0100
0000
0010
0000
,
0001
0100
0001
1000
0001
0000
0010
0100
0000
1000
0100
0000
1000
0000
0001
0000
,
0100
0001
1000
0001
0010
0000
0100
0010
0000
0001
1000
0000
0010
0000
0100
0000
,
0001
1000
0010
1000
0001
0000
0010
0100
0000
1000
0001
0000
0100
0000
0010
0000
,
1000
0001
0010
0001
,
0100
0010
1000
0100
,
1000
0010
0100
0001
,
1000
0001
0010
0001
1000
0001
0100
0010
0100
0001
1000
0001
1000
0100
1000
0001
,
0200
0310
2000
3200
1300
0001
0100
0010
,
1000
0001
1000
0100
0010
0001
0100
0002
,
2003
3100
2000
3020
0130
0001
1000
0100
,
1000
0001
0010
0001
1000
0010
0100
0002
,
2003
3100
0020
0032
1003
0010
0100
0010
,
1000
0000
0100
0000
1000
0000
0001
0000
0100
0000
0010
0000
1000
0000
0100
0010
,
0002
1003
0001
0100
0020
1030
0100
1000
,
0001
0000
0100
0010
0000
1000
0001
0000
0010
0100
1000
0001
0100
0010
0100
0010
,
2000
3100
2000
3020
1030
0001
0010
0100
,
1000
0001
1000
0010
0100
0001
0010
0002
,
2003
3010
2000
3200
0310
0001
1000
0010
,
1000
0001
0100
0001
1000
0100
0010
0002
,
2003
3010
0200
0302
1003
0100
0010
0100
,
1000
0000
0010
0000
1000
0000
0001
0000
0010
0000
0100
0000
1000
0000
0010
0100
,
0002
1003
0001
0010
0200
1300
0010
1000
,
0001
0000
0010
0100
0000
1000
0001
0000
0100
0010
1000
0001
0010
0100
0010
0100
,
1000
0100
0010
0100
0010
0001
0010
0001
,
0100
0010
1000
0010
0100
0001
0010
0001
,
0100
0010
1000
0100
0010
0100
1000
0010
,
0100
0001
1000
0100
1000
0001
0100
0010
,
0100
0001
0010
0001
1000
0100
1000
0010
,
1000
0001
0100
0010
1000
0001
0010
0100
,
1000
0001
0100
0010
0100
0001
1000
0100
,
0010
0100
1000
0001
1000
0010
1000
0001
,
0010
0001
0100
0001
1000
0010
0100
0001
,
1000
0000
0000
0010
0000
0000
1000
0000
0000
0001
0000
0000
0010
0000
0001
0000
,
1000
0000
0100
0000
0020
0000
0000
0000
0031
1000
0100
0010
0000
0001
0100
0010
,
1000
0000
0001
0000
0200
0000
0000
0000
0301
0010
0001
1000
0000
0010
1000
0001
,
0020
0000
0000
0000
0230
0000
0000
1300
0000
0001
0000
0100
0010
0000
1000
0000
,
0001
0000
0010
0000
0001
0000
0100
0000
0010
0000
0000
1000
0001
0000
0010
0000
,
0001
0000
0100
0000
0020
0000
0000
0000
1030
0001
0100
0010
0000
1000
0100
0010
,
0001
0000
1000
0000
0200
0000
0000
0000
1300
0010
1000
0001
0000
0010
0001
1000
,
0020
0000
0000
0000
0230
0000
0000
0301
0000
1000
0000
0100
0010
0000
0001
0000
,
1000
0010
0100
0010
0100
0001
1000
0001
0010
0100
1000
0001
0010
0100
0010
0100
,
1000
0000
0001
0100
0001
0000
1000
0100
0000
1000
0001
0000
0100
0000
0010
0000
,
1000
0000
0100
0010
0100
0000
0010
0001
0000
1000
0001
0000
0100
0000
0010
0000
,
2000
0000
0000
0000
,
3000
0000
0000
0000
;
