#TITLE:No One Wins;
#SUBTITLE:;
#ARTIST:The Berzerker;
#TITLETRANSLIT:;
#SUBTITLETRANSLIT:;
#ARTISTTRANSLIT:;
#CREDIT:Dog_E;
#BANNER:banner.PNG;
#BACKGROUND:bg.PNG;
#LYRICSPATH:;
#CDTITLE:DogETitle.PNG;
#MUSIC:the berzerker-No One Wins.mp3;
#OFFSET:-0.037;
#SAMPLESTART:49.363;
#SAMPLELENGTH:12.000;
#SELECTABLE:YES;
#BPMS:0.000=311.000,56.000=311.000,72.000=312.000,104.000=308.000,144.000=305.000,172.000=310.000,188.000=311.000,196.000=312.000,200.000=318.000,228.000=320.000,248.000=315.000,264.000=310.000,272.000=307.000,284.000=303.000,292.000=304.000,308.000=306.000,324.000=310.000,328.000=317.000,360.000=314.000,376.000=320.000;
#STOPS:;
#BGCHANGES:;
// cache tags:
#FIRSTBEAT:56.000;
#LASTBEAT:396.000;
#SONGFILENAME:Songs/hard shit/No One Wins (Dog_E)/the berzerker-No One Wins.sm;
#HASMUSIC:1;
#HASBANNER:1;
#MUSICLENGTH:110.445;
// end cache tags

//---------------dance-single - Blank----------------
#NOTES:
     dance-single:
     Blank:
     Hard:
     14:
     1.000,1.000,1.000,0.226,0.426,708.000,210.000,25.000,0.000,1.000:

0000
0000
0000
0000
,
0000
0000
0000
0000
,
0000
0000
0000
0000
,
0000
0000
0000
0000
,
0000
0000
0000
0000
,
0000
0000
0000
0000
,
0000
0000
0000
0000
,
0000
0000
0000
0000
,
0000
0000
0000
0000
,
0000
0000
0000
0000
,
0000
0000
0000
0000
,
0000
0000
0000
0000
,
0000
0000
0000
0000
,
0000
0000
0000
0000
,
0020
0030
1100
0000
0002
0003
1010
0000
0200
0300
1001
0000
0020
0030
0101
0000
,
2000
3000
0011
0000
0200
0300
1001
0000
0020
0030
1100
0000
0002
0003
1010
0000
,
0100
0100
1000
1000
0010
0010
0100
0010
,
0001
0000
1100
0000
0011
0000
1001
0001
,
1100
0001
1100
0001
0110
0001
0110
0001
,
1010
0001
1010
0001
1100
0001
1100
0001
,
1100
0010
1100
0010
0101
0010
0101
0010
,
1001
0010
1100
0010
0101
0010
1001
0100
,
0001
0010
0100
1000
0100
0010
0001
0010
0100
1000
0100
1000
0010
0100
0001
1000
,
0010
1000
0100
0010
0001
0100
0010
1000
0100
0010
0001
0100
0010
1000
0001
1000
,
0010
1100
0000
0011
0000
1100
0000
0101
,
0000
1100
0000
0011
0000
1100
0000
0101
,
1001
0100
0010
0001
1000
0010
0100
0001
,
1001
0100
1000
0010
0100
0010
0100
0001
,
0010
0100
1000
0100
0010
0001
0100
0010
,
1001
0100
0010
0001
2000
0100
0100
3100
,
0011
1000
0110
1000
0011
1000
0101
1000
,
0011
1000
0110
1000
0011
1000
0101
1000
,
0011
1000
0110
1000
0011
1000
0110
1000
,
0011
0100
1010
0001
0110
1000
0110
1001
,
1100
0001
1010
0001
0110
0001
1010
0001
,
1100
0001
1010
0001
0110
0001
1010
0001
,
1100
0001
1010
0001
1010
0001
1100
0001
,
0110
1000
0110
0001
1010
0100
1001
0010
,
1000
0100
0010
0001
1000
0100
0010
0001
,
1000
0001
1000
0001
0010
0001
1000
0100
,
0010
0100
1000
0001
0010
0100
0010
0001
,
1000
0001
1000
0001
0010
0001
1000
0100
,
1000
0010
0100
0010
1000
0100
1000
0001
,
0010
0001
1000
0100
0010
0001
0010
0100
,
1001
0000
0200
0000
,
0310
0000
0010
0000
0010
0000
0010
0000
0010
1000
0100
0010
0001
0100
0010
1000
,
0100
0010
0001
1000
0100
0010
0100
1000
,
0100
0001
1000
0100
1000
0001
0010
0001
,
1000
0100
0010
0001
1000
0001
0100
0010
,
1000
0100
0010
0001
0010
0100
1000
0100
,
0011
1000
0011
1000
0011
1000
0011
1000
,
0110
1000
0110
1000
0110
1000
0110
1000
,
0011
0100
0011
0100
0011
0100
0011
0100
,
1010
0100
1010
0100
1010
0100
1010
0001
,
0110
0001
0110
0001
0110
0001
0110
0001
,
1100
0001
1100
0001
1100
0001
1100
0001
,
1010
0001
1010
0001
1010
0001
1010
0100
,
0011
0100
0011
0100
0011
0100
0011
0100
,
0011
1100
0011
1100
0011
1100
0011
1100
,
0110
1001
0110
1001
0110
1001
0110
1001
,
1010
0101
1010
0101
1010
0101
1010
0101
,
1010
0100
0011
0100
1001
0010
1100
0001
,
1000
0100
1000
0001
0010
0001
0100
0010
1000
0100
0010
0001
0010
0100
1000
0100
,
0011
0000
0110
0000
1001
0010
0100
0010
,
0001
1000
0001
1000
0010
0100
0010
0100
0001
0010
0100
1000
0100
0010
0001
1000
,
0100
0010
0001
1000
0100
0010
0100
1000
0001
0010
0100
1000
0001
0100
0010
1000
,
0001
0100
0010
1000
0100
0010
0001
0010
0100
1000
0100
0010
0001
0010
0100
1000
,
0110
0000
0011
0000
1001
0010
1000
0001
,
0001
0010
0100
1000
0001
0010
0100
1000
0001
0010
0100
1000
0001
0010
0100
1000
,
0001
1000
0001
1000
0010
1000
0010
1000
0100
1000
0100
1000
0010
1000
0010
1000
,
0001
1000
0100
0010
0001
0010
0100
1000
0001
0010
0100
1000
0001
0010
0100
1000
,
0011
0000
0110
0000
1100
0001
0010
0001
,
1000
0100
0010
0001
0010
0100
1000
0100
0010
0001
0010
0100
1000
0010
1000
0010
,
1000
0001
1000
0001
1000
0001
0010
0100
1000
0001
0010
0100
1000
0100
0010
0100
,
2002
0000
0000
3003
1000
0001
0100
0010
,
1000
0001
0010
0001
1000
0100
1000
0010
,
0100
0001
1000
0100
0010
0001
1000
0010
,
0100
0001
1000
0100
0010
0001
1000
0001
,
2200
3300
0022
0033
,
0110
1100
0110
1100
0110
0000
0001
0000
,
0110
0101
0110
0101
0110
0000
1000
0000
,
1001
0011
1001
0011
1001
0000
0100
0000
,
0001
1100
0001
1100
0001
1100
0001
1100
,
0001
0110
0001
0110
0001
0110
0001
0110
,
0001
1100
0010
1100
0010
1100
0010
1100
,
0010
1001
0010
1001
0202
0000
0303
0000
,
2020
0000
3030
0000
0010
1001
0010
1001
,
0010
1001
0000
0000
0000
1001
0100
1001
,
0100
1001
0100
0011
0100
0011
0100
0011
,
0100
1010
0100
1010
0100
1010
0100
1010
,
0100
0011
1000
0011
1000
0011
1000
0011
,
0100
1001
0100
1001
0010
1001
0100
1001
,
0100
0011
1100
0001
0110
1000
0101
0010
,
1100
0220
0330
0000
0022
0000
0033
0000
,
1000
0000
0011
0000
0100
0000
0011
0000
1000
0000
0011
0000
0100
0010
1000
0001
,
0200
0001
1000
0010
,
1000
0001
0010
0001
,
0001
1000
0010
1000
,
0001
1310
0110
0101
,
1001
0000
0000
0000
;
