#TITLE:Cooking by the Book;
#SUBTITLE:;
#ARTIST:Lazy Town;
#TITLETRANSLIT:;
#SUBTITLETRANSLIT:;
#ARTISTTRANSLIT:;
#CREDIT:;
#BANNER:Cooking by the Book-banner.jpg;
#BACKGROUND:Cooking by the Book-bg.jpg;
#LYRICSPATH:;
#CDTITLE:;
#MUSIC:Cooking by the Book.ogg;
#OFFSET:-0.830;
#SAMPLESTART:22.300;
#SAMPLELENGTH:11.980;
#SELECTABLE:YES;
#BPMS:0.000=109.980;
#STOPS:;
#BGCHANGES:;
// cache tags:
#FIRSTBEAT:8.000;
#LASTBEAT:179.875;
#SONGFILENAME:Songs/in the groove2/Cooking by the Book/Cooking by the Book.sm;
#HASMUSIC:1;
#HASBANNER:0;
#MUSICLENGTH:97.933;
// end cache tags

//---------------dance-single - ----------------
#NOTES:
     dance-single:
     :
     Hard:
     8:
     0.620,0.684,0.572,0.817,0.271,289.000,56.000,80.000,20.000,0.000:
0000
0000
0000
0000
,
0000
0000
0000
0000
,
1001
0001
1000
0010
0100
0010
0000
0010
,
1000
0001
1000
1000
1001
0000
0000
0000
,
0011
0001
0100
0010
1000
0001
0010
0100
,
1000
1000
0001
0001
1000
0000
0000
0010
,
1001
0000
0010
0000
1000
0000
0001
0000
1000
0000
0010
2000
0000
0000
3001
0000
,
0010
1000
0100
1000
0020
0000
0030
1000
,
0101
0000
0001
0000
1000
0000
0100
0000
1000
0000
0001
0100
0000
0000
0010
0000
,
2002
0000
0000
0000
0000
0000
0000
0000
0000
0000
0000
0000
3003
0000
0010
1000
,
0001
0001
1000
0010
1000
1000
0001
0100
0020
0000
0030
0000
1001
0000
0000
0000
,
1001
0000
0010
0000
1001
0000
0100
0000
2002
0000
3003
0000
2002
0000
3003
0010
,
0100
0100
0001
1000
0100
0100
1000
0010
0200
0000
0300
0000
1001
0000
0010
0000
,
0101
0010
1001
1100
0220
0330
0220
0330
,
1000
1000
0001
0100
0010
0010
0100
0001
2000
0000
0000
0000
3001
0000
0100
0000
,
1001
0010
0101
0101
2000
0000
0200
3300
,
0010
0001
1000
0100
0010
0010
0001
1000
0200
0000
0000
0300
0000
0000
0000
0000
,
2002
3003
0220
0330
2002
3003
0220
0330
,
2002
3003
0000
0010
1000
0001
0100
1000
,
0202
0303
0000
0001
0010
1000
0001
0010
,
2200
3300
0000
0000
0010
0001
1000
0001
,
0200
0302
2003
3001
,
2002
0000
0000
3003
,
0001
0000
1000
0000
0001
0000
0100
0000
0010
0000
1000
1000
0100
0000
0000
0000
,
0010
0000
0001
0000
0100
0000
0010
0000
0100
0000
0001
0001
0100
0000
0000
0000
,
1001
1001
0100
0010
1000
0001
0100
0010
,
2002
0000
0000
0000
3003
0000
0100
0000
0020
0000
0000
0000
1030
0000
0100
0001
,
1000
1000
0001
0100
0001
0001
1000
0010
0200
0000
0300
0000
1001
0000
0000
0000
,
1001
0000
0100
0000
1001
0000
0010
0000
2002
0000
3003
0000
2002
0000
3003
0100
,
0010
0010
1000
0001
0010
0010
0001
0100
0020
0000
0030
0000
1001
0000
0100
0000
,
1010
0100
1001
0011
0220
0330
0220
0330
,
0001
0001
1000
0010
0100
0100
0010
1000
0002
0000
0000
0000
1003
0000
0010
0000
,
1001
0100
1010
1010
0002
0000
0020
0033
,
0100
1000
0001
0010
0100
0100
1000
0001
0020
0000
0000
0030
0000
0000
0000
0000
,
2002
3003
0220
0330
2002
3003
0220
0330
,
2002
3003
0000
0100
0001
1000
0010
0001
,
1010
0001
0100
1000
0100
0001
1000
0100
,
0011
0001
0001
0001
0100
1000
0001
1000
,
0020
2030
3002
1003
,
2002
0000
3003
0010
1000
1000
0001
0100
,
2020
3030
0000
0100
0001
1000
0100
0010
,
2002
0000
3003
0000
0100
0100
0010
0010
,
2000
0000
0000
0000
3002
0000
0000
0000
0203
0000
0000
0000
0320
0000
0030
1000
,
0100
0100
1000
0100
1000
0010
0100
0001
0020
0000
0030
0000
2002
0000
3003
0M00
,
0M00
0000
0M00
0000
0MMM
0000
0000
0MM0
0000
M00M
0000
M00M
0000
0MM0
0000
0000
0M00
0000
0M00
0000
0M00
0000
0MMM
0000
0000
0000
0000
0000
0000
0000
0000
0000
;

//---------------dance-single - ----------------
#NOTES:
     dance-single:
     :
     Challenge:
     10:
     0.729,0.781,0.786,0.572,0.449,367.000,77.000,56.000,36.000,0.000:
0000
0000
0000
0000
,
0000
0000
0000
0000
,
1001
1001
0010
0100
1010
0110
0000
0100
,
1001
0000
1000
0000
1001
0000
0101
0000
0010
0000
0000
0000
0000
0000
0000
0001
,
1000
1000
0011
0100
0001
1001
0110
0001
,
0010
0010
1000
1000
0001
0000
0000
0200
,
0301
0000
1010
0000
0001
0000
1000
0000
0011
0000
0100
0002
0000
0000
1003
0000
,
0100
0001
0010
1001
0220
0000
0330
0001
,
1010
0000
1000
0000
0001
0000
0010
0000
0001
0000
1000
0100
0000
0000
0010
0000
,
2001
0000
0001
0000
0100
0000
0010
0000
0002
0000
0000
0000
3003
0000
0100
0001
,
1000
0010
1000
0000
0001
0000
0100
0000
0001
0010
0001
0000
1000
0000
0010
0000
0200
0000
0000
0000
0300
0000
0000
0000
1001
0000
0000
0000
0000
0000
0000
0000
,
1001
0000
0101
0000
1010
0000
0110
0000
2001
0000
3010
0000
2002
0000
3003
0100
,
0010
1000
0010
0000
0100
0000
0001
0000
0010
0001
0010
0000
0100
0000
1000
0000
0020
0000
0000
0000
0030
0000
0000
0000
1001
0000
0000
0000
0100
0000
0000
0000
,
1010
0110
1001
0011
1020
0130
2002
3003
,
0001
0100
0001
0000
1000
0000
0010
0000
0100
0001
0100
0000
0010
0000
1000
0000
0002
0000
0000
0000
0000
0000
0000
0000
1003
0000
0000
0000
0010
0000
0000
0000
,
1001
0101
1010
1010
0002
1000
0200
0303
,
0001
1000
0001
0000
0100
0000
0010
0000
1000
0001
1000
0000
0100
0000
0001
0000
0020
0000
0000
0000
0000
0000
0030
0000
0000
0000
0000
0000
0000
0000
0000
0000
,
2001
3100
0210
0301
2001
3010
0120
1030
,
1001
0100
0010
0100
0001
0000
0100
0000
0001
0000
1000
0000
0010
0000
0001
0000
,
1010
1000
0001
1000
0100
0001
1000
0100
,
0011
0000
0010
0001
0010
0100
1000
0000
0100
0000
1000
0000
0001
0000
1000
0000
,
0020
0100
2030
0100
3002
0010
1003
0000
,
2002
0000
0000
0000
0000
0000
0000
0000
0000
0000
0000
0000
3003
0000
0010
0100
,
1000
0000
0001
0000
1000
0000
0010
0000
0100
0000
1001
0001
0010
0000
1000
0000
,
0100
0000
1000
0000
0010
0000
0100
0000
0010
0000
1001
1000
0010
0000
0110
0000
,
1001
1001
0010
0100
0001
1000
0010
0100
,
1002
0000
0100
0000
1003
0000
0110
0000
0200
0000
0000
0000
0301
0000
0010
1000
,
0001
0100
0001
0000
1000
0000
0010
0000
1000
0100
1000
0000
0001
0000
0100
0000
0020
0000
0000
0000
0030
0000
0000
0000
1001
0000
0000
0000
0000
0000
0000
0000
,
1001
0000
0110
0000
1001
0000
0101
0000
1002
0000
0103
0000
2002
0000
3003
0010
,
0100
0010
0100
0000
0001
0000
1000
0000
0100
0010
0100
0000
1000
0000
0010
0000
0200
0000
0000
0000
0300
0000
0000
0000
1001
0000
0000
0000
0010
0000
0000
0000
,
0101
1010
1001
1100
0210
0301
0220
0330
,
1000
0010
1000
0000
0001
0000
0100
0000
0010
1000
0010
0000
0100
0000
0001
0000
2000
0000
0000
0000
0000
0000
0000
0000
3001
0000
0000
0000
0100
0000
0000
0000
,
1001
0010
0101
0101
2000
0001
0020
3030
,
1000
0001
1000
0000
0010
0000
0100
0000
0001
1000
0001
0000
0100
0000
0010
0000
0200
0000
0000
0000
0000
0000
0300
0000
0000
0000
0000
0000
0000
0000
0000
0000
,
1002
0103
0120
1030
2001
3010
0210
0301
,
1001
0000
0100
0010
1000
0001
0010
0000
1000
0000
0001
0000
0100
0000
1000
0000
,
0101
0000
1000
0010
1000
0000
0001
0000
0010
0000
1000
0000
0001
0000
0010
0000
,
1100
0000
1000
0100
1000
0010
1000
0000
0010
0000
0001
0000
1000
0000
0001
0000
,
0200
0010
0302
1000
2003
0100
3001
0000
,
1001
0000
0010
0100
0001
0000
0200
0000
0001
0000
0301
0000
1000
0000
0010
0000
,
0101
0010
1000
0010
1000
0001
0010
0100
,
1001
0000
0001
0010
0100
0010
0001
0000
0010
0000
0010
0000
0100
0000
0100
0000
,
0002
0000
0010
0000
2003
0000
0100
0000
3020
0000
0001
0000
0230
0000
0300
0001
,
0100
0001
1000
0001
0100
0001
0010
0001
0200
0000
0300
0000
2002
0000
3003
0M00
,
0M00
0000
0M00
0000
0MMM
0000
0000
M00M
0000
MMMM
0MM0
M00M
0000
M00M
0000
0000
0MM0
0000
M00M
0000
MMMM
0000
M00M
0000
0000
0MM0
0000
M00M
0000
M00M
0000
0MM0
;
