#TITLE:Endless Tears ... (Full ver.);
#SUBTITLE:11eyes Crossover OP theme;
#ARTIST:Ayane;
#TITLETRANSLIT:;
#SUBTITLETRANSLIT:;
#ARTISTTRANSLIT:;
#CREDIT:ALICE_;
#BANNER:Endless tears full.png;
#BACKGROUND:Endless tears full.jpg;
#LYRICSPATH:;
#CDTITLE:cdtitle.png;
#MUSIC:Endless Tears full.mp3;
#OFFSET:0.720;
#SAMPLESTART:80.440;
#SAMPLELENGTH:21.020;
#SELECTABLE:YES;
#BPMS:0.000=192.000,700.000=175.000,708.000=152.000,740.000=151.000,776.000=192.000;
#STOPS:692.000=0.020
,775.500=1.310
;
#BGCHANGES:;
// cache tags:
#FIRSTBEAT:20.000;
#LASTBEAT:1053.000;
#SONGFILENAME:Songs/alice 4th complete step/Endless Tears full/Endless Tears full.sm;
#HASMUSIC:1;
#HASBANNER:1;
#MUSICLENGTH:341.474;
// end cache tags

//---------------dance-single - ----------------
#NOTES:
     dance-single:
     :
     Challenge:
     20:
     1.000,1.000,1.000,0.606,1.000,2620.000,934.000,207.000,0.000,214.000:
0000
0000
0000
0000
,
0000
0000
0000
0000
,
0000
0000
0000
0000
,
0000
0000
0000
0000
,
0000
0000
0000
0000
,
1111
0000
0000
0000
0000
0000
0000
0110
,
1101
0000
0000
0000
,
0101
1011
0000
0000
0000
0000
0000
0000
,
2012
0000
0000
0000
3003
0000
2001
0000
3100
0010
0001
1000
0010
0100
0001
0100
,
1001
0000
0010
0000
1101
0000
1000
0010
1100
0010
1000
0000
1101
0000
1000
0010
,
1100
0010
1000
0000
1101
0000
1000
0010
1100
0010
1000
0000
1101
0000
1000
0010
,
0100
0010
0001
0000
1101
0000
0001
0010
0101
0010
0001
0000
1101
0000
0001
0010
,
0101
0010
0001
0000
1101
0000
0001
0010
0101
0010
0001
1000
0100
0010
0100
0010
,
1001
0100
1001
0100
0011
0000
1000
0001
1010
0001
0100
0000
1110
0000
1000
0001
,
1010
0001
0100
0000
1110
0000
1000
0001
1010
0001
0100
0000
1110
0000
1000
0001
,
1010
0001
0100
0000
0111
0000
0001
1000
0101
1000
0010
0000
1001
0010
0100
0010
,
1100
0000
0110
0000
1010
0000
0101
0000
0011
1000
0100
0010
1001
0100
0011
1000
,
0110
0001
0101
0011
0100
1010
1100
0110
,
1001
0000
1010
0000
0101
0000
0010
0000
1100
0000
0012
0000
1003
0100
0010
0100
,
1010
0110
1011
0100
1010
0011
0100
2012
,
0000
3003
0100
0000
0011
0000
1001
0000
0101
0000
0011
0000
1010
0000
1100
0000
,
0110
0010
2102
3003
0101
1000
0011
1001
,
0100
1000
0011
1001
0100
1000
0011
1001
,
0010
1000
0110
1001
0010
1000
0110
2002
,
0000
3003
0100
0000
0011
0000
1010
0000
0110
0000
0100
0000
0011
0000
0101
0000
,
1001
0010
1100
1001
0010
1100
1001
0100
,
1001
0000
0100
0000
0011
0000
1001
0000
0100
0000
0011
0000
1001
0000
0010
0100
,
1000
1000
0111
0010
0101
0100
1110
1000
,
0110
0000
0000
0010
0000
0000
0111
0000
0000
0001
0000
0000
1100
0000
0000
0101
0000
0000
1110
0000
0000
0011
0100
0000
,
1000
0010
0100
1000
0010
0100
1000
0010
,
0100
0100
0010
0010
0100
0001
1000
0010
,
0001
0100
1000
0010
0100
1000
0010
2012
,
0000
3003
0100
0000
0110
0000
0100
0000
1001
0000
0010
0000
0110
0000
0100
0000
,
1010
0001
0010
0100
0001
0010
0100
0010
,
1000
0000
0001
0000
0100
0000
0010
0000
0100
0000
0001
0000
1000
0010
0100
0010
,
1000
0110
2002
0000
3013
0011
1001
0100
,
1010
0000
0000
0000
0000
0000
1001
0000
0000
0000
0000
0000
0010
0000
0000
0000
0000
0000
0100
0000
1000
0000
0000
0000
0011
0000
0000
0000
0000
0000
0101
0000
0000
0010
0000
0000
1000
0000
0000
0100
0000
0000
0010
0000
0000
0100
0000
0000
,
2002
0103
0011
0101
0010
0001
3110
0100
,
2002
3010
1100
1010
0100
1000
0110
0103
,
2010
0001
0110
0101
0010
0110
3101
0020
,
0230
0000
0302
0000
2003
0000
3020
0000
2030
0000
3002
0000
0023
0000
0230
0300
,
1010
0100
0011
1000
0110
0110
1001
0010
,
0101
0010
1100
0001
0110
0110
1101
0110
,
0001
1100
1011
0100
0001
0100
1011
0100
,
1000
0000
0010
0000
1101
0000
0010
0000
1000
0000
0010
0100
0001
0010
0100
1000
,
0001
0100
0010
0000
1100
0000
1000
0100
0010
0000
0011
0000
0001
0010
0100
0000
,
1100
0000
1000
0010
0100
0000
0011
0000
1000
0001
0220
0000
0000
0000
0330
0000
,
1001
0100
0010
0001
1100
0010
1000
0100
0010
1000
0001
0100
1010
0001
0100
1000
,
0001
0010
1000
0010
0101
1000
0010
0100
1000
0010
0100
0001
1010
0100
0001
0100
,
1000
0010
0001
0010
1100
0001
0010
1000
0100
0001
1000
0010
1100
0001
0010
0001
,
0100
0010
1000
0010
1001
0100
0010
0100
0001
0010
0100
1000
0011
0100
0010
1000
,
0100
0010
0100
0001
1010
0001
0100
0010
1000
0100
1000
0010
0101
1000
0010
0100
,
0001
1000
0010
0100
0011
1000
0001
0100
0010
0001
0010
1000
0101
1000
0010
0100
,
0010
1000
0100
1000
0011
0100
0001
0100
0010
0001
0010
0100
1010
0001
0100
0010
,
1000
0001
0100
1000
0110
0001
1000
0010
0100
0001
0010
0001
1100
0010
0001
0010
,
1001
0100
0010
0100
1001
0010
0100
0010
1000
0100
1000
0001
0110
1000
0010
0100
,
1001
0010
0001
0010
1100
0001
0010
0100
1010
0001
0100
0001
1100
0010
0100
0001
,
1010
0100
0001
0010
1001
0100
1000
0001
0110
0001
1000
0010
1100
0010
1000
0100
,
0011
1000
0010
0100
0011
1000
0100
0010
0101
1000
0001
0100
1010
0100
0010
0100
,
2002
0010
3103
0220
1000
0331
2102
0010
,
0010
3013
0110
1001
1000
0100
0011
0100
,
2010
0001
0100
0010
0001
0100
0010
3100
,
1100
0010
0010
0101
1000
0010
0101
1000
0010
0001
1000
0100
,
0011
0000
0001
0000
0010
0000
1001
0000
0101
0000
0010
0000
1000
0000
0101
0010
,
1000
0000
1010
0000
0001
0100
1000
0100
0001
0000
2112
0000
0000
0000
3003
0000
,
1001
0010
0100
1000
0001
0010
0100
1000
0001
0010
1100
0010
1001
0010
0100
0011
,
1000
0100
0011
0100
1000
0010
0001
0110
1000
0001
0110
0001
1100
0010
1000
0110
,
1001
0010
0100
1010
0001
0100
1010
0100
0011
1000
0010
1000
0101
0010
0100
0011
,
1000
0010
1100
0001
0010
1001
0100
0010
1001
0100
1011
0000
0000
0000
0101
0010
,
1001
0100
0010
0001
1000
0100
0010
0001
1000
0100
1010
0100
0001
1010
0101
0010
,
1000
0100
1010
0101
0010
1000
0100
0010
0101
1000
0011
0100
0010
1100
0001
0010
,
1001
0100
0011
0100
1000
0110
0001
0010
1100
0001
0110
0001
1000
0101
0010
1000
,
0011
0100
0010
1000
0101
1000
0010
0100
1001
0010
1101
0000
0000
0000
1001
0100
,
0011
0100
0010
1000
0011
0100
0010
1100
0001
0010
0101
1000
0011
0100
1001
0010
,
0100
0011
1000
0100
1001
0010
0100
0011
1000
0010
1100
0001
0110
1000
0010
0100
,
0001
0110
1000
0100
1001
0010
0100
0010
1000
0001
1100
0010
0100
0011
1000
0010
,
0101
1000
0010
0100
0010
1000
0101
1000
0010
1100
0001
0010
1100
0010
0101
0010
,
1000
0001
0100
0001
0100
0011
1000
0001
0100
0001
0100
0011
1000
0010
0100
0010
,
1000
0001
0100
0011
1100
0001
0100
0001
0010
0100
0010
1001
0100
0010
1001
0100
,
0001
0010
1001
0010
0100
0010
0101
0010
1000
0010
1100
0010
0001
0010
1000
0100
,
1001
0110
0001
1000
0010
0100
0011
1000
0100
0010
0100
1000
0011
0100
0010
1000
,
1001
0000
0100
0000
1011
0000
0001
0100
0011
0100
0001
0000
1011
0000
0001
0100
,
0011
0100
0001
0000
1011
0000
0001
0100
0011
0100
0001
0000
1011
0000
0001
0100
,
0010
0100
1000
0000
1011
0000
1000
0100
1010
0100
1000
0000
1011
0000
1000
0100
,
1010
0100
1000
0000
1011
0000
1000
0100
1010
0100
1000
0001
0100
0010
0100
0010
,
1001
0010
1001
0010
1100
0000
0001
1000
0101
1000
0010
0000
0111
0000
0001
1000
,
0101
1000
0010
0000
0111
0000
0001
1000
0101
1000
0010
0000
0111
0000
0001
1000
,
0101
1000
0010
0000
1110
0000
1000
0001
1010
0001
0100
0000
1001
0100
0010
0100
,
0011
0000
0110
0000
0101
0000
1010
0000
1100
0001
0010
0100
1001
0010
1100
0001
,
0110
1000
1011
1100
0010
0101
1011
0110
,
1001
0000
0101
0000
1010
0000
0100
0000
0011
0000
2100
0000
3001
0010
0100
0010
,
0101
0110
1101
0010
0101
1100
0110
2012
,
0000
3003
0100
0010
1000
0100
0011
1000
0110
1000
0001
0100
1010
0001
0100
0010
,
2202
0000
0000
0000
,
0000
0000
0000
0000
,
0000
0000
0000
0000
0000
0000
3303
2012
,
0000
3003
0100
0000
0011
0000
1010
0000
0110
0000
0100
0000
0011
0000
0101
0000
,
1001
0010
1100
1001
0010
1100
1001
0100
,
1011
0000
0100
0000
0011
0000
1001
0000
0100
0000
0011
0000
1001
0000
0010
0100
,
1010
1000
0111
0010
0101
0100
1110
1000
,
0110
0000
0000
0010
0000
0000
0111
0000
0000
0001
0000
0000
1100
0000
0000
0101
0000
0000
1110
0000
0000
0011
0100
0000
,
2022
0000
0000
0000
,
0000
0000
0000
0000
,
0000
0000
0000
0000
0000
3033
0000
2102
,
0000
3003
0010
0000
0110
0000
0010
0000
1001
0000
0100
0000
0110
0000
0010
0000
,
1101
1000
0101
0110
1000
1100
0011
0100
,
1011
0000
1000
0000
0110
0000
0101
0000
0010
0000
1000
0000
1001
0100
0010
0100
,
1001
0110
2012
0000
3103
1100
1001
0010
,
0101
0000
0000
0000
0000
0000
1001
0000
0000
0000
0000
0000
0100
0000
0000
0000
0000
0000
0010
0000
0001
0000
0000
0000
1100
0000
0000
0000
0000
0000
1010
0000
0000
0100
0000
0000
0001
0000
0000
0010
0000
0000
0100
0000
0000
0010
0000
0000
,
2002
3010
1100
1010
0100
1000
0113
0010
,
2002
0103
0011
0101
0010
0001
0110
3010
,
0102
1000
0110
1010
0100
0110
1013
0201
,
0320
2030
3012
0203
0312
2003
3201
0320
,
0131
0001
1011
0001
0101
0101
1011
0101
,
0010
0100
1011
1000
1100
1100
1011
0220
,
1330
0010
1101
0010
1000
0010
1101
0010
,
0001
0000
0100
0000
1011
0000
0100
0000
0001
0000
0100
0010
1001
0100
0010
0100
,
1001
0010
0100
0000
0110
0000
1001
0010
0100
0000
0110
0000
1001
0100
0010
0000
,
0110
0000
1001
0100
0010
0000
0110
0000
2002
0000
0000
0000
3223
0000
0330
0000
,
1001
0010
0100
1000
0011
0100
0001
0010
0100
0001
1000
0010
0101
1000
0010
0001
,
1000
0100
0001
0100
1010
0001
0100
0010
0001
0100
0010
1000
0101
0010
1000
0010
,
0001
0100
1000
0100
0011
1000
0100
0001
0010
1000
0001
0100
0011
1000
0100
1000
,
0010
0100
0001
0100
1001
0010
0100
0010
1000
0100
0010
0001
1100
0010
0100
0001
,
0010
0100
0010
1000
0101
1000
0010
0100
0001
0010
0001
0100
1010
0001
0100
0010
,
1000
0001
0100
0010
1100
0001
1000
0010
0100
1000
0100
0001
1010
0001
0100
0010
,
0100
0001
0010
0001
1100
0010
1000
0010
0100
1000
0100
0010
0101
1000
0010
0100
,
0001
1000
0010
0001
0110
1000
0001
0100
0010
1000
0100
1000
0011
0100
1000
0100
,
1001
0010
0100
0010
1001
0100
0010
0100
0001
0010
0001
1000
0110
0001
0100
0010
,
1001
0100
1000
0100
0011
1000
0100
0010
0101
1000
0010
1000
0011
0100
0010
1000
,
0101
0010
1000
0100
1001
0010
0001
1000
0110
1000
0001
0100
0011
0100
0001
0010
,
1100
0001
0100
0010
1100
0001
0010
0100
1010
0001
1000
0010
0101
0010
0100
0010
,
2002
0100
3013
0220
0001
1330
2012
0100
,
0100
3103
0110
1001
0001
0010
1100
0010
,
2002
3100
0010
0100
0010
1000
0100
1003
,
0011
0100
0100
1010
0001
0100
1010
1001
0100
1000
0101
0010
,
1100
0000
1000
0000
0110
0000
1001
0000
1010
0000
0100
0000
0001
0000
1010
0100
,
0001
0000
0101
0000
0001
0010
1000
0010
0101
0000
2112
0000
0000
0000
3003
0000
,
2101
0000
0010
0000
0100
0000
0010
0000
0100
0000
0010
0000
0100
0000
0010
3000
,
1002
0000
0000
0000
0100
0000
0010
0003
1020
0000
0000
0000
0100
0000
0000
0030
,
1002
0000
0100
0000
1000
0000
0100
0000
1000
0000
0100
0000
1000
0000
0100
0003
,
1020
0000
0000
0030
0201
0000
0010
0000
1010
0000
0000
0300
2100
0000
0000
3000
,
0012
0000
0000
0000
0100
0003
2000
0000
0010
0000
0000
3000
0120
0000
0001
0000
,
1000
0000
0001
0000
1000
0000
0001
0000
1000
0000
0001
0030
1200
0000
0010
0300
,
2001
0000
0000
0000
0100
0000
0000
0000
0010
0000
0000
3000
0021
0030
0200
0300
,
1002
0000
0000
0000
0000
0000
0010
0000
0000
0000
0000
0000
0100
0000
0000
0000
0000
0000
0010
0000
0000
0000
0000
0000
1000
0000
0000
0000
0000
0000
0010
0000
0000
0003
0000
0000
0200
0000
0300
0000
0020
0000
0030
0000
0200
0000
0300
0000
,
2001
0000
0010
0000
0001
0000
0010
0000
0001
0000
0010
3000
0201
0000
0010
0300
,
1002
0000
0000
0000
0010
0003
2000
0000
0100
0000
0000
3000
0012
0000
0000
0003
,
1020
0000
0000
0000
0001
0030
0200
0000
1000
0000
0000
0300
0021
0000
1000
0000
,
0001
0000
0000
0000
0000
0000
0100
0000
0000
0000
0000
0000
0001
0000
0000
0000
0000
0000
0100
0000
0000
0000
0000
0000
0001
0000
0000
0000
0000
0000
0100
0000
0000
0030
0000
0000
2000
0000
3000
0000
0002
0000
0003
0000
0200
0000
0300
0000
,
1020
0001
0100
0001
1000
0001
0100
0100
,
2001
0000
0001
0000
0100
0000
0100
0000
0001
0000
0001
0000
0100
0000
0100
0030
,
0012
0010
0100
0100
0010
0010
3223
0330
,
1100
0001
1010
0001
0100
0010
1002
0100
1000
0010
0100
0010
1000
0100
1000
0103
,
0011
1000
0010
1000
0101
0010
1000
0010
1100
0001
0100
0001
1010
0100
0010
0100
,
1001
0010
0100
0011
1100
0010
1001
0110
1001
0010
0100
1000
0011
0100
0001
0010
,
2001
0000
0010
0000
0101
0000
0110
0000
0010
0000
0101
0000
3021
0000
1000
0030
,
0102
0000
0100
0000
1010
0000
1100
0003
0010
0000
0101
0000
1001
0000
0010
0000
,
2001
0000
3200
0000
0320
0000
0032
0000
2103
0000
0000
0000
3021
0030
1200
0300
,
1002
0000
0003
0200
1010
0300
0001
0000
2120
0000
0001
0000
0100
0000
3031
0000
,
2010
0000
3200
0000
0301
0000
2010
0000
3202
0003
0320
0000
2030
0000
3002
0000
,
2103
0000
3011
0000
1002
0100
0013
0000
2001
0000
3110
0000
0012
0000
1103
0010
,
2002
0000
0010
0000
0110
0000
0100
0000
0010
0000
0103
3000
1001
0010
0100
1000
,
0022
0000
0100
0000
1100
0000
1000
0000
0100
0000
1030
0000
2103
0010
0100
0000
,
3010
0001
0100
0010
1100
0001
0010
1000
0101
0010
1000
0110
1001
0010
0101
0010
,
0100
0001
1010
0001
0100
0010
1001
0010
1100
0001
0110
0001
1000
0100
1001
0010
,
0201
0011
1300
0120
0000
1030
1102
0010
,
1013
0200
1001
0311
2002
0100
0110
3013
,
1022
1000
0100
1100
0000
1000
1130
0000
,
1010
0000
0010
0000
0110
0000
1000
0010
0100
0010
1000
0100
1010
0100
0013
0000
,
1001
1101
0010
2202
3303
0100
2022
3033
,
0010
0000
2202
0000
3303
0000
0100
0000
1010
0100
0001
1000
0011
0100
1000
0010
,
0202
0000
0000
0000
,
0010
0000
0000
0000
1000
0000
0300
0003
,
2110
0000
0000
0000
,
0000
0000
0000
3000
,
0001
0010
0100
1000
,
0001
0010
0100
1000
,
0101
1000
0101
1010
,
0011
0100
0011
1100
,
1010
0001
1010
0101
,
0110
0001
1100
0011
,
1010
0001
1010
0101
,
1100
0010
1100
0011
,
1001
0100
1010
1001
,
0101
1000
0010
0000
0101
0000
1010
0000
,
1001
0010
1001
0100
,
1010
0001
1010
0100
,
0011
1000
0101
0010
,
1001
0100
0010
1000
,
0202
0000
0010
1323
,
0000
0000
0000
0000
0000
0000
0000
0030
,
2000
0000
0000
0000
0000
0000
0000
3000
,
2200
0000
0000
0000
0000
0000
0000
3300
,
2002
0000
0000
0000
0000
0000
0000
3003
,
1001
0100
0010
0001
1100
0010
1000
0100
0011
1000
0001
0100
1010
0001
0100
1000
,
0101
0010
1000
0010
0101
1000
0010
0100
1001
0010
0100
0001
1010
0100
0001
0100
,
1000
0010
0001
0010
1100
0001
0010
1000
0100
0001
1000
0010
1100
0001
0010
0001
,
0100
0010
1000
0010
1001
0100
0010
0100
0001
0010
0100
1000
0011
0100
0010
1000
,
0101
0010
0100
0001
1010
0001
0100
0010
1001
0100
1000
0010
0101
1000
0010
0100
,
0011
1000
0010
0100
0011
1000
0001
0100
1010
0001
0010
1000
0101
1000
0010
0100
,
0010
1000
0100
1000
0011
0100
0001
0100
0010
0001
0010
0100
1010
0001
0100
0010
,
1000
0001
0100
1000
0110
0001
1000
0010
0100
0001
0010
0001
1100
0010
0001
0010
,
1001
0100
0010
0100
1001
0010
0100
0010
1000
0100
1000
0001
0110
1000
0010
0100
,
1001
0010
0001
0010
1100
0001
0010
0100
1010
0001
0100
0001
1100
0010
0100
0001
,
1010
0100
0001
0010
1001
0100
1000
0001
0110
0001
1000
0010
1100
0010
1000
0100
,
0011
1000
0010
0100
0011
1000
0100
0010
0101
1000
0001
0100
1010
0100
0010
0100
,
2002
0000
0010
0000
3103
0000
0220
0000
1000
0000
0001
0300
2232
0000
0010
0000
,
0010
3313
0110
1001
1000
0100
0011
0100
,
1002
0100
0110
0100
1010
1000
0110
1003
,
1001
0010
1010
0101
1000
0010
0101
1001
0010
1101
1000
0100
,
0021
0000
1000
0000
0001
0000
1130
0000
0101
0000
0010
0000
1001
0010
0100
0001
,
1010
0000
0110
0000
0001
0100
1000
0010
0101
0000
2012
0000
0000
0000
3003
0000
,
1001
0010
0100
1000
0001
0010
0100
1000
0001
0010
1100
0010
1001
0010
0100
0011
,
1000
0100
0011
0100
1000
0010
0001
0110
1000
0001
0110
0001
1100
0010
1000
0110
,
1001
0010
0100
1010
0001
0100
1010
0100
0011
1000
0010
1000
0101
0010
0100
0011
,
1000
0000
0000
0000
0010
0000
0000
0000
1100
0000
0000
0000
0001
0000
0000
0000
0010
0000
0000
0000
1001
0000
0000
0000
0100
0000
0000
0000
0010
0000
0000
0000
1001
0000
0000
0000
0100
0000
0000
0000
2022
3033
0000
0000
0000
0000
0000
0000
0000
0000
0000
0000
0000
0000
0000
0000
0101
0000
0000
0000
0010
0000
0000
0000
,
1001
0100
0010
0001
1000
0100
0010
0001
1000
0100
1010
0100
0001
1010
0101
0010
,
1000
0100
1010
0101
0010
1000
0100
0010
0101
1000
0011
0100
0010
1100
0001
0010
,
1001
0100
0011
0100
1000
0110
0001
0010
1100
0001
0110
0001
1000
0101
0010
1000
,
0011
0000
0000
0000
0100
0000
0000
0000
0010
0000
0000
0000
1000
0000
0000
0000
0101
0000
0000
0000
1000
0000
0000
0000
0010
0000
0000
0000
0100
0000
0000
0000
1001
0000
0000
0000
0010
0000
0000
0000
2202
3303
0000
0000
0000
0000
0000
0000
0000
0000
0000
0000
0000
0000
0000
0000
1001
0000
0000
0000
0100
0000
0000
0000
,
0011
0100
0010
1000
0011
0100
0010
1100
0001
0010
0101
1000
0011
0100
1001
0010
,
0100
0011
1000
0100
1001
0010
0100
0011
1000
0010
1100
0001
0110
1000
0010
0100
,
0001
0110
1000
0100
1001
0010
0100
0010
1000
0001
1100
0010
0100
0011
1000
0010
,
0101
1000
0010
0100
0010
1000
0101
1000
0010
1100
0001
0010
1100
0010
0101
0010
,
1000
0001
0110
0001
0100
0011
1000
0001
0110
0001
0100
0011
1000
0010
0101
0010
,
1000
0001
1100
0011
1100
0001
0100
0001
1010
0100
0010
1001
0100
0010
1001
0100
,
0001
0010
1001
0010
0100
0010
0101
0010
1000
0010
1100
0010
0001
0010
1000
0100
,
1001
0110
1001
0100
0010
1000
0101
1000
0010
1100
0011
0100
1001
0010
0100
0010
,
1001
0100
0010
0001
1010
0100
0010
0001
1000
0100
0011
0100
1001
0100
0010
1100
,
0001
0010
1100
0010
0001
0100
1000
0110
0001
1000
0110
1000
0011
0100
0001
0110
,
1001
0100
0010
0101
1000
0010
0101
0010
1100
0011
0100
0001
1010
0100
0011
1100
,
0001
0000
0000
0000
0100
0000
0000
0000
0011
0000
0000
0000
1000
0000
0000
0000
0110
0000
0000
0000
1001
0000
0000
0000
0010
0000
0000
0000
0100
0000
0000
0000
1001
0000
0000
0000
0010
0000
0000
0000
2202
3303
0000
0000
0000
0000
0000
0000
0000
0000
0000
0000
0000
0000
0000
0000
1010
0000
0000
0000
0100
0000
0000
0000
,
1001
0010
0100
1000
0101
0010
0100
1000
0001
0010
0101
0010
1000
0101
1010
0100
,
0001
0010
0101
1010
0100
0001
0010
0100
1010
0001
1100
0010
0100
0011
1000
0110
,
1001
0010
1100
0010
0001
0110
1000
0100
0011
1000
0110
1000
0001
1010
0100
0011
,
1100
0000
0000
0000
0001
0000
0000
0000
0110
0000
0000
0000
1000
0000
0000
0000
0101
0000
0000
0000
0010
0000
0000
0000
0001
0000
0000
0000
0100
0000
0000
0000
1001
0000
0000
0000
0100
0000
0000
0000
2022
3033
0000
0000
0000
0000
0000
0000
0000
0000
0000
0000
0000
0000
0000
0000
1001
0000
0000
0000
0010
0000
0000
0000
,
1100
0011
0100
0001
1100
0010
0100
0011
1000
0100
1010
0001
1100
0010
1001
0100
,
0010
1100
0001
0010
1001
0100
0010
1100
0001
0100
0011
1000
0110
0001
1100
0010
,
1000
0110
0001
0010
1001
0100
1000
0110
0001
1000
0011
0100
0010
1100
0001
0100
,
1010
0001
0100
0010
1100
0001
1010
0001
0100
0011
1000
0100
0011
0100
1010
0100
,
0001
1000
0110
1000
0011
1100
0001
1000
0110
1000
0011
1100
0001
0100
1010
0100
,
0001
1000
0011
1100
0011
1000
0010
1000
0101
0010
0100
1001
0010
0100
1001
0010
,
1000
0100
1001
0100
0010
0100
1010
0100
0001
1100
0011
0100
1000
0110
0001
0010
,
1001
0110
1001
0010
0100
0011
1100
0001
0010
1100
0011
0100
1001
0110
0001
1100
,
0010
1001
0101
1100
0011
0110
1010
0101
,
1100
1001
0011
0101
1010
1001
0110
1100
,
1001
0101
0110
1001
0101
1100
1010
0110
,
1001
0101
0110
1010
0101
1001
1010
0100
,
1010
0110
1001
1100
1001
0110
1100
0011
,
0101
1010
0101
0110
1001
1010
0101
1100
,
0011
1010
1100
0110
1001
0110
1010
1100
,
0110
0101
1010
0110
1001
0101
1010
1001
,
0110
1111
0000
0110
1111
0000
0110
1111
,
0000
0000
0110
0000
1111
0000
0000
0000
0110
0000
0000
0000
2112
0000
0000
3003
,
1001
1111
0000
1001
1111
0000
1001
1111
,
0000
1001
1111
0000
1001
0001
1221
0000
,
0000
0000
0000
0000
,
0000
0000
0000
0330
2002
0000
0000
0000
,
0000
0000
0000
0000
,
0000
0000
0000
0000
,
0000
0000
0000
0000
,
0000
0000
0000
0000
,
0000
0000
0000
0000
,
0000
3003
0000
0000
;
