#TITLE:It Dwells in Me;
#SUBTITLE:;
#ARTIST:All That Remains;
#TITLETRANSLIT:;
#SUBTITLETRANSLIT:;
#ARTISTTRANSLIT:;
#CREDIT:;
#BANNER:;
#BACKGROUND:;
#LYRICSPATH:;
#CDTITLE:;
#MUSIC:It Dwells in Me.ogg;
#OFFSET:-0.081;
#SAMPLESTART:42.632;
#SAMPLELENGTH:12.000;
#SELECTABLE:YES;
#BPMS:0.000=175.980;
#STOPS:;
#BGCHANGES:;
// cache tags:
#FIRSTBEAT:8.000;
#LASTBEAT:559.500;
#SONGFILENAME:Songs/SSSC Pack 2/It Dwells in Me - [Mad Matt]/It Dwells in Me.sm;
#HASMUSIC:1;
#HASBANNER:0;
#MUSICLENGTH:194.194;
// end cache tags

//---------------dance-single - Blank----------------
#NOTES:
     dance-single:
     Blank:
     Challenge:
     12:
     1.000,1.000,0.417,0.536,1.000,1388.000,81.000,104.000,21.000,9.000:

0000
0000
0000
0000
,
0000
0000
0000
0000
,
0011
0000
0001
0000
1000
0100
0010
0001
0010
0000
0100
0000
1000
0010
0100
0001
,
0100
0000
0000
0000
0010
0000
0000
0000
1000
0000
0000
0000
0001
0000
0000
0000
0020
0000
0000
0000
0230
0000
0300
0000
0020
0030
0000
0000
0002
0000
0003
0000
,
2000
3000
0010
0000
0100
0000
0010
0000
1000
0000
0010
0000
0100
0000
0001
0000
0100
0000
0010
0000
0100
0000
0001
0000
1000
0000
0100
0000
0010
0000
0001
0000
,
1000
0100
0010
0100
1000
0100
0010
0001
0010
0100
0010
0001
1000
0010
0100
0001
,
1000
0000
0010
0000
0100
0001
0100
0001
0010
0000
0100
0000
1000
0010
1000
0010
,
0100
0000
0000
0000
0001
0000
0000
0000
0010
0000
0000
0000
0100
0000
0000
0000
2000
0000
0000
0000
3002
0000
0003
0000
0200
0300
0000
0000
0020
0000
0030
0000
,
0200
0300
0000
0000
0001
0000
0000
0000
1000
0000
0001
0000
0010
0000
0001
0000
0100
0000
0000
0000
0010
0000
0000
0000
1000
0000
0001
0000
0100
0000
0001
0000
,
0010
0000
0000
0000
0100
0000
0000
0000
1000
0000
0000
0000
0100
0000
0000
0000
0020
0000
0000
0000
0032
0000
0003
0000
2000
3000
0000
0000
0020
0000
0030
0000
,
0200
0300
0001
0000
0100
0000
0001
0000
1000
0000
0010
0000
1000
0000
0010
0000
0100
0000
0001
0000
1000
0000
0100
0000
0010
0000
0001
0000
0010
0000
0100
0000
,
1000
0001
0010
0001
0010
0100
1000
0100
1000
0001
0100
0010
1000
0010
0100
0001
,
1000
0000
0010
0000
0100
0001
0100
0010
1000
0000
0001
0000
1000
0100
0010
0001
,
1000
0000
0000
0011
0000
0000
1001
0000
0000
1100
0000
0000
1001
0000
0000
1000
0100
1000
0100
0000
0000
0010
0000
0000
,
0002
0000
0000
0200
0000
0000
1010
0000
,
0303
0010
1000
0100
0010
0001
0010
0100
,
2000
0000
0000
0200
0000
0000
0011
0000
,
3300
0000
0010
0001
0010
0000
0100
0000
1000
0001
1000
0001
1000
0000
0010
0000
,
2000
0000
0000
0002
0000
0000
0110
0000
,
3003
1000
0100
0010
0001
1000
0010
1000
,
2002
0000
0000
3003
2020
0000
0000
0000
0000
0000
0000
3030
0202
0000
0000
0303
,
0010
1000
0010
1000
0001
0100
0001
0100
0010
0100
0001
1000
0010
1000
0100
0010
,
0001
0000
0010
0000
0100
1000
0001
0100
0010
0000
0100
0000
0010
0100
0001
1000
,
0100
0000
0000
0000
0010
0000
0000
0000
0100
0000
0000
0000
1000
0000
0000
0000
0002
0000
0000
0000
0203
0000
0300
0000
0020
0030
0000
0000
0200
0000
0300
0000
,
0002
0003
0000
0000
1000
0000
0000
0000
0001
0000
0010
0000
0100
0000
0010
0000
0001
0000
0000
0000
1000
0000
0000
0000
0010
0000
0100
0000
0001
0000
0100
0000
,
0010
0000
0000
0000
1000
0000
0000
0000
0001
0000
0000
0000
0010
0000
0000
0000
0200
0000
0000
0000
2300
0000
3000
0000
0002
0003
0000
0000
0200
0000
0300
0000
,
0020
0030
1000
0000
0001
0000
1000
0000
0010
0000
1000
0000
0001
0000
1000
0000
0100
0000
1000
0000
0001
0000
1000
0000
0100
0000
1000
0000
0001
0000
1000
0000
,
0100
0010
0001
1000
0001
0010
0001
1000
0001
0100
0001
1000
0001
0100
0001
0010
,
0100
0000
1000
0000
0010
0100
0010
0100
0001
0000
1000
0000
0100
0010
0100
0010
,
0001
0000
0000
0000
1000
0000
0000
0000
0100
0000
0000
0000
0010
0000
0000
0000
0002
0000
0000
0000
2003
0000
3000
0000
0020
0030
0000
0000
0200
0000
0300
0000
,
0020
0030
0000
0000
1000
0000
0000
0000
0001
0000
1000
0000
0001
0000
1000
0000
0100
0000
0000
0000
0010
0000
0000
0000
0001
0000
1000
0000
0001
0000
1000
0000
,
0010
0000
0000
0000
0100
0000
0000
0000
0001
0000
0000
0000
0010
0000
0000
0000
0200
0000
0000
0000
2300
0000
3000
0000
0002
0003
0000
0000
0200
0000
0300
0000
,
0002
0003
0010
0000
0001
0000
1000
0000
0010
0000
1000
0000
0001
0000
0010
0000
0001
0000
1000
0000
0010
0000
1000
0000
0001
0000
0010
0000
0100
0000
1000
0000
,
0001
0100
0001
1000
0100
1000
0001
0100
0001
1000
0100
1000
0001
0100
0010
1000
,
0001
0000
0100
0000
0001
1000
0010
0100
0001
0000
1000
0000
0001
0010
0100
1000
,
0001
0000
0000
1010
0000
0000
1001
0000
0000
0101
0000
0000
0101
0000
0000
0100
0010
0100
0001
0000
0000
0100
0000
0000
,
0020
0000
0000
0200
0000
0000
1001
0000
,
0330
0100
0001
0100
0010
1000
0100
0010
,
0002
0000
0000
0020
0000
0000
1100
0000
,
0033
0000
1000
0001
1000
0000
0100
0000
0010
0001
0010
0001
0010
0000
0100
0000
,
2000
0000
0000
0020
0000
0000
0101
0000
,
3030
0010
1000
0001
0100
0001
0010
0001
,
0220
0000
0000
0330
2200
0000
0000
0000
0000
0000
0000
3300
2002
0000
0000
3003
,
1000
0100
0010
0001
1000
0100
1000
0100
1000
0001
0100
0010
1000
0001
1000
0001
,
0010
0100
1000
0001
1000
0010
1000
0001
0100
0001
1000
0100
0010
0001
1000
0100
,
1000
0001
0100
0010
0100
0001
1000
0010
0100
0001
1000
0100
0010
0001
1000
0001
,
0100
0010
1000
0010
0100
0001
1000
0010
1000
0001
0100
0001
1000
0100
1000
0001
,
0010
0100
1000
0010
1000
0001
0010
0100
1000
0001
0100
0001
1000
0010
0100
0001
,
1000
0010
0100
0001
1000
0001
1000
0010
0100
0001
1000
0100
1000
0001
1000
0100
,
0010
0001
0010
0100
1000
0001
0010
0001
0010
0100
1000
0100
1000
0001
1000
0010
,
0100
0001
0100
0010
1000
0001
1000
0100
1000
0001
0010
0100
0010
0001
1000
0010
,
0100
0001
1000
0100
1000
0001
1000
0001
0010
0100
1000
0001
0010
0001
1000
0010
,
1000
0001
0100
0010
0100
0000
0000
0000
0000
0000
0011
0000
0000
0000
1001
0000
,
0000
0000
1100
0000
0000
0000
1001
0000
0001
0100
0010
1000
0010
0000
0100
0000
,
0010
1000
0010
0100
0001
0000
0010
0000
0100
0000
1000
0000
0100
0000
0010
0001
,
1000
1010
0000
0110
0000
0101
0000
0000
,
1000
0100
0010
0100
1000
0000
0000
0000
0000
0000
1001
0000
0000
0000
0101
0000
,
0000
0000
0110
0000
0000
0000
0101
0000
0001
0010
0100
1000
0100
0000
0010
0000
,
0100
1000
0100
0010
0001
0000
0000
0000
1000
0000
0001
0000
0200
0000
0000
0000
,
0300
0000
0000
0010
0100
0010
0100
0000
0000
0010
0000
0000
1000
0000
0000
0001
0000
0000
0010
0000
0000
0100
0000
0000
,
2000
0000
0000
0000
0000
0000
0000
0000
3002
0000
0000
0000
0000
0000
0000
0000
0203
0000
0000
0000
0000
0000
0300
0010
1000
0000
0000
0000
0002
0000
0000
0000
,
0000
0000
0000
0000
0000
0000
0013
0000
0000
0100
0000
0000
0010
0000
0000
0000
0000
0000
0002
0000
0000
0000
0000
0000
0000
0000
0000
0000
0000
0000
0000
0000
0000
0000
0000
0000
0000
0000
0000
0000
0000
0000
1003
0000
0100
0000
1000
0000
,
0200
0000
0000
0000
0320
0000
0000
0032
,
0000
2003
0000
0000
,
3020
0000
0000
0000
0000
0000
0000
0000
1030
0001
0010
0100
1000
0100
0010
0001
,
1000
0001
0100
0010
0100
0010
1000
0001
1000
0100
0010
0100
1000
0001
0100
0001
,
1000
0001
0010
0001
1000
0010
0100
0001
1000
0001
1000
0100
0010
0001
0010
0100
,
1000
0001
1000
0001
0100
0010
0100
0001
1000
0010
1000
0001
1000
0001
0010
0100
,
2000
0000
0000
3020
0000
0000
2030
0000
,
3002
0000
0000
0000
0000
0000
0000
0000
0003
0020
0000
0000
0000
0000
0000
0000
0000
0000
0230
0000
0000
0000
0000
0000
0320
0000
0000
0000
0000
0000
0000
0000
0030
0002
0000
0000
0000
0000
0000
0000
0000
0000
2003
0000
0000
0000
0000
0000
,
3001
0100
0010
0100
0001
1000
0100
0010
0001
0100
0010
1000
,
0001
1000
0100
0010
0001
1000
0002
0000
0000
0000
0000
0000
,
1003
0100
1000
0001
1000
0100
1000
0001
0100
0010
0100
0001
0100
0010
0100
0001
,
1000
0100
1000
0001
1000
0100
1000
0001
0010
0100
0010
0001
0010
0100
0010
0001
,
1000
0100
1000
0100
0010
0001
0010
0001
1000
0010
1000
0010
0100
0001
0100
0001
,
2000
0000
0000
3020
0000
0000
0430
0000
0000
0000
0000
0000
0000
0000
0000
0000
,
0301
1000
0001
1000
0100
1000
0100
1000
0001
1000
0001
1000
0010
1000
0010
1000
,
0010
0100
0010
0100
0001
1000
0001
1000
0100
1000
0100
0010
0001
0010
0100
1000
,
0001
0100
0010
2000
0000
3001
0400
0000
,
0000
0000
0000
0000
0000
0000
0000
0000
0000
0000
0000
0000
0000
0000
0000
0300
,
0001
0100
0001
0100
0010
0100
0010
0100
0001
0100
0001
0100
0010
0100
0010
0100
,
0001
1000
0100
0010
0001
1000
0100
1000
0001
0100
0010
1000
0010
0100
0001
1000
,
0002
0000
0000
0000
0000
0000
0000
0000
4000
0000
0000
0000
0000
0003
0000
3000
,
0001
0100
0010
1000
0001
0100
0010
1000
0001
0010
0100
1000
0001
0010
0100
1000
,
0001
1000
0010
0100
0001
0000
0000
0000
0000
0000
0011
0000
0000
0000
0110
0000
,
0000
0000
1100
0000
0000
0000
1001
0000
0001
0010
0100
0010
0001
0000
0000
0000
,
1000
0010
0100
0010
1000
0000
0000
0000
0000
0000
1010
0000
0000
0000
1001
0000
,
0000
0011
0001
1000
0100
0010
0100
1000
,
0001
0100
0010
1000
0010
0000
0000
0000
0000
0000
1001
0000
0000
0000
0101
0000
,
0000
0000
0110
0000
0000
0000
0101
0000
1000
0010
0100
0001
1000
0000
0000
0000
,
0001
1000
0100
0010
0100
0000
0000
0000
0000
0000
0110
0000
0000
0000
1001
0000
,
1000
0010
0100
0002
0000
1003
0100
1000
,
0001
0010
0001
1000
0100
0000
0000
0000
0000
0000
0110
0000
0000
0000
0011
0000
,
0000
0000
1001
0000
0000
0000
1010
0000
0100
0010
0100
0001
1000
0000
0000
0000
,
0100
0010
0100
1000
0001
0000
0000
0000
0000
0000
0011
0000
0000
0000
1100
0000
,
0100
0010
0001
1000
0100
1000
0001
1000
,
0010
0100
0001
1000
0001
0000
0000
0000
0000
0000
1001
0000
0000
0000
1100
0000
,
0000
0000
0110
0000
0000
0000
0011
0000
1000
0100
1000
0001
0010
0000
0000
0000
,
0001
0100
0001
1000
0010
0000
0000
0000
0000
0000
0110
0000
0000
0000
1001
0000
,
1000
0010
0100
0002
0000
1003
0100
1000
,
0100
1000
0100
0010
0001
0000
0000
0000
0000
0000
1100
0000
0000
0000
0110
0000
,
0000
0000
1100
0000
0000
0000
1010
0000
0100
0010
0100
0001
1000
0000
0000
0000
,
0010
0100
0001
1000
0100
0000
0000
0000
0000
0000
0011
0000
0000
0000
1001
0000
,
0000
0001
1000
0001
1000
0100
1000
0001
,
0100
0010
1000
0001
1000
0000
0000
0000
0000
0000
0011
0000
0000
0000
1100
0000
,
0000
0000
0110
0000
0000
0000
1001
0000
1000
0100
0010
0001
0010
0000
0000
0000
,
0001
1000
0001
0100
0010
0000
0000
0000
0000
0000
0101
0000
0000
0000
1010
0000
,
1000
0100
0010
0001
0010
0100
1000
0100
1000
0001
0100
0001
1000
0100
1000
0001
,
2000
0000
0000
0200
0000
0000
0011
0000
,
3300
1000
0001
0100
0010
1000
0100
0010
,
0002
0000
0000
0200
0000
0000
1010
0000
,
0303
0000
1000
0010
1000
0000
0100
0000
0010
0001
0010
0001
0010
0000
0100
0000
,
2000
0000
0000
0002
0000
0000
0110
0000
,
3003
1000
0100
0010
0001
1000
0010
1000
,
2020
0000
0000
3030
0220
0000
0000
0000
0000
0000
0000
0330
2002
0000
0000
3003
,
0100
0001
0100
0001
1000
0100
0010
0001
1000
0001
1000
0010
0100
0001
1000
0001
,
0100
0010
0100
0001
0100
0010
1000
0001
1000
0100
0010
0001
0010
0100
0010
0001
,
1000
0010
1000
0001
0100
0010
0100
0001
0100
0001
1000
0100
1000
0001
0010
0100
,
1000
0100
0010
0001
1000
0010
0100
0001
0100
0010
1000
0010
1000
0100
1000
0001
,
0010
0100
1000
0001
1000
0001
0100
0010
1000
0001
1000
0001
0100
0010
0100
0001
,
1000
0100
1000
0001
0100
0001
1000
0010
1000
0001
0010
0001
1000
0100
0010
0001
,
1000
0010
1000
0001
0100
0010
0100
0001
1000
0001
1000
0100
0010
0001
1000
0010
,
0100
0010
0100
0001
0100
0010
1000
0001
1000
0100
1000
0001
0010
0100
1000
0001
,
1000
0010
0100
0001
1000
0100
1000
0001
0100
0010
1000
0001
1000
0010
0100
0001
,
4000
0000
0000
0000
3001
0100
0001
0100
0001
0000
1000
0100
1000
0100
1000
0100
,
1000
0000
0010
0100
0010
0100
0010
0100
0010
0000
1000
0000
0100
0000
0020
0000
,
MM0M
0030
0001
1000
0001
1000
0001
1000
0001
0000
0010
0100
0010
0100
0010
0100
,
0010
0000
0001
0100
0001
0100
0001
0100
0001
0000
1000
0000
0100
0000
2000
0000
,
0MMM
3000
0001
0100
0010
1000
0010
1000
0010
0000
1000
0100
0010
0001
0010
0001
,
0010
0000
0001
0100
0010
0100
0001
0100
0001
0000
1000
0000
0010
0000
0200
0000
,
M0MM
0300
0001
0010
0100
1000
0001
1000
0001
0000
0100
0001
1000
0100
1000
0100
,
1000
0000
0001
0010
0100
1000
0001
1000
0040
0000
0000
0000
0000
0000
0000
0000
,
MM0M
0000
1030
0001
0100
0010
1000
0001
1000
0000
0001
1000
0100
0010
0100
1000
,
0001
0000
1000
0001
0010
0001
1000
0010
0100
0000
0001
0000
0100
0000
0020
0000
,
MM0M
0030
1000
0010
0100
0001
1000
0001
0010
0000
0100
1000
0001
1000
0010
0100
,
0001
0000
1000
0100
0010
0001
1000
0001
0100
0000
0010
0000
1000
0000
0200
0000
,
M0MM
0300
0010
0001
0010
0100
1000
0100
1000
0000
0001
0100
0001
0100
0010
1000
,
0010
0000
0100
0001
1000
0100
0010
0100
1000
0000
0001
0000
0100
0000
0020
0000
,
MM0M
0030
1000
0010
0100
0001
0100
0001
1000
0000
0001
0010
0100
1000
0100
1000
,
0001
0000
0010
0001
1000
0010
0100
0001
1000
0000
1100
0000
0110
0000
0011
0000
;
