#TITLE:Deck The Halls;
#SUBTITLE:;
#ARTIST:Speed All Stars;
#TITLETRANSLIT:;
#SUBTITLETRANSLIT:;
#ARTISTTRANSLIT:;
#CREDIT:;
#BANNER:Deck The Halls - BN.png;
#BACKGROUND:Deck The Halls - BG.png;
#LYRICSPATH:;
#CDTITLE:;
#MUSIC:Speed All Stars - Deck The Halls.mp3;
#OFFSET:-10.880;
#SAMPLESTART:11.240;
#SAMPLELENGTH:12.000;
#SELECTABLE:YES;
#BPMS:0.000=170.800;
#STOPS:1.000=2.500
,6.000=0.220
,6.500=0.100
,7.000=0.360
,16.000=1.160
,16.500=0.200
,17.000=0.080
,78.000=0.340
,79.000=0.140
,79.500=0.180
,80.000=0.600
,80.500=0.000
;
#BGCHANGES:;
// cache tags:
#FIRSTBEAT:2.000;
#LASTBEAT:142.500;
#SONGFILENAME:Songs/DDRExtreme.co.uk presents ChristmasMix/Deck The Halls/Deck The Halls.sm;
#HASMUSIC:1;
#HASBANNER:1;
#MUSICLENGTH:67.500;
// end cache tags

//---------------dance-single - ----------------
#NOTES:
     dance-single:
     :
     Hard:
     7:
     0.478,0.475,0.044,0.119,0.000,215.000,3.000,8.000,0.000,0.000:
0000
0000
0000
0000
1000
0001
1000
0001
,
0020
0000
0000
0000
0130
1000
0010
0000
,
1000
0000
1000
0000
0100
1000
0010
0000
,
0100
0010
1000
0100
1000
0100
0010
0000
,
0001
1000
0010
0000
0002
0000
0000
0000
,
1003
0001
0100
0000
0010
0000
0010
0000
,
0001
1000
0100
1000
0100
1000
0001
0000
,
0100
0001
0100
0010
2000
0000
0000
0000
,
3100
0010
1000
0100
,
1000
0001
0010
0000
0100
0000
0001
1000
,
0010
0100
0001
0100
0010
0000
0100
0000
,
1000
0001
1000
0100
0002
0000
0000
0000
,
1003
0000
0010
1000
0001
0000
1000
0001
,
1000
0000
0000
0000
0010
1000
0010
0000
,
0100
0001
0100
0010
0100
0000
0001
0000
,
1000
0100
1000
0000
0100
0001
0100
0000
,
1000
0001
0100
0010
0001
0000
0001
0000
,
1000
0001
1000
0000
0002
0000
1003
0000
,
0010
0000
0100
0000
1000
0000
0010
1000
,
0020
0000
0000
0000
0130
0000
0001
0100
,
1000
0100
0010
0001
1000
0001
0010
0100
,
0010
1000
0100
0001
1000
0100
0010
0001
,
1000
0010
0001
0100
1000
0010
1000
0001
,
1000
0001
0000
0100
0000
0010
0000
1000
,
0100
0010
0001
0100
1000
0001
1000
0001
,
0010
0100
0001
1000
0100
0010
1000
0001
,
1000
0001
0010
0100
0001
0010
0001
1000
,
0001
0100
0000
0010
0000
0100
0000
0001
,
1000
0010
0001
0010
0100
1000
0001
0100
,
0010
1000
0100
0010
1000
0001
1000
0001
,
1000
0010
0100
0010
1000
0100
0001
0100
,
0010
0001
0000
0010
0000
0010
0000
1000
,
0000
1001
0001
1000
0100
0010
1000
0001
,
1000
1001
0001
1000
0010
1000
0100
1000
,
0100
0010
1000
0100
0010
0001
0100
1000
,
0000
2002
0000
0000
0000
3003
0000
0000
;

//---------------dance-single - Copied from----------------
#NOTES:
     dance-single:
     Copied from:
     Easy:
     4:
     0.309,0.264,0.030,0.119,0.000,136.000,2.000,8.000,0.000,0.000:
0000
0000
1000
0001
,
0020
0000
0000
0000
0130
1000
0010
0000
,
1000
1000
0100
0010
,
0001
1000
0001
0010
,
0001
1000
0010
0000
0002
0000
0000
0000
,
1003
0100
0010
0010
,
0001
0010
0010
0001
,
0100
0100
2000
0000
,
3100
0010
1000
0100
,
1000
0010
0100
0001
,
0010
0001
0010
0100
,
1000
1000
0002
0000
,
0003
0010
0001
1000
,
1000
0000
0010
0010
,
0100
0100
0100
0001
,
1000
0001
0100
0100
,
1000
0100
0001
0001
,
1000
1000
0002
1003
,
0010
0100
1000
0010
,
0020
0000
0000
0000
0130
0000
0001
0100
,
1000
0100
0000
0001
0000
0001
0000
0100
,
0000
1000
0000
0001
0000
0100
0000
0001
,
0000
0010
0000
0100
0000
0010
0000
0001
,
0000
0001
0000
0100
0000
0010
0000
1000
,
0000
0010
0000
0100
0000
0001
0000
0001
,
0000
0100
0000
1000
0000
0010
0000
0001
,
0000
0001
0000
0100
0000
0010
0000
1000
,
0000
0100
0000
0010
0000
0100
0000
0001
,
0000
0010
0000
0010
0000
1001
0000
0100
,
0000
1000
0000
0010
0000
0001
0000
0001
,
0000
0010
0000
0010
0000
0100
0000
0100
,
0000
0001
0000
0010
0000
0010
0000
1000
,
0000
0010
0000
1000
0000
0010
0000
0001
,
0000
0001
0000
0001
0000
1000
0000
1000
,
0000
0001
0000
0100
0000
0001
0000
1000
,
0000
2002
0000
0000
0000
3003
0000
0000
;

//---------------dance-single - Copied from Copied f----------------
#NOTES:
     dance-single:
     Copied from Copied f:
     Medium:
     5:
     0.375,0.317,0.030,0.119,0.000,167.000,2.000,8.000,0.000,0.000:
0000
0000
1000
0001
,
0020
0000
0000
0000
0130
1000
0010
0000
,
1000
0001
1000
0000
0100
0000
0010
0000
,
0001
0000
1000
0010
0001
0000
0010
0000
,
0001
1000
0010
0000
0002
0000
0000
0000
,
1003
0001
0100
0000
0010
0000
0010
0000
,
0001
0100
0010
0000
0010
0000
0001
0000
,
0100
0001
0100
0000
2000
0000
0000
0000
,
3100
0001
0010
0000
1000
0000
0100
0000
,
1000
0001
0010
0000
0100
0000
0001
0000
,
0010
1000
0001
0000
0010
0000
0100
0000
,
1000
0010
1000
0000
0002
0000
0000
0000
,
0013
1000
0010
0000
0001
0000
1000
0000
,
1000
0100
0010
0000
0010
0000
0010
0000
,
0100
1000
0100
0000
0100
0000
0001
0000
,
1000
0100
0001
0000
0100
1000
0100
0000
,
1000
0100
0001
0001
,
1000
0001
1000
0000
0002
0000
1003
0000
,
0010
0100
1000
0010
,
0020
0000
0000
0000
0130
0000
0001
0100
,
1000
0100
0000
0001
1000
0001
0000
0100
,
0000
1000
0000
0001
0010
0100
0000
0001
,
0000
0010
0000
0100
1000
0010
0000
0001
,
0000
0001
0000
0100
0001
0010
0000
1000
,
0000
0010
1000
0100
0000
0001
0000
0001
,
0000
0100
0001
1000
0000
0010
0000
0001
,
0000
0001
1000
0100
0000
0010
0100
1000
,
0000
0100
0000
0010
0000
0100
0000
0001
,
0000
0010
1000
0010
0000
1001
0000
0100
,
0000
1000
0100
0010
0000
0001
0000
0001
,
0000
0010
1000
0010
0000
0100
0000
0100
,
0000
0001
1000
0010
0000
0010
0000
1000
,
0000
0010
0001
1000
0000
0010
0000
0001
,
0000
0001
1000
0001
0000
1000
0000
1000
,
0000
0001
0000
0100
0000
0001
0000
1000
,
0000
2002
0000
0000
0000
3003
0000
0000
;
