#TITLE:Rise Up;
#SUBTITLE:;
#ARTIST:dbk2;
#TITLETRANSLIT:;
#SUBTITLETRANSLIT:;
#ARTISTTRANSLIT:;
#CREDIT:Aoreo;
#BANNER:../Banner.png;
#BACKGROUND:../bg.png;
#LYRICSPATH:;
#CDTITLE:;
#MUSIC:Rise Up.ogg;
#OFFSET:-0.241;
#SAMPLESTART:85.765;
#SAMPLELENGTH:15.000;
#SELECTABLE:YES;
#DISPLAYBPM:300.000;
#BPMS:0.000=240.000,224.000=260.000,392.000=280.000,440.000=300.000;
#STOPS:;
#BGCHANGES:;
// cache tags:
#FIRSTBEAT:32.000;
#LASTBEAT:454.000;
#SONGFILENAME:Songs/Tachyon Epsilon/Rise Up - [Aoreo]/Rise Up.sm;
#HASMUSIC:1;
#HASBANNER:1;
#MUSICLENGTH:111.997;
// end cache tags

//---------------dance-single - Aoreo----------------
#NOTES:
     dance-single:
     Aoreo:
     Easy:
     17:
     1.000,1.000,0.000,0.018,1.000,852.000,0.000,2.000,0.000,0.000:






0000
0000
0000
0000
,
0000
0000
0000
0000
,
0000
0000
0000
0000
,
0000
0000
0000
0000
,
0000
0000
0000
0000
,
0000
0000
0000
0000
,
0000
0000
0000
0000
,
0000
0000
0000
0000
,
1000
0100
1000
0000
0001
0000
0100
0000
,
0010
0100
0001
0000
0010
0100
1000
0010
,
0100
0001
0100
0000
0010
0000
1000
0000
,
0001
0100
0010
0000
1000
0001
0010
0100
,
1000
0010
0100
0000
0001
0000
0100
0000
,
0010
1000
0001
0000
0100
0001
0010
0100
,
1000
0001
0100
0000
0010
0000
0100
0000
,
0001
0000
0000
1000
0100
1000
0001
0000
0000
0010
0000
0000
,
0001
0100
0010
0000
0100
0000
0001
0000
,
1000
0010
0100
0000
0001
0010
0100
1000
,
0001
0100
0010
0000
0100
0000
0001
0000
,
0100
0010
1000
0000
0001
1000
0100
0010
,
0001
1000
0010
0000
0100
0000
0001
0000
,
0100
0000
0000
0001
0000
0000
1000
0000
0000
0000
0000
0000
0010
0000
0000
0000
0000
0000
1000
0000
0100
0000
0010
0000
,
0001
0000
0000
1000
0010
0100
0001
0000
0000
1000
0001
0010
,
0100
1000
0010
0100
,
0001
0100
0001
1000
0010
0100
0001
1000
0001
0010
0100
1000
0100
0010
0001
1000
,
0001
0100
0010
0100
0001
1000
0001
0010
0100
1000
0001
1000
0100
0010
0001
1000
,
0001
0100
0010
0100
0001
1000
0001
0010
0100
1000
0001
1000
0100
0010
0001
1000
,
0001
0100
0010
1000
0010
0100
0001
1000
0001
0010
0100
1000
0100
0010
0001
1000
,
0001
0100
0001
0000
1000
0000
0100
0000
,
0010
0100
1000
0000
0010
0100
0001
0010
,
0100
1000
0100
0000
0010
0000
0001
0000
,
1000
0100
0010
0000
0001
1000
0010
0100
,
0001
0010
0100
0000
1000
0000
0100
0000
,
0010
0001
1000
0000
0100
1000
0010
0100
,
0001
1000
0100
0000
0010
0000
0100
0000
,
1000
0000
0000
0001
0100
0001
1000
0000
0000
0010
0000
0000
,
0100
0001
1000
0100
0010
0100
1000
0001
,
0100
0010
0100
0001
1000
0100
1000
0001
,
0010
0100
1000
0010
0100
0001
0010
0001
,
1000
0100
0010
0100
1000
0001
0100
0010
0100
0001
1000
0001
,
0100
0010
0100
0001
1000
0001
0010
0100
,
1000
0000
0001
0000
1000
0000
0100
0000
1000
0001
0010
0100
1000
0001
0100
0010
,
0100
0001
1000
0100
0010
0100
1000
0001
,
1000
0100
0010
0001
,
1000
0100
1000
0001
0010
0100
1000
0001
1000
0010
0100
0001
0100
0010
1000
0001
,
1000
0100
0010
0100
1000
0001
1000
0010
0100
0001
1000
0001
0100
0010
1000
0001
,
1000
0100
0010
0100
1000
0001
1000
0010
0100
0001
1000
0001
0100
0010
1000
0001
,
1000
0100
0010
0001
0010
0100
1000
0001
1000
0010
0100
0001
1000
0001
0010
0100
,
1000
0001
1000
0010
0100
0010
1000
0001
1000
0100
0010
0001
0010
0100
1000
0001
,
1000
0010
0100
0010
1000
0001
1000
0100
0010
0001
1000
0001
0010
0100
1000
0001
,
1000
0010
0100
0010
1000
0001
1000
0100
0010
0001
1000
0001
0010
0100
1000
0001
,
1000
0010
0100
0001
0100
0010
1000
0001
1000
0100
0010
0001
0010
0100
1000
0001
,
1000
0100
0000
0000
0000
0000
0000
0000
,
1000
0001
0100
0000
0000
0000
0000
0000
,
0001
0100
0000
0000
0010
0000
0000
0000
,
1000
0100
1000
0000
0001
0000
0000
0000
,
1000
0100
1000
0000
0001
0000
0100
0000
,
0010
1000
0100
0000
0010
0000
0001
0000
,
1000
0100
1000
0000
0001
0000
0100
0000
,
0010
0000
0100
0000
0001
0000
0000
0000
1000
0100
1000
0000
0001
0000
0100
0000
,
0010
1000
0100
0000
1000
0000
0001
0000
,
0010
0100
1000
0000
0001
0000
0100
0000
,
0001
1000
0100
0000
1000
0000
0010
0000
,
0100
0000
0000
0001
0010
0100
1000
0000
0000
0001
0000
0000
,
1000
0100
0010
0100
1000
0000
0001
0000
,
0100
0010
1000
0001
,
0010
0100
1000
0001
0100
0000
0010
1000
,
0100
0010
0100
1000
0001
0100
0010
0000
,
1000
0100
1000
0001
0010
0000
0100
1000
,
0001
0100
0010
0000
0100
0001
0010
0100
,
1000
1000
1000
1000
,
0001
1000
0010
0100
0010
1000
0010
0100
,
0001
0000
1000
0100
0010
0000
0100
0000
,
1000
0010
0100
0001
,
1000
0000
0100
1000
0010
0000
0100
0000
,
0001
0010
0100
1000
,
0001
0000
0100
0010
1000
0000
0100
0000
,
0010
0001
0100
0001
,
1000
0000
0100
1000
0010
0000
0100
0000
,
0001
0010
0100
1000
0010
0100
0001
1000
,
0100
0000
0010
0100
1000
0000
0010
0000
,
0100
0001
1000
0100
,
0010
0000
0001
0100
0010
0000
0100
0000
,
0001
0010
0100
1000
,
0010
0000
0100
0001
0010
0000
0100
0000
,
1000
0000
0010
0000
0100
0000
0001
1000
,
0100
0010
0100
1000
0010
0100
0001
1000
,
0001
0010
0100
1000
0001
0100
0010
1000
,
0001
1000
0100
0010
0100
1000
0001
1000
0010
0100
0010
1000
0001
0100
0010
1000
,
0001
1000
0100
0010
0100
1000
0001
0010
0100
0010
0001
1000
0001
0100
0010
1000
,
0010
0100
0001
1000
0001
0010
0100
0010
0001
1000
0100
0010
0100
1000
0001
1000
,
0010
0100
0010
1000
0001
1000
0010
0100
0001
1000
0001
0010
0100
0010
0001
1000
,
0100
1000
0001
1000
0010
0100
0010
1000
0001
0100
0010
1000
0001
1000
0100
0010
,
0100
1000
0001
1000
0100
0010
0001
1000
0001
0100
0010
0100
0001
1000
0010
0100
,
0001
1000
0001
0010
0100
1000
0001
0010
0100
0010
0001
1000
0001
0100
0010
1000
,
0001
1000
0010
0100
0001
1000
0001
0010
0100
1000
0001
1000
0100
0010
0001
1000
,
0001
0000
0000
0000
,
0000
0000
0000
0000
,
1000
0010
0100
0001
0010
0100
1000
0001
0100
0010
0100
0001
,
0010
0100
1000
0010
0100
0001
0010
0100
1000
0001
0100
0001
,
1000
0100
0010
0001
0100
0001
0010
0100
1000
0010
1000
0100
,
0010
0001
0100
0001
0010
0100
1000
0010
0100
0001
1000
0100
,
0010
0100
1000
0001
0100
0010
1000
0100
0010
0100
1000
0001
,
0100
0001
0010
0100
1000
0010
1000
0001
0100
0010
0100
0001
,
0010
0100
1000
0010
1000
0100
0010
0001
0100
0010
1000
0100
,
0010
0100
1000
0001
1000
0010
0100
0010
1000
0100
0010
0100
,
2000
0000
0000
0000
,
0000
0000
0000
0000
,
0000
0000
3000
0000
,
0000
0000
0000
0000
,
0001
1000
0100
1000
0001
0010
0100
0010
0001
1000
0100
1000
0001
0010
0100
1000
,
0001
0100
0010
1000
0001
0100
0001
1000
0010
1000
0001
0100
0010
1000
0001
1000
,
0200
0000
0000
0000
,
0000
1000
0300
0000
;

//---------------dance-single - Mad Matt----------------
#NOTES:
     dance-single:
     Mad Matt:
     Medium:
     19:
     1.000,1.000,0.000,0.018,1.000,884.000,0.000,2.000,0.000,0.000:








0000
0000
0000
0000
,
0000
0000
0000
0000
,
0000
0000
0000
0000
,
0000
0000
0000
0000
,
0000
0000
0000
0000
,
0000
0000
0000
0000
,
0000
0000
0000
0000
,
0000
0000
0000
0000
,
1000
0100
1000
0000
0001
0000
0100
0000
,
0010
0100
0001
0000
0010
0100
1000
0010
,
0100
0001
0100
0000
0010
0000
1000
0000
,
0001
0100
0010
0000
1000
0001
0010
0100
,
1000
0010
0100
0000
0001
0000
0100
0000
,
0010
1000
0001
0000
0100
0001
0010
0100
,
1000
0001
0100
0000
0010
0000
0100
0000
,
0001
0000
0000
1000
0100
1000
0001
0000
0000
0010
0000
0000
,
0001
0100
0010
0000
0100
0000
0001
0000
,
1000
0010
0100
0000
0001
0010
0100
1000
,
0001
0100
0010
0000
0100
0000
0001
0000
,
0100
0010
1000
0000
0001
1000
0100
0010
,
0001
1000
0010
0000
0100
0000
0001
0000
,
0100
0000
0000
0001
0000
0000
1000
0000
0000
0000
0000
0000
0010
0000
0000
0000
0000
0000
1000
0000
0100
0000
0010
0000
,
0001
0000
0000
1000
0010
0100
0001
0000
0000
1000
0001
0010
,
0100
1000
0010
0100
,
0001
0100
0001
1000
0010
0100
0001
1000
0001
0010
0100
1000
0100
0010
0001
1000
,
0001
0100
0010
0100
0001
1000
0001
0010
0100
1000
0001
1000
0100
0010
0001
1000
,
0001
0100
0010
0100
0001
1000
0001
0010
0100
1000
0001
1000
0100
0010
0001
1000
,
0001
0100
0010
1000
0010
0100
0001
1000
0001
0010
0100
1000
0100
0010
0001
1000
,
0001
0100
0001
0000
1000
0000
0100
0000
,
0010
0100
1000
0000
0010
0100
0001
0010
,
0100
1000
0100
0000
0010
0000
0001
0000
,
1000
0100
0010
0000
0001
1000
0010
0100
,
0001
0010
0100
0000
1000
0000
0100
0000
,
0010
0001
1000
0000
0100
1000
0010
0100
,
0001
1000
0100
0000
0010
0000
0100
0000
,
1000
0000
0000
0001
0100
0001
1000
0000
0000
0010
0000
0000
,
0100
0001
1000
0100
0010
0100
1000
0001
,
0100
0010
0100
0001
1000
0100
1000
0001
,
0010
0100
1000
0010
0100
0001
0010
0001
,
1000
0100
0010
0100
1000
0001
0100
0010
0100
0001
1000
0001
,
0100
0010
0100
0001
1000
0001
0010
0100
,
1000
0000
0001
0000
1000
0000
0100
0000
1000
0001
0010
0100
1000
0001
0100
0010
,
0100
0001
1000
0100
0010
0100
1000
0001
,
1000
0100
0010
0001
,
1000
0100
1000
0001
0010
0100
1000
0001
1000
0010
0100
0001
0100
0010
1000
0001
,
1000
0100
0010
0100
1000
0001
1000
0010
0100
0001
1000
0001
0100
0010
1000
0001
,
1000
0100
0010
0100
1000
0001
1000
0010
0100
0001
1000
0001
0100
0010
1000
0001
,
1000
0100
0010
0001
0010
0100
1000
0001
1000
0010
0100
0001
1000
0001
0010
0100
,
1000
0001
1000
0010
0100
0010
1000
0001
1000
0100
0010
0001
0010
0100
1000
0001
,
1000
0010
0100
0010
1000
0001
1000
0100
0010
0001
1000
0001
0010
0100
1000
0001
,
1000
0010
0100
0010
1000
0001
1000
0100
0010
0001
1000
0001
0010
0100
1000
0001
,
1000
0010
0100
0001
0100
0010
1000
0001
1000
0100
0010
0001
0010
0100
1000
0001
,
1000
0100
0000
0000
0000
0000
0000
0000
,
1000
0001
0100
0000
0000
0000
0000
0000
,
0001
0100
0000
0000
0010
0000
0000
0000
,
1000
0100
1000
0000
0001
0000
0000
0000
,
1000
0100
1000
0000
0001
0000
0100
0000
,
0010
1000
0100
0000
0010
0000
0001
0000
,
1000
0100
1000
0000
0001
0000
0100
0000
,
0010
0000
0100
0000
0001
0000
0000
0000
1000
0100
1000
0000
0001
0000
0100
0000
,
0010
1000
0100
0000
1000
0000
0001
0000
,
0010
0100
1000
0000
0001
0000
0100
0000
,
0001
1000
0100
0000
1000
0000
0010
0000
,
0100
0000
0000
0001
0010
0100
1000
0000
0000
0001
0000
0000
,
1000
0100
0010
0100
1000
0000
0001
0000
,
0100
0010
1000
0001
,
0010
0100
1000
0001
0100
0000
0010
1000
,
0100
0010
0100
1000
0001
0100
0010
0000
,
1000
0100
1000
0001
0010
0000
0100
1000
,
0001
0100
0010
0000
0100
0001
0010
0100
,
1000
1000
1000
1000
,
0001
1000
0010
0100
0010
1000
0010
0100
,
0001
0000
1000
0100
0010
0000
0100
0000
,
1000
0010
0100
0001
,
1000
0000
0100
1000
0010
0000
0100
0000
,
0001
0010
0100
1000
,
0001
0000
0100
0010
1000
0000
0100
0000
,
0010
0001
0100
0001
,
1000
0000
0100
1000
0010
0000
0100
0000
,
0001
0010
0100
1000
0010
0100
0001
1000
,
0100
0000
0010
0100
1000
0000
0010
0000
,
0100
0001
1000
0100
,
0010
0000
0001
0100
0010
0000
0100
0000
,
0001
0010
0100
1000
,
0010
0000
0100
0001
0010
0000
0100
0000
,
1000
0000
0010
0000
0100
0000
0001
1000
,
0100
0010
0100
1000
0010
0100
0001
1000
,
0001
0010
0100
1000
0001
0100
0010
1000
,
0001
1000
0100
0010
0100
1000
0001
1000
0010
0100
0010
1000
0001
0100
0010
1000
,
0001
1000
0100
0010
0100
1000
0001
0010
0100
0010
0001
1000
0001
0100
0010
1000
,
0010
0100
0001
1000
0001
0010
0100
0010
0001
1000
0100
0010
0100
1000
0001
1000
,
0010
0100
0010
1000
0001
1000
0010
0100
0001
1000
0001
0010
0100
0010
0001
1000
,
0100
1000
0001
1000
0010
0100
0010
1000
0001
0100
0010
1000
0001
1000
0100
0010
,
0100
1000
0001
1000
0100
0010
0001
1000
0001
0100
0010
0100
0001
1000
0010
0100
,
0001
1000
0001
0010
0100
1000
0001
0010
0100
0010
0001
1000
0001
0100
0010
1000
,
0001
1000
0010
0100
0001
1000
0001
0010
0100
1000
0001
1000
0100
0010
0001
1000
,
0001
0000
0000
0000
,
0000
0000
0000
0000
,
1000
0001
0010
0100
1000
0001
0010
0100
1000
0001
0010
0001
1000
0100
0010
0001
,
1000
0001
0100
0010
1000
0001
0100
0010
1000
0001
1000
0010
0100
0001
1000
0001
,
0010
0100
1000
0001
1000
0100
0010
0001
1000
0100
0010
0001
1000
0100
1000
0001
,
1000
0010
0100
0001
0100
0010
1000
0001
0100
0010
1000
0001
1000
0010
0100
0001
,
1000
0001
0010
0100
1000
0001
0010
0100
1000
0001
1000
0100
0010
0001
1000
0001
,
0100
0010
1000
0001
1000
0010
0100
0001
0100
0010
1000
0001
1000
0010
0100
0001
,
1000
0001
0010
0100
1000
0001
0010
0100
1000
0001
1000
0100
0010
0001
1000
0001
,
0100
0010
1000
0001
1000
0010
0100
0001
1000
0001
0100
0010
1000
0010
0100
0001
,
2000
0000
0000
0000
,
0000
0000
0000
0000
,
0000
0000
3000
0000
,
0000
0000
0000
0000
,
0001
1000
0100
1000
0001
0010
0100
1000
0001
0010
0100
0010
0001
1000
0100
0010
,
0001
1000
0001
0100
0010
1000
0001
0100
0010
1000
0001
1000
0010
0100
0001
1000
,
0002
0000
0000
0000
,
0000
1000
0003
0000
;

//---------------dance-single - Mad Matt----------------
#NOTES:
     dance-single:
     Mad Matt:
     Hard:
     20:
     1.000,1.000,0.000,0.018,1.000,884.000,0.000,2.000,0.000,0.000:







0000
0000
0000
0000
,
0000
0000
0000
0000
,
0000
0000
0000
0000
,
0000
0000
0000
0000
,
0000
0000
0000
0000
,
0000
0000
0000
0000
,
0000
0000
0000
0000
,
0000
0000
0000
0000
,
1000
0100
1000
0000
0001
0000
0100
0000
,
0010
0100
0001
0000
0010
0100
1000
0010
,
0100
0001
0100
0000
0010
0000
1000
0000
,
0001
0100
0010
0000
1000
0001
0010
0100
,
1000
0010
0100
0000
0001
0000
0100
0000
,
0010
1000
0001
0000
0100
0001
0010
0100
,
1000
0001
0100
0000
0010
0000
0100
0000
,
0001
0000
0000
1000
0100
1000
0001
0000
0000
0010
0000
0000
,
0001
0100
0010
0000
0100
0000
0001
0000
,
1000
0010
0100
0000
0001
0010
0100
1000
,
0001
0100
0010
0000
0100
0000
0001
0000
,
0100
0010
1000
0000
0001
1000
0100
0010
,
0001
1000
0010
0000
0100
0000
0001
0000
,
0100
0000
0000
0001
0000
0000
1000
0000
0000
0000
0000
0000
0010
0000
0000
0000
0000
0000
1000
0000
0100
0000
0010
0000
,
0001
0000
0000
1000
0010
0100
0001
0000
0000
1000
0001
0010
,
0100
1000
0010
0100
,
0001
0100
0001
1000
0010
0100
0001
1000
0001
0010
0100
1000
0100
0010
0001
1000
,
0001
0100
0010
0100
0001
1000
0001
0010
0100
1000
0001
1000
0100
0010
0001
1000
,
0001
0100
0010
0100
0001
1000
0001
0010
0100
1000
0001
1000
0100
0010
0001
1000
,
0001
0100
0010
1000
0010
0100
0001
1000
0001
0010
0100
1000
0100
0010
0001
1000
,
0001
0100
0001
0000
1000
0000
0100
0000
,
0010
0100
1000
0000
0010
0100
0001
0010
,
0100
1000
0100
0000
0010
0000
0001
0000
,
1000
0100
0010
0000
0001
1000
0010
0100
,
0001
0010
0100
0000
1000
0000
0100
0000
,
0010
0001
1000
0000
0100
1000
0010
0100
,
0001
1000
0100
0000
0010
0000
0100
0000
,
1000
0000
0000
0001
0100
0001
1000
0000
0000
0010
0000
0000
,
0100
0001
1000
0100
0010
0100
1000
0001
,
0100
0010
0100
0001
1000
0100
1000
0001
,
0010
0100
1000
0010
0100
0001
0010
0001
,
1000
0100
0010
0100
1000
0001
0100
0010
0100
0001
1000
0001
,
0100
0010
0100
0001
1000
0001
0010
0100
,
1000
0000
0001
0000
1000
0000
0100
0000
1000
0001
0010
0100
1000
0001
0100
0010
,
0100
0001
1000
0100
0010
0100
1000
0001
,
1000
0100
0010
0001
,
1000
0100
1000
0001
0010
0100
1000
0001
1000
0010
0100
0001
0100
0010
1000
0001
,
1000
0100
0010
0100
1000
0001
1000
0010
0100
0001
1000
0001
0100
0010
1000
0001
,
1000
0100
0010
0100
1000
0001
1000
0010
0100
0001
1000
0001
0100
0010
1000
0001
,
1000
0100
0010
0001
0010
0100
1000
0001
1000
0010
0100
0001
1000
0001
0010
0100
,
1000
0001
1000
0010
0100
0010
1000
0001
1000
0100
0010
0001
0010
0100
1000
0001
,
1000
0010
0100
0010
1000
0001
1000
0100
0010
0001
1000
0001
0010
0100
1000
0001
,
1000
0010
0100
0010
1000
0001
1000
0100
0010
0001
1000
0001
0010
0100
1000
0001
,
1000
0010
0100
0001
0100
0010
1000
0001
1000
0100
0010
0001
0010
0100
1000
0001
,
1000
0100
0000
0000
0000
0000
0000
0000
,
1000
0001
0100
0000
0000
0000
0000
0000
,
0001
0100
0000
0000
0010
0000
0000
0000
,
1000
0100
1000
0000
0001
0000
0000
0000
,
1000
0100
1000
0000
0001
0000
0100
0000
,
0010
1000
0100
0000
0010
0000
0001
0000
,
1000
0100
1000
0000
0001
0000
0100
0000
,
0010
0000
0100
0000
0001
0000
0000
0000
1000
0100
1000
0000
0001
0000
0100
0000
,
0010
1000
0100
0000
1000
0000
0001
0000
,
0010
0100
1000
0000
0001
0000
0100
0000
,
0001
1000
0100
0000
1000
0000
0010
0000
,
0100
0000
0000
0001
0010
0100
1000
0000
0000
0001
0000
0000
,
1000
0100
0010
0100
1000
0000
0001
0000
,
0100
0010
1000
0001
,
0010
0100
1000
0001
0100
0000
0010
1000
,
0100
0010
0100
1000
0001
0100
0010
0000
,
1000
0100
1000
0001
0010
0000
0100
1000
,
0001
0100
0010
0000
0100
0001
0010
0100
,
1000
1000
1000
1000
,
0001
1000
0010
0100
0010
1000
0010
0100
,
0001
0000
1000
0100
0010
0000
0100
0000
,
1000
0010
0100
0001
,
1000
0000
0100
1000
0010
0000
0100
0000
,
0001
0010
0100
1000
,
0001
0000
0100
0010
1000
0000
0100
0000
,
0010
0001
0100
0001
,
1000
0000
0100
1000
0010
0000
0100
0000
,
0001
0010
0100
1000
0010
0100
0001
1000
,
0100
0000
0010
0100
1000
0000
0010
0000
,
0100
0001
1000
0100
,
0010
0000
0001
0100
0010
0000
0100
0000
,
0001
0010
0100
1000
,
0010
0000
0100
0001
0010
0000
0100
0000
,
1000
0000
0010
0000
0100
0000
0001
1000
,
0100
0010
0100
1000
0010
0100
0001
1000
,
0001
0010
0100
1000
0001
0100
0010
1000
,
0001
0100
0001
1000
0010
0100
0001
1000
0001
0010
0100
1000
0100
0010
0001
1000
,
0001
0100
0010
0100
0001
1000
0001
0010
0100
1000
0001
1000
0100
0010
0001
1000
,
0001
0100
0010
0100
0001
1000
0001
0010
0100
1000
0001
1000
0100
0010
0001
1000
,
0001
0100
0010
1000
0010
0100
0001
1000
0001
0010
0100
1000
0001
1000
0010
0100
,
0001
1000
0001
0010
0100
0010
0001
1000
0001
0100
0010
1000
0010
0100
0001
1000
,
0001
0010
0100
0010
0001
1000
0001
0100
0010
1000
0001
1000
0010
0100
0001
1000
,
0001
0010
0100
0010
0001
1000
0001
0100
0010
1000
0001
1000
0010
0100
0001
1000
,
0001
0010
0100
1000
0100
0010
0001
1000
0001
0100
0010
1000
0010
0100
0001
1000
,
0001
0000
0000
0000
,
0000
0000
0000
0000
,
1000
0100
1000
0001
0010
0100
1000
0001
1000
0010
0100
0001
0100
0010
1000
0001
,
1000
0100
0010
0100
1000
0001
1000
0010
0100
0001
1000
0001
0100
0010
1000
0001
,
1000
0100
0010
0100
1000
0001
1000
0010
0100
0001
1000
0001
0100
0010
1000
0001
,
1000
0100
0010
0001
0010
0100
1000
0001
1000
0010
0100
0001
1000
0001
0010
0100
,
1000
0001
1000
0010
0100
0010
1000
0001
1000
0100
0010
0001
0010
0100
1000
0001
,
1000
0010
0100
0010
1000
0001
1000
0100
0010
0001
1000
0001
0010
0100
1000
0001
,
1000
0010
0100
0010
1000
0001
1000
0100
0010
0001
1000
0001
0010
0100
1000
0001
,
1000
0010
0100
0001
0100
0010
1000
0001
1000
0100
0010
0001
0010
0100
1000
0001
,
2000
0000
0000
0000
,
0000
0000
0000
0000
,
0000
0000
3000
0000
,
0000
0000
0000
0000
,
0001
1000
0100
1000
0001
0010
0100
1000
0001
0010
0100
0010
0001
1000
0100
0010
,
0001
1000
0001
0100
0010
1000
0001
0100
0010
1000
0001
1000
0010
0100
0001
1000
,
0002
0000
0000
0000
,
0000
1000
0003
0000
;

//---------------dance-single - Mad Matt----------------
#NOTES:
     dance-single:
     Mad Matt:
     Beginner:
     16:
     1.000,1.000,0.000,0.018,1.000,820.000,0.000,2.000,0.000,0.000:





0000
0000
0000
0000
,
0000
0000
0000
0000
,
0000
0000
0000
0000
,
0000
0000
0000
0000
,
0000
0000
0000
0000
,
0000
0000
0000
0000
,
0000
0000
0000
0000
,
0000
0000
0000
0000
,
1000
0100
1000
0000
0001
0000
0100
0000
,
0010
0100
0001
0000
0010
0100
1000
0010
,
0100
0001
0100
0000
0010
0000
1000
0000
,
0001
0100
0010
0000
1000
0001
0010
0100
,
1000
0010
0100
0000
0001
0000
0100
0000
,
0010
1000
0001
0000
0100
0001
0010
0100
,
1000
0001
0100
0000
0010
0000
0100
0000
,
0001
0000
0000
1000
0100
1000
0001
0000
0000
0010
0000
0000
,
0001
0100
0010
0000
0100
0000
0001
0000
,
1000
0010
0100
0000
0001
0010
0100
1000
,
0001
0100
0010
0000
0100
0000
0001
0000
,
0100
0010
1000
0000
0001
1000
0100
0010
,
0001
1000
0010
0000
0100
0000
0001
0000
,
0100
0000
0000
0001
0000
0000
1000
0000
0000
0000
0000
0000
0010
0000
0000
0000
0000
0000
1000
0000
0100
0000
0010
0000
,
0001
0000
0000
1000
0010
0100
0001
0000
0000
1000
0001
0010
,
0100
1000
0010
0100
,
0001
1000
0100
0010
0100
1000
0001
1000
0010
0100
0010
1000
0001
0100
0010
1000
,
0001
1000
0100
0010
0100
1000
0001
0010
0100
0010
0001
1000
0001
0100
0010
1000
,
0010
0100
0001
1000
0001
0010
0100
0010
0001
1000
0100
0010
0100
1000
0001
1000
,
0010
0100
0010
1000
0001
1000
0010
0100
0001
1000
0001
0010
0100
0010
0001
1000
,
0001
0100
0001
0000
1000
0000
0100
0000
,
0010
0100
1000
0000
0010
0100
0001
0010
,
0100
1000
0100
0000
0010
0000
0001
0000
,
1000
0100
0010
0000
0001
1000
0010
0100
,
0001
0010
0100
0000
1000
0000
0100
0000
,
0010
0001
1000
0000
0100
1000
0010
0100
,
0001
1000
0100
0000
0010
0000
0100
0000
,
1000
0000
0000
0001
0100
0001
1000
0000
0000
0010
0000
0000
,
0100
0001
1000
0100
0010
0100
1000
0001
,
0100
0010
0100
0001
1000
0100
1000
0001
,
0010
0100
1000
0010
0100
0001
0010
0001
,
1000
0100
0010
0100
1000
0001
0100
0010
0100
0001
1000
0001
,
0100
0010
0100
0001
1000
0001
0010
0100
,
1000
0000
0001
0000
1000
0000
0100
0000
1000
0001
0010
0100
1000
0001
0100
0010
,
0100
0001
1000
0100
0010
0100
1000
0001
,
1000
0100
0010
0001
,
1000
0001
0100
0010
0100
0001
1000
0001
0010
0100
0010
0001
1000
0100
0010
0001
,
1000
0001
0100
0010
0100
0001
1000
0010
0100
0010
1000
0001
1000
0100
0010
0001
,
0010
0100
1000
0001
1000
0010
0100
0010
1000
0001
0100
0010
0100
0001
1000
0001
,
0010
0100
0010
0001
1000
0001
0010
0100
1000
0001
1000
0010
0100
0010
1000
0001
,
0100
0001
1000
0001
0010
0100
0010
0001
1000
0100
0010
0001
1000
0001
0100
0010
,
0100
0001
1000
0001
0100
0010
1000
0001
1000
0100
0010
0100
1000
0001
0010
0100
,
1000
0001
1000
0010
0100
0001
1000
0010
0100
0010
1000
0001
1000
0100
0010
0001
,
1000
0001
0010
0100
1000
0001
1000
0010
0100
0001
1000
0001
0100
0010
1000
0001
,
1000
0100
0000
0000
0000
0000
0000
0000
,
1000
0001
0100
0000
0000
0000
0000
0000
,
0001
0100
0000
0000
0010
0000
0000
0000
,
1000
0100
1000
0000
0001
0000
0000
0000
,
1000
0100
1000
0000
0001
0000
0100
0000
,
0010
1000
0100
0000
0010
0000
0001
0000
,
1000
0100
1000
0000
0001
0000
0100
0000
,
0010
0000
0100
0000
0001
0000
0000
0000
1000
0100
1000
0000
0001
0000
0100
0000
,
0010
1000
0100
0000
1000
0000
0001
0000
,
0010
0100
1000
0000
0001
0000
0100
0000
,
0001
1000
0100
0000
1000
0000
0010
0000
,
0100
0000
0000
0001
0010
0100
1000
0000
0000
0001
0000
0000
,
1000
0100
0010
0100
1000
0000
0001
0000
,
0100
0010
1000
0001
,
0010
0100
1000
0001
0100
0000
0010
1000
,
0100
0010
0100
1000
0001
0100
0010
0000
,
1000
0100
1000
0001
0010
0000
0100
1000
,
0001
0100
0010
0000
0100
0001
0010
0100
,
1000
1000
1000
1000
,
0001
1000
0010
0100
0010
1000
0010
0100
,
0001
0000
1000
0100
0010
0000
0100
0000
,
1000
0010
0100
0001
,
1000
0000
0100
1000
0010
0000
0100
0000
,
0001
0010
0100
1000
,
0001
0000
0100
0010
1000
0000
0100
0000
,
0010
0001
0100
0001
,
1000
0000
0100
1000
0010
0000
0100
0000
,
0001
0010
0100
1000
0010
0100
0001
1000
,
0100
0000
0010
0100
1000
0000
0010
0000
,
0100
0001
1000
0100
,
0010
0000
0001
0100
0010
0000
0100
0000
,
0001
0010
0100
1000
,
0010
0000
0100
0001
0010
0000
0100
0000
,
1000
0000
0010
0000
0100
0000
0001
1000
,
0100
0010
0100
1000
0010
0100
0001
1000
,
0001
0010
0100
1000
0001
0100
0010
1000
,
0001
0010
0100
1000
0010
0100
0001
1000
0100
0010
0100
1000
,
0010
0100
0001
0010
0100
1000
0010
0100
0001
1000
0100
1000
,
0001
0100
0010
1000
0100
1000
0010
0100
0001
0010
0001
0100
,
0010
1000
0100
1000
0010
0100
0001
0010
0100
1000
0001
0100
,
0010
0100
0001
1000
0100
0010
0001
0100
0010
0100
0001
1000
,
0100
1000
0010
0100
0001
0010
0001
1000
0100
0010
0100
1000
,
0010
0100
0001
0010
0001
0100
0010
1000
0100
0010
0001
0100
,
0010
0100
0001
1000
0001
0010
0100
0010
0001
0100
0010
1000
,
0001
0000
0000
0000
,
0000
0000
0000
0000
,
1000
0010
0100
0001
0010
0100
1000
0001
0100
0010
0100
0001
,
0010
0100
1000
0010
0100
0001
0010
0100
1000
0001
0100
0001
,
1000
0100
0010
0001
0100
0001
0010
0100
1000
0010
1000
0100
,
0010
0001
0100
0001
0010
0100
1000
0010
0100
0001
1000
0100
,
0010
0100
1000
0001
0100
0010
1000
0100
0010
0100
1000
0001
,
0100
0001
0010
0100
1000
0010
1000
0001
0100
0010
0100
0001
,
0010
0100
1000
0010
1000
0100
0010
0001
0100
0010
1000
0100
,
0010
0100
1000
0001
1000
0010
0100
0010
1000
0100
0010
0100
,
2000
0000
0000
0000
,
0000
0000
0000
0000
,
0000
0000
3000
0000
,
0000
0000
0000
0000
,
0001
1000
0100
1000
0001
0010
0100
0010
0001
1000
0100
1000
0001
0010
0100
1000
,
0001
0100
0010
1000
0001
0100
0001
1000
0010
1000
0001
0100
0010
1000
0001
1000
,
0200
0000
0000
0000
,
0000
1000
0300
0000
;

//---------------dance-single - Mad Matt----------------
#NOTES:
     dance-single:
     Mad Matt:
     Challenge:
     21:
     1.000,1.000,0.000,0.018,1.000,884.000,0.000,2.000,0.000,0.000:

0000
0000
0000
0000
,
0000
0000
0000
0000
,
0000
0000
0000
0000
,
0000
0000
0000
0000
,
0000
0000
0000
0000
,
0000
0000
0000
0000
,
0000
0000
0000
0000
,
0000
0000
0000
0000
,
1000
0100
1000
0000
0001
0000
0100
0000
,
0010
0100
0001
0000
0010
0100
1000
0010
,
0100
0001
0100
0000
0010
0000
1000
0000
,
0001
0100
0010
0000
1000
0001
0010
0100
,
1000
0010
0100
0000
0001
0000
0100
0000
,
0010
1000
0001
0000
0100
0001
0010
0100
,
1000
0001
0100
0000
0010
0000
0100
0000
,
0001
0000
0000
1000
0100
1000
0001
0000
0000
0010
0000
0000
,
0001
0100
0010
0000
0100
0000
0001
0000
,
1000
0010
0100
0000
0001
0010
0100
1000
,
0001
0100
0010
0000
0100
0000
0001
0000
,
0100
0010
1000
0000
0001
1000
0100
0010
,
0001
1000
0010
0000
0100
0000
0001
0000
,
0100
0000
0000
0001
0000
0000
1000
0000
0000
0000
0000
0000
0010
0000
0000
0000
0000
0000
1000
0000
0100
0000
0010
0000
,
0001
0000
0000
1000
0010
0100
0001
0000
0000
1000
0001
0010
,
0100
1000
0010
0100
,
0001
0100
0001
1000
0010
1000
0100
0010
0100
1000
0010
1000
0001
0010
0100
1000
,
0001
0100
0010
1000
0100
1000
0001
0010
0001
0100
0001
1000
0010
0100
0001
0010
,
0100
1000
0001
1000
0010
0100
0001
0010
0001
1000
0010
1000
0100
0010
0100
1000
,
0001
0100
0001
0010
0100
0010
0001
0100
0010
1000
0001
0010
0100
1000
0010
1000
,
0001
0100
0001
0000
1000
0000
0100
0000
,
0010
0100
1000
0000
0010
0100
0001
0010
,
0100
1000
0100
0000
0010
0000
0001
0000
,
1000
0100
0010
0000
0001
1000
0010
0100
,
0001
0010
0100
0000
1000
0000
0100
0000
,
0010
0001
1000
0000
0100
1000
0010
0100
,
0001
1000
0100
0000
0010
0000
0100
0000
,
1000
0000
0000
0001
0100
0001
1000
0000
0000
0010
0000
0000
,
0100
0001
1000
0100
0010
0100
1000
0001
,
0100
0010
0100
0001
1000
0100
1000
0001
,
0010
0100
1000
0010
0100
0001
0010
0001
,
1000
0100
0010
0100
1000
0001
0100
0010
0100
0001
1000
0001
,
0100
0010
0100
0001
1000
0001
0010
0100
,
1000
0000
0001
0000
1000
0000
0100
0000
1000
0001
0010
0100
1000
0001
0100
0010
,
0100
0001
1000
0100
0010
0100
1000
0001
,
1000
0100
0010
0001
,
1000
0010
1000
0001
0100
0001
0010
0100
0010
0001
0100
0001
1000
0100
0010
0001
,
1000
0010
0100
0001
0010
0001
1000
0100
1000
0010
1000
0001
0100
0010
1000
0100
,
0010
0001
1000
0001
0100
0010
1000
0100
1000
0001
0100
0001
0010
0100
0010
0001
,
1000
0010
1000
0100
0010
0100
1000
0010
0100
0001
1000
0100
0010
0001
0100
0010
,
0100
0001
1000
0010
1000
0100
0010
0100
1000
0010
1000
0001
0010
0100
1000
0001
,
0100
0010
1000
0100
1000
0001
0010
0001
0100
0001
1000
0010
0100
0001
0010
0100
,
1000
0001
1000
0010
0100
0001
0010
0001
1000
0010
1000
0100
0010
0100
1000
0001
,
0100
0001
0010
0100
0010
0001
0100
0010
1000
0001
0010
0100
1000
0010
1000
0001
,
0100
0010
0000
0000
0000
0000
0000
0000
,
1000
0001
0100
0000
0000
0000
0000
0000
,
0001
0100
0000
0000
0010
0000
0000
0000
,
1000
0100
1000
0000
0001
0000
0000
0000
,
1000
0100
1000
0000
0001
0000
0100
0000
,
0010
1000
0100
0000
0010
0000
0001
0000
,
1000
0100
1000
0000
0001
0000
0100
0000
,
0010
0000
0100
0000
0001
0000
0000
0000
1000
0100
1000
0000
0001
0000
0100
0000
,
0010
1000
0100
0000
1000
0000
0001
0000
,
0010
0100
1000
0000
0001
0000
0100
0000
,
0001
1000
0100
0000
1000
0000
0010
0000
,
0100
0000
0000
0001
0010
0100
1000
0000
0000
0001
0000
0000
,
1000
0100
0010
0100
1000
0000
0001
0000
,
0100
0010
1000
0001
,
0010
0100
1000
0001
0100
0000
0010
1000
,
0100
0010
0100
1000
0001
0100
0010
0000
,
1000
0100
1000
0001
0010
0000
0100
1000
,
0001
0100
0010
0000
0100
0001
0010
0100
,
1000
1000
1000
1000
,
0001
1000
0010
0100
0010
1000
0010
0100
,
0001
0000
1000
0100
0010
0000
0100
0000
,
1000
0010
0100
0001
,
1000
0000
0100
1000
0010
0000
0100
0000
,
0001
0010
0100
1000
,
0001
0000
0100
0010
1000
0000
0100
0000
,
0010
0001
0100
0001
,
1000
0000
0100
1000
0010
0000
0100
0000
,
0001
0010
0100
1000
0010
0100
0001
1000
,
0100
0000
0010
0100
1000
0000
0010
0000
,
0100
0001
1000
0100
,
0010
0000
0001
0100
0010
0000
0100
0000
,
0001
0010
0100
1000
,
0010
0000
0100
0001
0010
0000
0100
0000
,
1000
0000
0010
0000
0100
0000
0001
1000
,
0100
0010
0100
1000
0010
0100
0001
1000
,
0001
0010
0100
1000
0001
0100
0010
1000
,
0001
0100
0001
1000
0010
1000
0100
0010
0100
1000
0010
1000
0001
0010
0100
1000
,
0001
0100
0010
1000
0100
1000
0001
0010
0001
0100
0001
1000
0010
0100
0001
0010
,
0100
1000
0001
1000
0010
0100
0001
0010
0001
1000
0010
1000
0100
0010
0100
1000
,
0001
0100
0001
0010
0100
0010
0001
0100
0010
1000
0001
0010
0100
1000
0010
0100
,
0010
1000
0001
0100
0001
0010
0100
0010
0001
0100
0001
1000
0100
0010
0001
1000
,
0010
0100
0001
0010
0001
1000
0100
1000
0010
1000
0001
0100
0010
1000
0100
0010
,
0001
1000
0001
0100
0010
1000
0100
1000
0001
0100
0001
0010
0100
0010
0001
1000
,
0010
1000
0100
0010
0100
1000
0010
0100
0001
1000
0100
0010
0001
0100
0001
1000
,
0010
0000
0000
0000
,
0000
0000
0000
0000
,
1000
0010
1000
0001
0100
0001
0010
0100
0010
0001
0100
0001
1000
0100
0010
0001
,
1000
0010
0100
0001
0010
0001
1000
0100
1000
0010
1000
0001
0100
0010
1000
0100
,
0010
0001
1000
0001
0100
0010
1000
0100
1000
0001
0100
0001
0010
0100
0010
0001
,
1000
0010
1000
0100
0010
0100
1000
0010
0100
0001
1000
0100
0010
0001
0100
0010
,
0100
0001
1000
0010
1000
0100
0010
0100
1000
0010
1000
0001
0010
0100
1000
0001
,
0100
0010
1000
0100
1000
0001
0010
0001
0100
0001
1000
0010
0100
0001
0010
0100
,
1000
0001
1000
0010
0100
0001
0010
0001
1000
0010
1000
0100
0010
0100
1000
0001
,
0100
0001
0010
0100
0010
0001
0100
0010
1000
0001
0010
0100
1000
0010
1000
0001
,
2000
0000
0000
0000
,
0000
0000
0000
0000
,
0000
0000
3000
0000
,
0000
0000
0000
0000
,
0001
0100
0001
1000
0010
0100
0001
1000
0001
0010
0001
1000
0100
0010
0001
1000
,
0100
1000
0001
1000
0010
0100
0001
1000
0010
0100
0001
1000
0001
0010
0100
1000
,
0002
0000
0000
0000
,
0000
1000
0003
0000
;
