#TITLE:Death Match;
#SUBTITLE:Megami Tensei II (1990);
#ARTIST:Robokabuto;
#TITLETRANSLIT:;
#SUBTITLETRANSLIT:;
#ARTISTTRANSLIT:;
#CREDIT:;
#BANNER:Death Match.png;
#BACKGROUND:Death Match-bg.png;
#LYRICSPATH:;
#CDTITLE:!torajirou.png;
#MUSIC:Death Match.mp3;
#OFFSET:-0.064;
#SAMPLESTART:17.862;
#SAMPLELENGTH:24.740;
#SELECTABLE:YES;
#BPMS:0.000=155.000;
#STOPS:;
#BGCHANGES:;
// cache tags:
#FIRSTBEAT:0.000;
#LASTBEAT:96.000;
#SONGFILENAME:Songs/VGMP 3/Death Match (t0rajir0u)/Death Match.sm;
#HASMUSIC:1;
#HASBANNER:1;
#MUSICLENGTH:43.337;
// end cache tags

//---------------dance-single - ----------------
#NOTES:
     dance-single:
     :
     Hard:
     12:
     1.000,1.000,1.000,0.346,1.000,324.000,65.000,15.000,0.000,1.000:

1000
0100
1010
0001
1000
0001
1010
0100
1000
0100
1010
0001
0100
0001
1010
0100
,
1000
0100
1010
0001
0010
0001
1010
0100
1000
0001
0000
1000
0001
0000
0110
0000
,
1000
0010
1100
0001
1000
0001
1100
0010
1000
0010
1100
0001
0100
0001
1100
0010
,
1000
0010
1100
0001
0010
0001
1100
0010
1100
0010
0001
1100
0010
0001
0110
0001
,
1000
0100
1010
0001
1000
0001
1010
0100
1000
0100
1010
0001
0100
0001
1010
0100
,
1000
0100
1010
0001
0010
0001
1010
0100
1000
0001
0000
1000
0001
0000
0110
0000
,
1000
0010
1100
0001
1000
0001
1100
0010
1000
0010
1100
0001
0100
0001
1100
0010
,
1000
0010
1100
0001
0010
0001
1100
0010
1100
0010
0001
1100
0010
0001
0110
0001
,
1000
0002
0100
0000
0000
0000
0100
0003
0001
0010
0101
1000
0010
0100
1001
0010
,
0100
1000
0011
0100
0001
0010
0101
1000
0010
1000
0010
1000
0010
1000
0011
0000
,
2100
0001
0000
0001
0000
0001
0000
0001
,
0000
0000
0001
0000
0000
0000
0001
3000
0101
1000
0001
0110
1000
0100
0011
1000
,
0100
0010
0001
1000
0110
0000
0000
0000
0010
0000
0000
0000
1100
0000
0000
0000
0020
0000
0000
0000
0100
0000
0000
0000
0000
0000
0030
0000
0001
1000
0100
0010
,
0001
0000
1100
0000
0020
0000
1000
0030
0001
0010
0100
1000
0010
0100
1001
0010
,
0200
0000
0000
0000
0001
0000
0000
0000
0000
0000
0300
0000
1000
0001
0010
0100
2000
0000
0000
0000
0001
0000
0000
0000
0000
0000
3000
0000
0010
0001
1000
0100
,
0020
0000
0000
0000
1000
0000
0000
0000
0000
0000
0030
0000
0001
1000
0100
0010
1002
0000
0000
0000
0000
0000
1000
0000
0000
0000
0000
0000
0103
0000
0000
0000
,
0001
0010
0100
1000
0100
0010
0001
0010
0100
1000
0100
0010
0001
0010
0100
1000
0100
0010
0001
0010
0100
1000
0100
0010
,
0001
1000
0100
0010
0100
1000
0001
1000
0100
0010
0100
1000
0001
1000
0100
0010
0100
1000
0001
1000
0100
0010
0100
1000
,
0001
1000
0002
1000
0000
1000
0023
1000
,
0000
0000
0001
0000
0230
0000
0001
0000
0000
0000
0001
0000
2300
0000
0001
3000
,
0100
1000
0101
0010
0100
1000
0101
0010
1000
0100
1010
0001
0100
0010
1001
0010
,
0001
0010
0101
1000
0001
1000
0101
0010
0100
0001
1000
0001
0000
0001
1000
0001
,
0120
1000
0000
1032
0023
1000
0000
1000
,
0031
0100
0011
0100
1000
0000
1100
0010
0101
1010
0101
1010
0101
1010
0101
1010
,
0101
0000
0000
0000
;

//---------------dance-single - ----------------
#NOTES:
     dance-single:
     :
     Challenge:
     14:
     1.000,1.000,1.000,0.346,1.000,401.000,91.000,15.000,0.000,16.000:


1000
1000
0101
0100
0010
0010
1100
0100
1000
1000
0110
0100
0001
0001
0110
0100
,
1000
1000
0101
0100
0010
0010
1100
0100
1000
0001
0000
1000
0001
0000
0110
0000
,
1000
1000
0101
0100
0010
0010
1100
0100
1000
1000
0110
0100
0001
0001
0110
0100
,
1000
1000
0101
0100
0010
0010
1100
0100
1010
0001
0001
1010
0001
0001
0110
0001
,
1000
1000
0101
0100
0010
0010
1100
0100
1000
1000
0110
0100
0001
0001
0110
0100
,
1000
1000
0101
0100
0010
0010
1100
0100
1000
0001
0000
1000
0001
0000
0110
0000
,
1000
1000
0101
0100
0010
0010
1100
0100
1000
1000
0110
0100
0001
0001
0110
0100
,
1000
1000
0101
0100
0010
0010
1100
0100
1010
0001
0001
1010
0001
0001
0110
0001
,
1000
0100
0010
0002
0000
0000
0100
0000
0000
0000
0000
0000
0000
0000
0000
0000
0000
0000
0100
0000
0000
0003
0000
0010
0001
0000
0000
0010
0000
0000
0101
0000
0000
1000
0000
0000
0010
0000
0000
0100
0000
0000
1001
0000
0000
0010
0000
0000
,
0100
1000
0011
0100
0001
0010
0101
1000
0010
1000
0010
1000
0010
1000
0011
0000
,
2100
0100
0011
0010
0001
0001
0110
0010
0100
0100
0011
0010
0001
0001
0110
0010
,
0100
0000
0000
0100
0000
0000
0011
0000
0000
0010
0000
0000
0001
0000
0000
0001
0000
0000
0110
0000
0000
3010
0000
0000
0110
0000
0000
1000
0000
0000
1000
0000
0000
0110
0000
0000
1000
0000
0000
1000
0000
0000
0101
0000
0000
0010
0001
1000
,
0100
0010
0001
1000
0100
0010
1001
0000
0000
0000
0000
0000
0100
0010
0000
0000
0000
0000
1100
0000
0000
0000
0000
0000
0100
0020
0000
0000
0000
0000
0100
0000
0000
0000
0000
0000
0000
0000
0000
0000
0030
0000
0001
0000
0000
1000
0100
0010
,
0001
0000
1100
0000
0020
0000
1000
0030
0001
0010
0100
1000
0010
0100
1001
0010
,
0200
0000
0000
0000
0000
0000
0001
0000
0000
0000
0000
0000
0000
0000
0000
0300
0000
0000
0010
0100
1000
0001
0010
0100
2000
0000
0000
0000
0000
0000
0001
0000
0000
0000
0000
0000
0000
0000
0000
3000
0000
0000
1000
0100
0010
0001
1000
0100
,
0020
0000
0000
0000
0000
0000
1000
0000
0000
0000
0000
0000
0000
0000
0000
0030
0000
0000
0100
0010
0001
1000
0100
0010
1002
0000
0000
0100
0000
0000
0100
0000
0000
1010
0000
0000
0100
0000
0000
0103
0000
0000
0010
0100
1000
0001
0010
0100
,
1001
0010
0100
1001
0100
0010
0001
0010
0100
1001
0100
0010
0001
0010
0100
1001
0100
0010
0001
0010
0100
1001
0100
0010
,
0001
1000
0100
0011
0100
1000
0001
1000
0100
0011
0100
1000
0001
1000
0100
0011
0100
1000
0001
1000
0100
0011
0100
1000
,
0100
0000
0000
0100
0000
0000
1010
0000
0000
0010
0000
0000
1100
0010
0002
0000
0000
0000
1100
0000
0000
0010
0000
0000
0000
0000
0000
0010
0000
0000
1000
0000
0000
0103
0000
0000
1000
0100
0020
0001
0000
0000
1100
0000
0000
0001
0000
0000
,
1000
0000
0000
1000
0000
0000
0101
0000
0000
0130
0000
0000
0001
0010
0200
0000
0000
0000
1001
0000
0000
0010
0000
0000
0000
0000
0000
0010
0000
0000
1001
0000
0000
0310
0000
0000
0001
0100
2000
0010
0000
0000
0101
0000
0000
3010
0000
0000
,
0100
1000
0101
0010
0100
1000
0101
0010
1000
0100
1010
0001
0100
0010
1001
0010
,
0001
0000
0000
0010
0000
0000
0101
0000
0000
1000
0000
0000
0001
0000
0000
1000
0000
0000
0101
0000
0000
0010
0000
0000
0100
0000
0010
0001
0000
0000
1000
0000
0010
0001
0000
0000
0000
0000
0010
0001
0000
0000
1000
0000
0010
0001
0000
0000
,
1020
1000
0101
0100
0001
0000
1032
0100
0023
0100
1000
0100
0001
0100
1001
0100
,
0031
0001
1010
0010
0100
0000
1100
0010
0101
0101
0101
0101
0101
0101
0101
0101
,
1001
0000
0000
0000
;
