#TITLE:Always TANO*C;
#SUBTITLE:Kobaryo's FTN-Remix;
#ARTIST:REDALiCE;
#TITLETRANSLIT:;
#SUBTITLETRANSLIT:;
#ARTISTTRANSLIT:;
#CREDIT:;
#BANNER:taco-bn.png;
#BACKGROUND:taco-bg.png;
#LYRICSPATH:;
#CDTITLE:;
#MUSIC:15. REDALiCE - Always TANO C (Kobaryo's FTN-Remix).ogg;
#OFFSET:-0.136;
#SAMPLESTART:116.298;
#SAMPLELENGTH:12.000;
#SELECTABLE:YES;
#BPMS:0.000=220.000;
#STOPS:;
#BGCHANGES:;
// cache tags:
#FIRSTBEAT:10.000;
#LASTBEAT:655.500;
#SONGFILENAME:Songs/SPEEEDCOOOORE 4/Always TANO C - [Rynker]/always tanoc.sm;
#HASMUSIC:1;
#HASBANNER:1;
#MUSICLENGTH:181.200;
// end cache tags

//---------------dance-single - Rynker----------------
#NOTES:
     dance-single:
     Rynker:
     Challenge:
     16:
     1.000,1.000,0.182,0.028,1.000,1545.000,33.000,5.000,0.000,0.000:
0000
0000
0000
0000
,
0000
0000
0000
0000
,
0000
0000
0000
0000
0000
0000
0000
0000
1000
0000
0100
0010
0001
0000
1000
0000
,
0001
0100
0001
0000
1000
0000
0001
0000
0100
0000
0010
1000
0010
0000
0100
0000
,
0001
1000
0100
0000
1000
0000
0001
0000
0010
0000
0001
1000
0100
0000
0010
0000
,
0001
1000
0010
0000
0100
0000
0001
0000
1000
0000
0001
0000
0100
0000
0001
0000
,
1000
0000
0001
0000
0100
0000
0001
0000
0010
0000
0100
1000
0100
0000
1000
0000
,
0001
0100
0010
0000
1000
0000
0001
0000
0010
0000
0100
1000
0001
0000
1000
0000
,
0001
0100
0010
0000
0100
0000
0001
0000
1000
0000
0001
1000
0100
0000
1000
0000
,
0001
0010
0100
0000
1000
0000
0001
0000
0010
0000
0100
0000
1000
0000
0001
0000
,
1000
0000
0100
0000
0010
0000
0100
0000
1000
0000
0001
1000
0100
0000
1000
0000
,
0010
0100
0001
0000
1000
0000
0001
0000
0100
0000
0010
0100
0001
0000
1000
0000
,
0100
0010
0001
0000
1000
0001
0100
0001
0010
0000
0100
1000
0100
0000
1000
0000
,
0001
0100
0010
0000
0100
0000
0001
0000
1000
0000
0100
0010
0001
0000
1000
0100
,
0010
0000
0100
0010
0001
0000
1000
0001
0100
0000
0010
0000
1000
0000
0001
0000
,
1000
0000
0100
0000
0010
0001
1000
0001
0100
0000
0000
0000
0000
0000
0000
0000
,
0001
0000
1000
0100
0010
0000
0001
0010
0100
0000
1000
0001
1000
0000
0001
0000
,
0100
0001
1000
0000
0010
0000
0100
0000
0002
0000
0000
0000
0000
0000
0003
0000
,
0000
0000
0000
0000
1000
0001
1000
0010
0100
0001
0100
0010
1000
0010
0100
0001
,
1000
0001
0100
0010
0100
0001
1000
0001
0010
0100
1000
0100
0010
0001
1000
0001
,
0010
0100
1000
0100
1000
0001
0010
0100
1000
0001
0100
0010
0100
0001
1000
0010
,
0100
0001
1000
0010
0100
0001
0100
0010
1000
0001
0100
0010
1000
0001
0100
0010
,
1000
0001
0100
0010
1000
0001
1000
0100
0010
0001
0010
0100
1000
0100
0010
0001
,
1000
0100
1000
0001
0010
0001
1000
0010
0100
0001
0100
0010
1000
0001
1000
0010
,
0100
0010
1000
0001
1000
0001
1000
0100
0010
0001
0010
0100
1000
0100
0010
0001
,
1000
0010
0100
0001
0100
0010
1000
0001
0040
0031
0100
0010
4000
3100
0010
0001
,
0400
0310
1000
0001
0040
0031
1000
0010
0100
0001
0100
0010
1000
0010
0100
0001
,
0100
0010
1000
0010
0100
0001
1000
0001
0010
0100
1000
0100
0010
0001
1000
0001
,
0010
0100
1000
0100
0010
0001
1000
0001
0100
0010
1000
0010
0100
0001
0100
0010
,
1000
0001
1000
0001
0100
0010
1000
0001
0010
0100
1000
0001
0010
0100
1000
0001
,
0010
0100
1000
0001
0010
0100
1000
0001
0100
0010
1000
0010
0100
0001
0100
0010
,
1000
0001
1000
0001
0100
0010
1000
0001
0010
0100
1000
0100
0010
0001
0010
0100
,
1000
0001
1000
0001
0010
0100
1000
0001
0100
0010
1000
0010
0100
0001
0100
0010
,
1000
0001
1000
0001
0100
0010
1000
0001
1000
0100
0010
0001
1000
0010
0100
0001
,
1000
0100
0010
0001
1000
0010
0100
0001
1000
0000
0001
0000
0000
0000
1000
0000
,
0000
0010
0000
0100
0001
1000
0000
0001
,
0000
0010
0100
0000
1001
0000
0000
1000
,
0000
0010
0000
1000
0001
0000
0000
0010
,
0000
0000
1001
0000
,
0000
0001
0011
0000
,
0000
1000
1010
0000
,
1001
0000
0000
0000
0000
0000
0000
0000
0001
0000
0010
0100
1000
0000
0001
0000
,
1000
0100
0010
0000
0004
0000
0000
0000
1003
0000
0010
0000
0100
0000
0001
0000
,
1000
0001
1000
0000
0001
0000
0010
0001
1000
0001
1000
0000
0010
0000
0100
0000
,
0001
1000
0001
0000
0010
0000
0100
0000
1000
0001
1000
0000
0010
0000
0100
0000
,
0001
1000
0001
0000
0010
0000
0001
1000
0001
0100
0010
0000
1000
0000
0100
0000
,
1000
0100
0010
0001
0100
0000
0010
0000
1000
0000
0001
0000
0010
0000
0100
0000
,
1000
0001
1000
0010
0100
0001
1000
0100
,
0010
0001
1000
0010
0100
0001
0010
0100
,
1000
0010
1000
0100
0010
0000
0000
0000
,
0000
0000
0000
0000
0000
0000
0000
0000
0001
1000
0010
0100
0010
1000
0100
0010
,
0001
0010
0100
1000
0010
1000
0100
0010
0001
0010
0100
1000
0001
1000
0001
0100
,
0010
1000
0010
0100
0001
1000
0100
0010
0001
1000
0010
1000
0001
0100
0010
1000
,
0100
0010
0001
0010
0100
1000
0001
0100
0010
1000
0010
0100
0001
0100
0010
1000
,
0100
0010
0001
0010
0100
1000
0001
0100
0010
1000
0001
1000
0010
0100
0001
1000
,
0100
0010
0100
1000
0001
1000
0010
0100
0001
0100
0010
1000
0001
0100
0010
1000
,
0001
0010
0100
1000
0001
0010
0001
1000
0010
0100
0010
1000
0001
1000
0001
0100
,
0010
1000
0001
0010
0100
1000
0001
0100
0010
1000
0010
0100
0001
1000
0100
0010
,
0001
0100
0010
1000
0001
0010
0100
0010
0001
0000
0000
0000
0000
0000
0000
0000
,
0000
0000
0000
0000
1000
0010
0100
0001
,
0000
0000
0000
0000
1000
0100
0010
0001
,
0000
0000
0000
0000
0100
0001
1000
0010
,
0000
0000
0000
0000
1000
0100
0010
0001
,
0000
0000
0000
0000
0100
0001
1000
0010
,
0000
0000
0000
0000
1000
0001
0010
0100
,
0000
0000
0000
0000
1000
0001
0100
0010
,
0000
0000
0000
0000
1000
0001
0010
0100
,
0000
0000
0000
0000
1000
0010
0100
0001
,
0000
0000
0000
0000
0010
0100
1000
0001
,
0000
0000
0000
0000
0100
0001
1000
0010
,
0000
0000
0000
0000
1000
0100
0010
0001
,
0000
0000
0000
0000
0100
0010
1000
0001
,
0000
0000
0000
0000
0010
0001
1000
0100
,
0000
0000
1000
1000
,
1000
0001
0100
0000
0101
0000
0001
0000
,
1000
0100
0010
0000
0011
0000
0001
0000
,
1000
0010
0100
0000
0101
0000
0001
0000
,
1000
0001
0010
0000
0100
1000
0010
0100
,
0010
1000
0100
0000
0110
0000
0010
0000
,
0001
1000
0010
0000
0110
0000
0100
0000
,
0010
1000
0001
0000
0011
0000
0010
0000
,
0100
1000
0001
0000
0100
0001
0010
0100
,
1000
0000
0001
1000
0010
0000
0000
0000
1010
0000
0000
0000
1000
0000
0000
0000
,
0001
0010
0100
0000
1100
0000
1000
0000
,
0010
0100
0001
0000
0101
0000
0100
0000
,
0010
1000
0001
0000
0010
0001
0100
0010
,
0100
0001
0010
0000
0110
0000
0100
0000
,
1000
0001
0100
0000
0101
0000
0001
0000
,
1000
0100
0010
0000
0011
0000
0001
0000
,
1000
0010
0100
0000
0010
1000
0100
0010
,
0100
0000
1000
0001
0100
0000
0000
0000
0101
0000
0000
0000
0000
0000
0001
0000
,
0100
0000
0010
0000
1010
0000
0000
1000
,
0010
0000
0100
0000
1001
0000
0000
0001
,
0010
0000
0100
0000
1100
0000
0000
1000
,
0100
0000
0010
0000
1001
0000
0000
0001
,
0100
0000
0010
0000
1010
0000
0000
1000
,
0010
0000
0100
0000
1001
0000
0000
0001
,
0010
0000
0100
0000
1100
0000
0000
1000
,
0100
0010
0001
0100
,
0010
0000
1000
0000
0100
0000
0000
0010
,
0001
1000
0001
0100
,
0010
0000
1000
0000
0100
0000
0000
0010
,
0001
0000
1000
0000
0010
1000
0100
0010
,
0001
0010
0100
1000
0010
0000
0000
0100
,
0001
0000
0000
0000
0000
0000
0000
0000
1000
0001
0010
0001
1000
0100
0010
0100
,
1000
0001
1000
0010
0100
0010
1000
0001
0010
0000
0000
0000
0000
0000
0000
0000
,
0000
0000
0000
0000
0000
0000
0000
0000
0001
1000
0001
0100
0010
1000
0100
1000
,
0001
0010
0100
1000
0010
1000
0001
0100
0010
1000
0100
1000
0001
0010
0100
1000
,
0010
0100
0001
0010
0100
1000
0010
0100
0001
1000
0010
0100
0001
1000
0100
0010
,
0001
0100
0001
1000
0010
0100
0001
0010
0100
1000
0001
0010
0001
0100
0010
1000
,
0001
0100
0001
0010
0100
1000
0001
0010
0100
1000
0001
0100
0001
0010
0100
1000
,
0100
0010
0001
0100
0010
1000
0010
0100
0001
0010
0100
1000
0100
0010
0001
0100
,
0010
1000
0010
0100
0001
0010
0100
1000
0001
0100
0001
1000
0010
1000
0100
0010
,
0001
0010
0100
1000
0010
0100
0001
0100
0010
1000
0001
0010
0100
1000
0100
0010
,
0001
0010
0100
1000
0010
0100
0001
0100
0001
1000
0001
0100
0010
1000
0100
1000
,
0001
0010
0100
1000
0010
1000
0001
0100
0010
1000
0100
1000
0001
0010
0100
1000
,
0010
0100
0001
0010
0100
1000
0010
0100
0001
1000
0010
0100
0001
1000
0100
0010
,
0001
0100
0001
1000
0010
0100
0001
0010
0100
1000
0001
0010
0001
0100
0010
1000
,
0001
0100
0001
0010
0100
1000
0001
0010
0100
1000
0001
0100
0001
0010
0100
1000
,
0100
0010
0001
0100
0010
1000
0010
0100
0001
0010
0100
1000
0100
0010
0001
0100
,
0010
1000
0010
0100
0001
0010
0100
1000
0001
0100
0001
1000
0010
1000
0100
0010
,
0001
0010
0100
1000
0010
0100
0001
0100
0010
0000
0000
0000
1000
0000
0010
0000
,
0000
0000
1000
0000
0010
0100
0001
0100
0010
0000
1000
0000
0000
0000
0001
0000
,
0000
0010
0000
0001
1000
0010
0000
1000
,
0000
0000
0001
0000
1000
0000
0000
0000
0001
0010
0001
0000
0000
0000
0010
0000
,
0000
0100
0000
0010
0001
1000
0000
0010
,
0000
0000
0000
0000
0000
0000
0000
0000
1000
0010
0100
0000
0000
0000
0001
0000
,
0000
1000
0000
0100
0010
0001
0000
1000
,
0000
0000
0010
0000
0100
0000
0000
0000
0001
1000
0001
0000
0000
0000
1000
0000
,
0000
0100
0000
0010
0002
0000
0003
0000
,
0000
0000
0000
0000
0000
0000
0000
0000
1000
0100
0010
0001
0010
0100
1000
0001
,
1000
0001
0100
0010
0100
0001
1000
0010
0100
0001
0100
0010
1000
0001
1000
0001
,
0010
0100
0010
0001
1000
0001
0100
0010
0100
0001
0100
0010
1000
0010
0100
0001
,
1000
0100
1000
0001
0010
0100
0010
0001
1000
0001
1000
0010
0100
0010
1000
0001
,
1000
0100
1000
0001
0010
0100
0010
0001
1000
0001
0100
0010
1000
0010
0100
0001
,
1000
0100
1000
0001
0010
0100
0010
0001
1000
0001
0100
0010
0100
0001
1000
0001
,
1000
0010
0100
0010
1000
0001
1000
0100
0010
0001
0010
0100
1000
0001
1000
0001
,
0010
0100
0010
0001
1000
0100
1000
0001
0100
0001
1000
0010
1000
0001
0100
0010
,
1000
0010
0100
0001
1000
0100
1000
0001
0010
0100
0010
0001
1000
0001
1000
0100
,
0010
0001
0010
0100
1000
0001
1000
0001
1000
0010
0100
0010
1000
0001
0100
0010
,
0100
0001
1000
0100
1000
0001
0010
0100
0010
0001
1000
0001
0100
0010
0100
0001
,
1000
0100
1000
0001
0010
0100
0010
0001
1000
0001
0100
0010
0100
0001
1000
0010
,
0100
0001
1000
0100
1000
0001
0010
0100
0010
0001
1000
0001
0100
0010
0100
0001
,
1000
0010
1000
0001
0100
0001
1000
0100
1000
0001
0010
0100
1000
0001
1000
0001
,
0100
0010
0100
0001
1000
0001
1000
0010
0100
0010
1000
0001
1000
0001
0010
0100
,
0010
0001
1000
0001
0100
0010
0100
0001
1000
0000
0010
0000
0100
0000
0001
0000
,
0100
0010
0100
0001
1000
0100
0010
0001
1000
0000
0000
0000
0000
0000
0000
0000
,
0000
0000
0000
0000
0000
0000
0000
0000
0001
0000
0010
0100
1000
0000
0001
0000
,
1000
0010
1000
0000
0001
0000
1000
0000
0010
0000
0100
0001
0100
0000
0010
0000
,
1000
0001
0010
0000
0001
0000
1000
0000
0100
0000
1000
0001
0010
0000
0100
0000
,
1000
0001
0100
0000
0010
0000
1000
0000
0001
0000
1000
0000
0010
0000
1000
0000
,
0001
0000
1000
0010
0100
0001
1000
0000
0100
0000
0010
0001
0010
0000
0001
0000
,
1000
0010
0100
0000
0001
0000
1000
0000
0100
0000
0010
0001
1000
0000
0001
0000
,
1000
0010
0100
0000
0010
0000
1000
0000
0001
0000
1000
0001
0010
0000
0001
0000
,
1000
0100
0010
0000
0001
0000
1000
0000
0100
0000
0040
0000
0031
0000
4000
0000
,
3004
0000
0403
0000
0340
0000
1030
0001
1000
0000
0001
1000
0100
0000
1000
0000
,
0010
0100
0001
0000
1000
0000
0001
0000
0100
0000
0010
0100
0001
0000
1000
0000
,
0100
0010
0001
0000
1000
0001
0100
0001
0010
0000
0100
1000
0100
0000
1000
0000
,
0001
0100
0010
0000
0100
0000
0001
0000
1000
0000
0100
0010
0001
0000
1000
0100
,
0010
0000
0100
0010
0001
0000
1000
0001
0100
0000
0010
0000
1000
0000
0001
0000
,
1000
0000
0100
0000
0010
0001
1000
0001
0100
0000
0000
0000
0000
0000
0000
0000
,
0001
0000
1000
0100
0010
0000
0001
0010
0100
0000
1000
0001
1000
0000
0001
0000
,
0100
0001
1000
0000
0010
0000
0100
0000
0002
0000
0000
0000
0000
0000
0003
0000
,
0000
0000
0000
0000
1000
0001
1000
0000
2002
0000
0000
0000
0000
0000
3003
0000
;

//---------------dance-single - Rynker----------------
#NOTES:
     dance-single:
     Rynker:
     Medium:
     14:
     1.000,1.000,0.188,0.028,0.902,1333.000,34.000,5.000,0.000,0.000:
0000
0000
0000
0000
,
0000
0000
0000
0000
,
0000
0000
0000
0000
0000
0000
0000
0000
1000
0000
0100
0010
0001
0000
1000
0000
,
0001
0100
0001
0000
1000
0000
0001
0000
0100
0000
0010
1000
0010
0000
0100
0000
,
0001
1000
0100
0000
1000
0000
0001
0000
0010
0000
0001
1000
0100
0000
0010
0000
,
0001
1000
0010
0000
0100
0000
0001
0000
1000
0000
0001
0000
0100
0000
0001
0000
,
1000
0000
0001
0000
0100
0000
0001
0000
0010
0000
0100
1000
0100
0000
1000
0000
,
0001
0100
0010
0000
1000
0000
0001
0000
0010
0000
0100
1000
0001
0000
1000
0000
,
0001
0100
0010
0000
0100
0000
0001
0000
1000
0000
0001
1000
0100
0000
1000
0000
,
0001
0010
0100
0000
1000
0000
0001
0000
0010
0000
0100
0000
1000
0000
0001
0000
,
1000
0000
0100
0000
0010
0000
0100
0000
1000
0000
0001
1000
0100
0000
1000
0000
,
0010
0100
0001
0000
1000
0000
0001
0000
0100
0000
0010
0100
0001
0000
1000
0000
,
0100
0010
0001
0000
1000
0001
0100
0001
0010
0000
0100
1000
0100
0000
1000
0000
,
0001
0100
0010
0000
0100
0000
0001
0000
1000
0000
0100
0010
0001
0000
1000
0100
,
0010
0000
0100
0010
0001
0000
1000
0001
0100
0000
0010
0000
1000
0000
0001
0000
,
1000
0000
0100
0000
0010
0001
1000
0001
0100
0000
0000
0000
0000
0000
0000
0000
,
0001
0000
1000
0100
0010
0000
0001
0010
0100
0000
1000
0001
1000
0000
0001
0000
,
0100
0001
1000
0000
0010
0000
0100
0000
0002
0000
0000
0000
0000
0000
0003
0000
,
0000
0000
0000
0000
1000
0001
4000
0000
3001
0000
0100
0010
0100
0000
0001
0000
,
1000
0100
1000
0000
0001
0000
0010
0000
0100
0000
1000
0001
0100
0000
0010
0000
,
0100
0001
1000
0000
0100
0000
0010
0000
0001
0000
0010
0100
1000
0000
0001
0000
,
0100
0010
1000
0000
0001
0000
1000
0000
0100
0000
0010
0000
0001
0000
0010
0000
,
0100
0000
1000
0001
0100
0010
1000
0100
1000
0000
0001
0100
0010
0000
0100
0000
,
0010
1000
0001
0000
0010
0000
0100
0000
1000
0000
0001
1000
0100
0000
0010
0000
,
0001
1000
0100
0000
1000
0000
0001
0000
1000
0000
0010
0100
0001
0000
1000
0000
,
0001
0100
0010
0000
1000
0000
0001
0000
0040
0031
0100
0010
4000
3100
0010
0001
,
0400
0310
1000
0001
0040
0031
1000
0010
0100
0000
0001
0100
0001
0000
1000
0000
,
0001
0010
0001
0000
1000
0000
0100
0000
0010
0000
0001
1000
0010
0000
0100
0000
,
0010
1000
0001
0000
0010
0000
0001
0000
0010
0000
0100
1000
0001
0000
1000
0000
,
0010
0100
0001
0000
1000
0000
0001
0000
0010
0000
0100
0000
1000
0000
0100
0000
,
0010
0000
0001
1000
0010
0100
0001
1000
0001
0000
1000
0001
0100
0000
0001
0000
,
1000
0001
0100
0000
0010
0000
1000
0000
0001
0000
1000
0001
0100
0000
0001
0000
,
1000
0001
0010
0000
0100
0000
1000
0000
0001
0000
1000
0100
1000
0000
0001
0000
,
0100
0001
0100
0000
0001
0000
1000
0000
0100
1000
0001
1000
0001
0100
0010
1000
,
0001
0100
0010
1000
0001
0010
0100
1000
0100
0000
1000
0000
0000
0000
0001
0000
,
0000
0100
0000
0010
1000
0001
0000
1000
,
0000
0100
0010
0000
1001
0000
0000
0001
,
0000
0100
0000
0001
1000
0000
0000
0100
,
0000
0000
1001
0000
,
0000
1000
1100
0000
,
0000
0001
0101
0000
,
1001
0000
0000
0000
0000
0000
0000
0000
1000
0000
0100
0010
0001
0000
1000
0000
,
0001
0010
0100
0000
4000
0000
0000
0000
3001
0000
0100
0000
0010
0000
1000
0000
,
0001
1000
0001
0000
1000
0000
0100
1000
0001
1000
0001
0000
0100
0000
0010
0000
,
1000
0001
1000
0000
0100
0000
0010
0000
0001
1000
0001
0000
0100
0000
0010
0000
,
1000
0001
1000
0000
0100
0000
1000
0001
1000
0010
0100
0000
0001
0000
0010
0000
,
0001
0010
0100
1000
0010
0000
0100
0000
0001
0000
1000
0000
0100
0000
0010
0000
,
0001
1000
0001
0100
0010
1000
0001
0010
,
0100
1000
0001
0100
0010
1000
0100
0010
,
0001
0100
0001
0010
0100
0000
0000
0000
,
0000
0000
0000
0000
0000
0000
0000
0000
1000
0001
0100
0010
0100
0001
0010
0100
,
1000
0100
0010
0001
0100
0001
0010
0100
1000
0100
0010
0001
1000
0001
1000
0010
,
0100
0001
0100
0010
1000
0001
0010
0100
1000
0001
0100
0001
1000
0010
0100
0001
,
0010
0100
1000
0100
0010
0001
1000
0010
0100
0001
0100
0010
1000
0010
0100
0001
,
0010
0100
1000
0100
0010
0001
1000
0010
0100
0001
1000
0001
0100
0010
1000
0001
,
0010
0100
0010
0001
1000
0001
0100
0010
1000
0010
0100
0001
1000
0010
0100
0001
,
1000
0100
0010
0001
1000
0100
1000
0001
0100
0010
0100
0001
1000
0001
1000
0010
,
0100
0001
1000
0100
0010
0001
1000
0010
0100
0001
0100
0010
1000
0001
0010
0100
,
1000
0010
0100
0001
1000
0100
0010
0100
1000
0000
0000
0000
0000
0000
0000
0000
,
0000
0000
0000
0000
0001
0010
0100
1000
,
0000
0000
0000
0000
0001
0100
0010
1000
,
0000
0000
0000
0000
0100
1000
0001
0010
,
0000
0000
0000
0000
0001
0100
0010
1000
,
0000
0000
0000
0000
0100
1000
0001
0010
,
0000
0000
0000
0000
0001
1000
0010
0100
,
0000
0000
0000
0000
0001
1000
0100
0010
,
0000
0000
0000
0000
0001
1000
0010
0100
,
0000
0000
0000
0000
0001
0010
0100
1000
,
0000
0000
0000
0000
0010
0100
0001
1000
,
0000
0000
0000
0000
0100
1000
0001
0010
,
0000
0000
0000
0000
0001
0100
0010
1000
,
0000
0000
0000
0000
0100
0010
0001
1000
,
0000
0000
0000
0000
0010
1000
0001
0100
,
0000
0000
0001
0001
,
0001
1000
0100
0000
1100
0000
1000
0000
,
0001
0100
0010
0000
1010
0000
1000
0000
,
0001
0010
0100
0000
1100
0000
1000
0000
,
0001
1000
0010
0000
0100
0001
0010
0100
,
0010
0001
0100
0000
0110
0000
0010
0000
,
1000
0001
0010
0000
0110
0000
0100
0000
,
0010
0001
1000
0000
1010
0000
0010
0000
,
0100
0001
1000
0000
0100
1000
0010
0100
,
0001
0000
1000
0001
0010
0000
0000
0000
0011
0000
0000
0000
0001
0000
0000
0000
,
1000
0010
0100
0000
0101
0000
0001
0000
,
0010
0100
1000
0000
1100
0000
0100
0000
,
0010
0001
1000
0000
0010
1000
0100
0010
,
0100
1000
0010
0000
0110
0000
0100
0000
,
0001
1000
0100
0000
1100
0000
1000
0000
,
0001
0100
0010
0000
1010
0000
1000
0000
,
0001
0010
0100
0000
0010
0001
0100
0010
,
0100
0000
0001
1000
0100
0000
0000
0000
1100
0000
0000
0000
0000
0000
1000
0000
,
0100
0000
0010
0000
0011
0000
0000
0001
,
0010
0000
0100
0000
1001
0000
0000
1000
,
0010
0000
0100
0000
0101
0000
0000
0001
,
0100
0000
0010
0000
1001
0000
0000
1000
,
0100
0000
0010
0000
0011
0000
0000
0001
,
0010
0000
0100
0000
1001
0000
0000
1000
,
0010
0000
0100
0000
0101
0000
0000
0001
,
0100
0010
1000
0100
,
0010
0000
0001
0000
0100
0000
0000
0010
,
1000
0001
1000
0100
,
0010
0000
0001
0000
0100
0000
0000
0010
,
1000
0000
0001
0000
0010
0001
0100
0010
,
1000
0010
0100
0001
0010
0000
0000
0100
,
1000
0000
0000
0000
0000
0000
0000
0000
0001
1000
0100
1000
0001
0010
0100
0010
,
0001
1000
0001
0100
0010
0100
0001
1000
0100
0000
0000
0000
0000
0000
0000
0000
,
0000
0000
0000
0000
0000
0000
0000
0000
1000
0000
0001
0100
0001
0000
0010
0000
,
0001
0100
0001
0000
1000
0000
0001
0100
0001
0000
0010
0000
0001
0100
0001
0000
,
1000
0000
0001
0100
0001
1000
0100
1000
0100
0000
1000
0100
1000
0000
0010
0000
,
1000
0100
1000
0000
0001
0000
1000
0100
1000
0000
0010
0000
1000
0100
1000
0000
,
0001
1000
0001
0100
0010
1000
0001
1000
0001
0000
0010
0100
1000
0000
0100
0000
,
0010
0100
1000
0000
0001
0000
0010
0100
1000
0000
0100
0000
0010
0100
1000
0000
,
0001
0000
1000
0100
1000
0001
1000
0001
1000
0000
0010
1000
0001
0000
0100
0000
,
0010
1000
0001
0000
1000
0000
0010
1000
0001
0000
0100
0001
1000
0001
1000
0000
,
0100
0010
0001
1000
0010
0100
0001
0100
0010
0000
1000
0001
1000
0000
0100
0000
,
1000
0001
1000
0000
0010
0000
1000
0001
1000
0000
0100
0000
1000
0001
1000
0000
,
0010
0000
1000
0001
0010
0100
1000
0001
1000
0000
0100
1000
0100
0000
0010
0000
,
0100
1000
0100
0000
1000
0000
0100
1000
0100
0000
0010
0000
0001
1000
0001
0000
,
1000
0001
0100
0010
0100
0001
1000
0001
0100
0000
0001
1000
0001
0000
0010
0000
,
0001
1000
0001
0000
0100
0000
0001
1000
0001
0000
0010
0000
0001
1000
0001
0000
,
0100
0000
0001
1000
0010
1000
0001
0010
0100
0000
1000
0001
1000
0000
0010
0000
,
1000
0001
1000
0000
0100
0000
1000
0001
1000
0000
0000
0000
0010
0000
0100
0000
,
0000
0001
0100
0000
0001
0100
0001
1000
0100
0000
0000
0000
0000
0000
1000
0000
,
0000
0100
0000
1000
0001
0100
0000
0001
,
0000
0000
1000
0000
0001
0000
0000
0000
1000
0100
1000
0000
0000
0000
0100
0000
,
0000
0010
0000
0100
1000
0001
0000
0100
,
0000
0000
0000
0000
0000
0000
0000
0000
0001
0100
0010
0000
0000
0000
1000
0000
,
0000
0001
0000
0010
0100
1000
0000
0001
,
0000
0000
0100
0000
0010
0000
0000
0000
1000
0001
1000
0000
0000
0000
0001
0000
,
0000
0010
0000
0100
2000
0000
3000
0000
,
0000
0000
0000
0000
0000
0000
0000
0000
0001
0000
0100
0000
0010
1000
0001
0000
,
1000
0000
0010
1000
0010
0000
1000
0001
1000
0000
0001
0100
0001
0000
0000
1000
,
0010
0000
1000
0000
0001
0100
0010
0100
0001
0000
1000
0100
0010
0100
1000
0000
,
0001
0000
0100
0001
0100
0000
0001
1000
0001
0000
0000
1000
0100
0000
1000
0100
,
1000
0001
0010
0000
0001
0100
0010
1000
0100
0000
1000
0001
0100
0001
1000
0000
,
0001
0000
0100
0001
0100
0000
0001
1000
0001
0000
0000
1000
0100
0000
0000
1000
,
0001
0000
0100
0000
0001
1000
0010
1000
0001
0000
1000
0100
1000
0001
1000
0000
,
0001
0000
0100
0001
0100
0000
0001
1000
0100
0010
0001
1000
0001
0000
1000
0010
,
0100
0001
1000
0100
0010
0001
1000
0001
0100
0000
0001
1000
0001
1000
0100
0000
,
1000
0000
0001
0100
0001
0000
1000
0100
1000
0000
0001
0010
0001
0000
0000
1000
,
0100
0000
1000
0000
0001
0100
0010
0100
0001
0000
1000
0100
1000
0001
0100
0000
,
0001
0000
1000
0001
0100
0000
0001
1000
0010
0000
0000
1000
0001
0000
1000
0100
,
1000
0001
0010
0000
0001
0010
0100
1000
0001
0000
1000
0001
0010
0100
1000
0000
,
0001
0000
1000
0001
0100
0000
0001
1000
0010
0000
0000
0100
0001
0000
0000
1000
,
0010
0000
0100
0000
0001
1000
0010
1000
0001
0000
1000
0001
0010
0100
1000
0000
,
0100
0000
0010
0001
0100
0000
0001
1000
0100
0000
1000
0000
0001
0000
0100
0000
,
0010
0100
0001
1000
0100
0010
0001
0010
0100
0000
0000
0000
0000
0000
0000
0000
,
0000
0000
0000
0000
0000
0000
0000
0000
1000
0000
0100
0010
0001
0000
1000
0000
,
0001
0100
0001
0000
1000
0000
0001
0000
0100
0000
0010
1000
0010
0000
0100
0000
,
0001
1000
0100
0000
1000
0000
0001
0000
0010
0000
0001
1000
0100
0000
0010
0000
,
0001
1000
0010
0000
0100
0000
0001
0000
1000
0000
0001
0000
0100
0000
0001
0000
,
1000
0000
0001
0100
0010
1000
0001
0000
0010
0000
0100
1000
0100
0000
1000
0000
,
0001
0100
0010
0000
1000
0000
0001
0000
0010
0000
0100
1000
0001
0000
1000
0000
,
0001
0100
0010
0000
0100
0000
0001
0000
1000
0000
0001
1000
0100
0000
1000
0000
,
0001
0010
0100
0000
1000
0000
0001
0000
0010
0000
0400
0000
1300
0000
0004
0000
,
4003
0000
3040
0000
0430
0000
0301
1000
0001
0000
1000
0001
0010
0000
0001
0000
,
0100
0010
1000
0000
0001
0000
1000
0000
0010
0000
0100
0010
1000
0000
0001
0000
,
0010
0100
1000
0000
0001
1000
0010
1000
0100
0000
0010
0001
0010
0000
0001
0000
,
1000
0010
0100
0000
0010
0000
1000
0000
0001
0000
0010
0100
1000
0000
0001
0010
,
0100
0000
0010
0100
1000
0000
0001
1000
0010
0000
0100
0000
0001
0000
1000
0000
,
0001
0000
0010
0000
0100
1000
0001
1000
0010
0000
0000
0000
0000
0000
0000
0000
,
1000
0000
0001
0010
0100
0000
1000
0100
0010
0000
0001
1000
0001
0000
1000
0000
,
0010
1000
0001
0000
0100
0000
0010
0000
2000
0000
0000
0000
0000
0000
3000
0000
,
0000
0000
0000
0000
0001
1000
0001
0000
2002
0000
0000
0000
0000
0000
3003
0000
;

//---------------dance-single - Rynker----------------
#NOTES:
     dance-single:
     Rynker:
     Hard:
     15:
     1.000,1.000,0.182,0.028,1.000,1489.000,33.000,5.000,0.000,0.000:
0000
0000
0000
0000
,
0000
0000
0000
0000
,
0000
0000
0000
0000
0000
0000
0000
0000
1000
0000
0100
0010
0001
0000
1000
0000
,
0001
0100
0001
0000
1000
0000
0001
0000
0100
0000
0010
1000
0010
0000
0100
0000
,
0001
1000
0100
0000
1000
0000
0001
0000
0010
0000
0001
1000
0100
0000
0010
0000
,
0001
1000
0010
0000
0100
0000
0001
0000
1000
0000
0001
0000
0100
0000
0001
0000
,
1000
0000
0001
0000
0100
0000
0001
0000
0010
0000
0100
1000
0100
0000
1000
0000
,
0001
0100
0010
0000
1000
0000
0001
0000
0010
0000
0100
1000
0001
0000
1000
0000
,
0001
0100
0010
0000
0100
0000
0001
0000
1000
0000
0001
1000
0100
0000
1000
0000
,
0001
0010
0100
0000
1000
0000
0001
0000
0010
0000
0100
0000
1000
0000
0001
0000
,
1000
0000
0100
0000
0010
0000
0100
0000
1000
0000
0001
1000
0100
0000
1000
0000
,
0010
0100
0001
0000
1000
0000
0001
0000
0100
0000
0010
0100
0001
0000
1000
0000
,
0100
0010
0001
0000
1000
0001
0100
0001
0010
0000
0100
1000
0100
0000
1000
0000
,
0001
0100
0010
0000
0100
0000
0001
0000
1000
0000
0100
0010
0001
0000
1000
0100
,
0010
0000
0100
0010
0001
0000
1000
0001
0100
0000
0010
0000
1000
0000
0001
0000
,
1000
0000
0100
0000
0010
0001
1000
0001
0100
0000
0000
0000
0000
0000
0000
0000
,
0001
0000
1000
0100
0010
0000
0001
0010
0100
0000
1000
0001
1000
0000
0001
0000
,
0100
0001
1000
0000
0010
0000
0100
0000
0002
0000
0000
0000
0000
0000
0003
0000
,
0000
0000
0000
0000
1000
0001
1000
0010
0100
0001
0100
0010
1000
0010
0100
0001
,
1000
0001
0100
0010
0100
0001
1000
0001
0010
0100
1000
0100
0010
0001
1000
0001
,
0010
0100
1000
0100
1000
0001
0010
0100
1000
0001
0100
0010
0100
0001
1000
0010
,
0100
0001
1000
0010
0100
0001
0100
0010
1000
0001
0100
0010
1000
0001
0100
0010
,
1000
0001
0100
0010
1000
0001
1000
0100
0010
0001
0010
0100
1000
0100
0010
0001
,
1000
0100
1000
0001
0010
0001
1000
0010
0100
0001
0100
0010
1000
0001
1000
0010
,
0100
0010
1000
0001
1000
0001
1000
0100
0010
0001
0010
0100
1000
0100
0010
0001
,
1000
0010
0100
0001
0100
0010
1000
0001
0040
0031
0100
0010
4000
3100
0010
0001
,
0400
0310
1000
0001
0040
0031
1000
0010
0100
0001
0100
0010
1000
0010
0100
0001
,
0100
0010
1000
0010
0100
0001
1000
0001
0010
0100
1000
0100
0010
0001
1000
0001
,
0010
0100
1000
0100
0010
0001
1000
0001
0100
0010
1000
0010
0100
0001
0100
0010
,
1000
0001
1000
0001
0100
0010
1000
0001
0010
0100
1000
0001
0010
0100
1000
0001
,
0010
0100
1000
0001
0010
0100
1000
0001
0100
0010
1000
0010
0100
0001
0100
0010
,
1000
0001
1000
0001
0100
0010
1000
0001
0010
0100
1000
0100
0010
0001
0010
0100
,
1000
0001
1000
0001
0010
0100
1000
0001
0100
0010
1000
0010
0100
0001
0100
0010
,
1000
0001
1000
0001
0100
0010
1000
0001
1000
0100
0010
0001
1000
0010
0100
0001
,
1000
0100
0010
0001
1000
0010
0100
0001
1000
0000
0001
0000
0000
0000
1000
0000
,
0000
0010
0000
0100
0001
1000
0000
0001
,
0000
0010
0100
0000
1001
0000
0000
1000
,
0000
0010
0000
1000
0001
0000
0000
0010
,
0000
0000
1001
0000
,
0000
0001
0011
0000
,
0000
1000
1010
0000
,
1001
0000
0000
0000
0000
0000
0000
0000
0001
0000
0010
0100
1000
0000
0001
0000
,
1000
0100
0010
0000
0004
0000
0000
0000
1003
0000
0010
0000
0100
0000
0001
0000
,
1000
0001
1000
0000
0001
0000
0010
0001
1000
0001
1000
0000
0010
0000
0100
0000
,
0001
1000
0001
0000
0010
0000
0100
0000
1000
0001
1000
0000
0010
0000
0100
0000
,
0001
1000
0001
0000
0010
0000
0001
1000
0001
0100
0010
0000
1000
0000
0100
0000
,
1000
0100
0010
0001
0100
0000
0010
0000
1000
0000
0001
0000
0010
0000
0100
0000
,
1000
0001
1000
0010
0100
0001
1000
0100
,
0010
0001
1000
0010
0100
0001
0010
0100
,
1000
0010
1000
0100
0010
0000
0000
0000
,
0000
0000
0000
0000
0000
0000
0000
0000
0001
1000
0010
0100
0010
1000
0100
0010
,
0001
0010
0100
1000
0010
1000
0100
0010
0001
0010
0100
1000
0001
1000
0001
0100
,
0010
1000
0010
0100
0001
1000
0100
0010
0001
1000
0010
1000
0001
0100
0010
1000
,
0100
0010
0001
0010
0100
1000
0001
0100
0010
1000
0010
0100
0001
0100
0010
1000
,
0100
0010
0001
0010
0100
1000
0001
0100
0010
1000
0001
1000
0010
0100
0001
1000
,
0100
0010
0100
1000
0001
1000
0010
0100
0001
0100
0010
1000
0001
0100
0010
1000
,
0001
0010
0100
1000
0001
0010
0001
1000
0010
0100
0010
1000
0001
1000
0001
0100
,
0010
1000
0001
0010
0100
1000
0001
0100
0010
1000
0010
0100
0001
1000
0100
0010
,
0001
0100
0010
1000
0001
0010
0100
0010
0001
0000
0000
0000
0000
0000
0000
0000
,
0000
0000
0000
0000
1000
0010
0100
0001
,
0000
0000
0000
0000
1000
0100
0010
0001
,
0000
0000
0000
0000
0100
0001
1000
0010
,
0000
0000
0000
0000
1000
0100
0010
0001
,
0000
0000
0000
0000
0100
0001
1000
0010
,
0000
0000
0000
0000
1000
0001
0010
0100
,
0000
0000
0000
0000
1000
0001
0100
0010
,
0000
0000
0000
0000
1000
0001
0010
0100
,
0000
0000
0000
0000
1000
0010
0100
0001
,
0000
0000
0000
0000
0010
0100
1000
0001
,
0000
0000
0000
0000
0100
0001
1000
0010
,
0000
0000
0000
0000
1000
0100
0010
0001
,
0000
0000
0000
0000
0100
0010
1000
0001
,
0000
0000
0000
0000
0010
0001
1000
0100
,
0000
0000
1000
1000
,
1000
0001
0100
0000
0101
0000
0001
0000
,
1000
0100
0010
0000
0011
0000
0001
0000
,
1000
0010
0100
0000
0101
0000
0001
0000
,
1000
0001
0010
0000
0100
1000
0010
0100
,
0010
1000
0100
0000
0110
0000
0010
0000
,
0001
1000
0010
0000
0110
0000
0100
0000
,
0010
1000
0001
0000
0011
0000
0010
0000
,
0100
1000
0001
0000
0100
0001
0010
0100
,
1000
0000
0001
1000
0010
0000
0000
0000
1010
0000
0000
0000
1000
0000
0000
0000
,
0001
0010
0100
0000
1100
0000
1000
0000
,
0010
0100
0001
0000
0101
0000
0100
0000
,
0010
1000
0001
0000
0010
0001
0100
0010
,
0100
0001
0010
0000
0110
0000
0100
0000
,
1000
0001
0100
0000
0101
0000
0001
0000
,
1000
0100
0010
0000
0011
0000
0001
0000
,
1000
0010
0100
0000
0010
1000
0100
0010
,
0100
0000
1000
0001
0100
0000
0000
0000
0101
0000
0000
0000
0000
0000
0001
0000
,
0100
0000
0010
0000
1010
0000
0000
1000
,
0010
0000
0100
0000
1001
0000
0000
0001
,
0010
0000
0100
0000
1100
0000
0000
1000
,
0100
0000
0010
0000
1001
0000
0000
0001
,
0100
0000
0010
0000
1010
0000
0000
1000
,
0010
0000
0100
0000
1001
0000
0000
0001
,
0010
0000
0100
0000
1100
0000
0000
1000
,
0100
0010
0001
0100
,
0010
0000
1000
0000
0100
0000
0000
0010
,
0001
1000
0001
0100
,
0010
0000
1000
0000
0100
0000
0000
0010
,
0001
0000
1000
0000
0010
1000
0100
0010
,
0001
0010
0100
1000
0010
0000
0000
0100
,
0001
0000
0000
0000
0000
0000
0000
0000
1000
0001
0010
0001
1000
0100
0010
0100
,
1000
0001
1000
0010
0100
0010
1000
0001
0010
0000
0000
0000
0000
0000
0000
0000
,
0000
0000
0000
0000
0000
0000
0000
0000
0001
1000
0001
0100
0010
1000
0100
1000
,
0001
0010
0100
1000
0010
1000
0001
0100
0010
1000
0100
1000
0001
0010
0100
1000
,
0010
0100
0001
0010
0100
1000
0010
0100
0001
1000
0010
0100
0001
1000
0100
0010
,
0001
0100
0001
1000
0010
0100
0001
0010
0100
1000
0001
0010
0001
0100
0010
1000
,
0001
0100
0001
0010
0100
1000
0001
0010
0100
1000
0001
0100
0001
0010
0100
1000
,
0100
0010
0001
0100
0010
1000
0010
0100
0001
0010
0100
1000
0100
0010
0001
0100
,
0010
1000
0010
0100
0001
0010
0100
1000
0001
0100
0001
1000
0010
1000
0100
0010
,
0001
0010
0100
1000
0010
0100
0001
0100
0010
1000
0001
0010
0100
1000
0100
0010
,
0001
0010
0100
1000
0010
0100
0001
0100
0001
1000
0001
0100
0010
1000
0100
1000
,
0001
0010
0100
1000
0010
1000
0001
0100
0010
1000
0100
1000
0001
0010
0100
1000
,
0010
0100
0001
0010
0100
1000
0010
0100
0001
1000
0010
0100
0001
1000
0100
0010
,
0001
0100
0001
1000
0010
0100
0001
0010
0100
1000
0001
0010
0001
0100
0010
1000
,
0001
0100
0001
0010
0100
1000
0001
0010
0100
1000
0001
0100
0001
0010
0100
1000
,
0100
0010
0001
0100
0010
1000
0010
0100
0001
0010
0100
1000
0100
0010
0001
0100
,
0010
1000
0010
0100
0001
0010
0100
1000
0001
0100
0001
1000
0010
1000
0100
0010
,
0001
0010
0100
1000
0010
0100
0001
0100
0010
0000
0000
0000
1000
0000
0010
0000
,
0000
0000
1000
0000
0010
0100
0001
0100
0010
0000
1000
0000
0000
0000
0001
0000
,
0000
0010
0000
0001
1000
0010
0000
1000
,
0000
0000
0001
0000
1000
0000
0000
0000
0001
0010
0001
0000
0000
0000
0010
0000
,
0000
0100
0000
0010
0001
1000
0000
0010
,
0000
0000
0000
0000
0000
0000
0000
0000
1000
0010
0100
0000
0000
0000
0001
0000
,
0000
1000
0000
0100
0010
0001
0000
1000
,
0000
0000
0010
0000
0100
0000
0000
0000
0001
1000
0001
0000
0000
0000
1000
0000
,
0000
0100
0000
0010
0002
0000
0003
0000
,
0000
0000
0000
0000
0000
0000
0000
0000
1000
0000
0001
0100
0001
0100
0001
0000
,
1000
0000
0100
1000
0001
0000
0100
0001
1000
0000
0010
1000
0001
0000
1000
0100
,
1000
0000
0100
0000
0010
0001
1000
0001
1000
0000
0001
0100
0001
1000
0001
0000
,
1000
0000
0100
1000
0100
0000
1000
0001
1000
0000
0010
0100
0001
0000
1000
0000
,
0100
0010
0001
0000
1000
0010
0100
0001
1000
0000
0001
0010
0100
0010
0001
0000
,
1000
0000
0001
0100
0010
0000
1000
0010
0100
0000
0001
1000
0001
0000
1000
0100
,
1000
0000
0100
0000
0010
0001
1000
0001
1000
0000
0001
0100
0001
0100
0010
0000
,
1000
0000
0001
1000
0100
0000
0010
0001
1000
0001
0100
0010
1000
0000
0001
0100
,
0010
0000
1000
0001
0010
0100
1000
0010
0100
0000
0001
1000
0001
1000
0100
0000
,
1000
0000
0001
0010
0100
0000
1000
0001
0100
0000
0010
1000
0001
0000
1000
0100
,
1000
0000
0001
0000
1000
0100
1000
0001
1000
0000
0001
0100
0001
0100
0001
0000
,
1000
0000
0100
1000
0001
0000
0010
0001
1000
0000
0001
0100
0001
0000
1000
0100
,
1000
0001
0100
0001
1000
0100
1000
0001
0100
0000
0001
0010
0001
1000
0001
0000
,
1000
0000
0100
1000
0001
0000
0100
0010
1000
0000
0001
0010
0100
0000
1000
0001
,
0100
0000
0001
0000
1000
0100
0010
0001
1000
0000
0001
0100
0010
0100
0001
0000
,
1000
0000
0100
1000
0001
0000
0010
0100
1000
0000
0001
0000
0100
0000
0010
0000
,
1000
0001
0010
0100
1000
0010
0100
0001
1000
0000
0000
0000
0000
0000
0000
0000
,
0000
0000
0000
0000
0000
0000
0000
0000
0001
0000
0010
0100
1000
0000
0001
0000
,
1000
0010
1000
0000
0001
0000
1000
0000
0010
0000
0100
0001
0100
0000
0010
0000
,
1000
0001
0010
0000
0001
0000
1000
0000
0100
0000
1000
0001
0010
0000
0100
0000
,
1000
0001
0100
0000
0010
0000
1000
0000
0001
0000
1000
0000
0010
0000
1000
0000
,
0001
0000
1000
0010
0100
0001
1000
0000
0100
0000
0010
0001
0010
0000
0001
0000
,
1000
0010
0100
0000
0001
0000
1000
0000
0100
0000
0010
0001
1000
0000
0001
0000
,
1000
0010
0100
0000
0010
0000
1000
0000
0001
0000
1000
0001
0010
0000
0001
0000
,
1000
0100
0010
0000
0001
0000
1000
0000
0100
0000
0040
0000
0031
0000
4000
0000
,
3004
0000
0403
0000
0340
0000
1030
0001
1000
0000
0001
1000
0100
0000
1000
0000
,
0010
0100
0001
0000
1000
0000
0001
0000
0100
0000
0010
0100
0001
0000
1000
0000
,
0100
0010
0001
0000
1000
0001
0100
0001
0010
0000
0100
1000
0100
0000
1000
0000
,
0001
0100
0010
0000
0100
0000
0001
0000
1000
0000
0100
0010
0001
0000
1000
0100
,
0010
0000
0100
0010
0001
0000
1000
0001
0100
0000
0010
0000
1000
0000
0001
0000
,
1000
0000
0100
0000
0010
0001
1000
0001
0100
0000
0000
0000
0000
0000
0000
0000
,
0001
0000
1000
0100
0010
0000
0001
0010
0100
0000
1000
0001
1000
0000
0001
0000
,
0100
0001
1000
0000
0010
0000
0100
0000
0002
0000
0000
0000
0000
0000
0003
0000
,
0000
0000
0000
0000
1000
0001
1000
0000
2002
0000
0000
0000
0000
0000
3003
0000
;
