#TITLE:Love Is Dreaminess;
#SUBTITLE:;
#ARTIST:L.E.D.-G vs GUHROOVY fw/ Asuka;
#TITLETRANSLIT:;
#SUBTITLETRANSLIT:;
#ARTISTTRANSLIT:;
#CREDIT:;
#BANNER:Love Is Dreaminess-bn.png;
#BACKGROUND:Love Is Dreaminess-bg.png;
#LYRICSPATH:;
#CDTITLE:KOMBO.PNG;
#MUSIC:Love Is Dreaminess.mp3;
#OFFSET:-1.432;
#SAMPLESTART:82.450;
#SAMPLELENGTH:17.900;
#SELECTABLE:YES;
#DISPLAYBPM:178.000;
#BPMS:0.000=178.060;
#STOPS:;
#BGCHANGES:;
// cache tags:
#FIRSTBEAT:0.000;
#LASTBEAT:352.000;
#SONGFILENAME:Songs/Definitive Keyboard Megapack/Love Is Dreaminess[KOMBO]/Love Is Dreaminess.sm;
#HASMUSIC:1;
#HASBANNER:1;
#MUSICLENGTH:121.843;
// end cache tags

//---------------dance-single - ----------------
#NOTES:
     dance-single:
     :
     Hard:
     11:
     1.000,1.000,0.886,0.156,1.000,904.000,108.000,19.000,0.000,5.000:
1001
0000
0000
0000
0101
0000
0000
0000
1001
0000
0010
0000
0001
1000
0010
0100
,
0001
0000
0000
0000
1001
0000
0000
0000
0011
0000
0100
0000
0010
1000
0001
1000
,
0010
0000
0000
0000
1010
0000
0000
0000
1001
0000
0100
0000
1000
0001
0100
0010
,
1000
0000
0000
0000
1001
0000
0000
0000
1100
0000
0010
0000
0100
0001
1000
0001
,
0100
0000
0010
0000
0100
0000
1000
0000
0100
0010
0001
0000
0100
0000
0010
0000
,
1001
0010
1000
0000
0010
0000
0100
0000
0010
0000
1000
0000
0001
0000
1000
0000
,
0110
0000
0001
0000
1000
0000
0010
0001
0100
0010
1000
0000
0100
0000
0001
0000
,
2002
0000
0000
0000
0000
0000
0000
0000
0000
0000
0000
0000
0000
0000
0000
0000
0000
0000
0000
0000
0000
0000
0000
0000
0000
0000
0000
0000
0000
0000
0000
0000
0000
0000
0000
0000
0000
0000
0000
0000
0000
0000
0000
0000
0000
0000
0000
0000
0000
0000
0000
0000
0000
0000
0000
0000
0000
0000
0000
0000
0000
0000
0000
0000
0000
0000
0000
0000
0000
0000
0000
0000
0000
0000
0000
0000
0000
0000
0000
0000
0000
0000
0000
0000
0000
0000
0000
0000
0000
0000
0000
0000
0000
0000
0000
0000
0000
0000
0000
0000
0000
0000
0000
0000
0000
0000
0000
0000
0000
0000
0000
0000
0000
0000
0000
0000
0000
0000
0000
0000
0000
0000
0000
0000
0000
0000
0000
0000
0000
0000
0000
0000
0110
0000
0000
0000
0000
0000
0000
0000
0000
0000
0000
0000
0000
0000
0000
0000
0000
0000
0000
0000
0000
0000
0000
0000
0000
0000
0000
0000
0000
0000
0000
0000
0000
0000
0000
0000
0000
0000
0000
0000
0000
0000
0000
0000
0000
0000
0000
0000
0000
0000
0000
0000
0000
0000
0000
0000
0000
0000
0000
3003
,
1001
0000
0100
0001
0000
0001
0000
0010
,
0000
0001
0000
1000
0000
0010
0000
0000
,
1000
0000
0001
0010
0000
0100
0000
0010
,
0000
0000
0000
0000
,
0000
0000
0000
0001
0010
0001
0000
0010
,
0000
0010
0000
1000
0000
1000
0000
0100
,
0000
0000
0000
0000
0001
0000
0010
0000
0100
0000
1000
0001
0000
0000
0001
0000
,
0000
0001
0000
1000
0000
0010
0000
0000
,
1010
0000
0010
0000
0101
0000
0100
0000
0001
0010
0100
0000
1010
0000
1000
0000
,
0011
0100
0010
0000
1001
0000
0100
0000
1010
0000
0001
0000
0110
0000
1000
0000
,
0011
0000
0100
0000
1010
0000
0001
0000
0110
0001
1000
0000
0011
0000
1000
0000
,
1001
0100
0010
0000
1100
0000
0001
0000
0101
0000
0010
0000
1100
0000
0010
0000
,
0101
0000
1000
0000
0011
0000
0100
0000
1001
0010
0100
0000
1010
0000
0001
0000
,
0110
1000
0001
0000
1100
0000
0010
0000
1001
0000
0100
0000
0110
0000
0001
0000
,
1100
0000
0010
0000
0101
0000
1000
0000
0011
1000
0001
0000
0110
0000
1000
0000
,
0011
0100
1000
0001
1000
0001
1000
0001
1000
0001
1000
0001
1000
0001
1000
0001
,
1100
0010
0001
0010
1000
0100
1000
0010
0100
0010
1000
0100
0010
0001
0010
0100
,
1000
0001
1000
0001
1000
0010
0100
0010
0100
0001
0100
1000
0001
0010
0100
1000
,
0100
0010
0001
0100
0010
0100
1000
0001
1000
0100
0010
0001
0010
0100
1000
0100
,
0010
0100
0010
1000
0001
1000
0001
0100
0010
0100
0010
1000
0001
1000
0010
0100
,
0010
1000
0001
1000
0100
0010
0001
0010
0100
1000
0100
0010
0100
0010
0100
0001
,
0100
0010
1000
0001
1000
0010
0100
0010
0001
0010
0100
1000
0100
0010
0001
1000
,
0001
0100
1000
0001
1000
0100
0010
0001
0010
0100
1000
0100
0010
0001
0010
0100
,
1000
0000
0001
0000
1000
0000
0001
0000
0000
0000
1000
0000
0000
0000
1000
0010
,
1100
0010
0001
0010
1000
0100
1000
0010
0100
0010
1000
0100
0010
0001
0010
0100
,
1000
0001
1000
0001
1000
0010
0100
0010
0100
0001
0100
1000
0001
0010
0100
1000
,
0100
0010
0001
0100
0010
0100
1000
0001
1000
0100
0010
0001
0010
0100
1000
0100
,
0010
0100
0010
1000
0001
1000
0001
0100
0010
0100
0010
1000
0001
1000
0010
0100
,
0011
1000
0001
1000
0100
0010
0001
0010
0100
1000
0100
0010
0100
0010
0100
0001
,
1100
0010
1000
0001
1000
0010
0100
0010
0001
0010
0100
1000
0100
0010
0001
1000
,
0011
0100
1000
0001
1000
0100
0010
0001
1010
0100
1000
0100
0010
0001
0010
0100
,
1000
0000
0001
0000
1000
0000
0001
0000
0000
0000
1000
0000
0000
0000
1000
0001
,
0110
0000
1000
0000
0100
0000
1000
0000
0100
1000
0001
0000
0100
0000
0001
0000
,
0100
1000
0010
0000
0001
0000
0010
0000
0001
0000
0010
0000
1000
0000
0010
0000
,
1000
0000
0010
0000
0100
0000
1000
0000
0100
0001
1000
0000
0100
0000
0001
0000
,
0100
1000
0001
0000
0100
0000
1000
0000
0100
0000
0001
0010
0000
0000
0010
0000
,
1100
0000
0010
0000
0001
0000
0010
0000
0100
0001
0010
0000
0001
0000
0010
0000
,
1000
0001
0100
0000
0001
0000
0100
0000
0001
0000
0100
0000
0010
0000
1000
0000
,
0010
0000
1000
0000
0010
0000
0001
0000
0100
0010
1000
0000
0100
0000
0010
0000
,
1000
0100
0001
0000
1000
0000
0010
0000
0001
0000
0010
0000
1000
0000
0000
0000
,
0210
0000
0000
0000
0302
0000
0013
0000
0100
1000
0010
0000
0100
0000
0001
0000
,
1000
0100
0001
0000
1001
0000
0000
0000
0100
0000
1000
0000
0100
0000
1010
0000
,
0201
0000
0000
0000
2300
0000
3010
0000
0100
0001
1000
0000
0100
0000
1000
0000
,
0001
0100
0010
0000
1100
0000
0000
0000
0010
0000
0000
0100
0010
0000
1001
0000
,
2001
0000
0000
0000
3020
0000
0130
0000
0010
0001
1000
0000
0010
0000
0000
0000
,
0011
0100
0001
0000
1000
0000
0001
0000
1100
0001
0010
0000
1000
0000
0000
0000
,
1001
0101
0110
1010
,
1001
0000
0000
0000
0010
0000
0010
0000
0010
0010
0000
0010
1100
0000
1100
0000
,
1010
0000
0010
0000
0101
0000
0100
0000
0001
0010
0100
0000
1010
0000
1000
0000
,
0011
0100
0010
0000
1001
0000
0100
0000
1010
0000
0001
0000
0110
0000
1000
0000
,
0011
0000
0100
0000
1010
0000
0001
0000
0110
0001
1000
0000
0011
0000
1000
0000
,
1001
0100
0010
0000
1100
0000
0001
0000
0101
0000
0010
0000
1100
0000
0010
0000
,
0101
0000
1000
0000
0011
0000
0100
0000
1001
0010
0100
0000
1010
0000
0001
0000
,
0110
1000
0001
0000
1100
0000
0010
0000
1001
0000
0100
0000
0110
0000
0001
0000
,
1100
0000
0010
0000
0101
0000
1000
0000
0011
1000
0001
0000
0110
0000
1000
0000
,
0011
0100
1010
0000
0101
0000
1000
0100
0011
0000
0000
0000
1000
0000
0001
0000
,
1100
0010
0001
0010
1000
0100
1000
0010
0100
0010
1000
0100
0010
0001
0010
0100
,
1000
0001
1000
0001
1000
0010
0100
0010
0100
0001
0100
1000
0001
0010
0100
1000
,
0100
0010
0001
0100
0010
0100
1000
0001
1000
0100
0010
0001
0010
0100
1000
0100
,
0010
0100
0010
1000
0001
1000
0001
0100
0010
0100
0010
1000
0001
1000
0010
0100
,
0011
1000
0001
1000
0100
0010
0001
0010
0100
1000
0100
0010
0100
0010
0100
0001
,
1100
0010
1000
0001
1000
0010
0100
0010
0001
0010
0100
1000
0100
0010
0001
1000
,
0011
0100
1000
0001
1000
0100
0010
0001
1010
0100
1000
0100
0010
0001
0010
0100
,
0010
0000
0001
0000
0100
0000
1000
0001
0100
0000
0001
0000
0010
0000
0000
0000
,
2001
0100
0001
0100
0010
0100
0001
0100
0010
0100
0001
0100
0010
0100
0001
0100
,
0010
0000
0000
0000
0100
0010
0001
0010
0100
0000
0000
0000
0100
0010
0001
0010
,
3200
0001
1000
0001
0010
0001
1000
0010
,
1302
0000
1000
0000
1000
0000
0000
0000
0203
0000
0000
0001
1000
0000
0001
0000
,
1321
0100
0001
0100
0001
1000
0001
1000
0001
0100
1000
0100
0001
0100
1000
0100
,
1000
0000
0000
0000
1000
0100
0001
0100
1030
0000
0000
0000
1000
0100
0010
0100
,
1000
0000
0001
0000
1000
0100
0010
0001
0010
0100
1000
0100
0010
0001
0010
0100
,
1000
0000
0001
0000
1000
0000
0010
0001
1000
0000
0001
0000
1000
0000
0001
0000
,
0120
0001
0100
0001
1000
0001
0100
0001
1000
0001
0100
0001
1000
0001
0100
0001
,
1000
0000
0000
0000
0001
1000
0100
1000
0001
0000
0000
0000
0001
1000
0100
1000
,
0032
0100
0010
0100
1000
0100
0010
1000
,
0213
0000
0010
0000
0010
0000
0000
0000
0302
0000
0000
0100
0010
0000
0100
0000
,
2113
0001
0100
0001
0100
0010
0100
0010
0100
0001
0010
0001
0100
0001
0010
0001
,
0010
0000
0000
0000
0010
0001
0100
0001
3010
0000
0000
0000
0010
0001
1000
0001
,
0010
0000
0100
0000
1000
0100
0010
0001
0010
0100
1000
0100
0010
0001
0010
0100
,
2000
0000
0000
0000
,
3000
0000
0000
0000
;

//---------------dance-single - KOMBO----------------
#NOTES:
     dance-single:
     KOMBO:
     Challenge:
     16:
     1.000,1.000,1.000,0.090,1.000,956.000,386.000,11.000,0.000,52.000:

1001
0000
0000
0000
0101
0000
0000
0000
1001
0000
0010
0000
0001
1000
0010
0100
,
0001
0000
0000
0000
1001
0000
0000
0000
0011
0000
0100
0000
0010
1000
0001
1000
,
0010
0000
0000
0000
1010
0000
0000
0000
1001
0000
0100
0000
1000
0001
0100
0010
,
1000
0000
0000
0000
1001
0000
0000
0000
1100
0000
0010
0000
0100
0001
1000
0001
,
0100
0000
0010
0000
0100
0000
1000
0000
0100
0010
0001
0000
0100
0000
0010
0000
,
1001
0010
1000
0000
0010
0000
0100
0000
0010
0000
1000
0000
0001
0000
1000
0000
,
0110
0000
0001
0000
1000
0000
0010
0001
0100
0010
1000
0000
0100
0000
0001
0000
,
2002
0000
0000
0000
0000
0000
0000
0000
0000
0000
0000
0000
0000
0000
0000
0000
0000
0000
0000
0000
0000
0000
0000
0000
0000
0000
0000
0000
0000
0000
0000
0000
0000
0000
0000
0000
0000
0000
0000
0000
0000
0000
0000
0000
0000
0000
0000
0000
0000
0000
0000
0000
0000
0000
0000
0000
0000
0000
0000
0000
0000
0000
0000
0000
0000
0000
0000
0000
0000
0000
0000
0000
0000
0000
0000
0000
0000
0000
0000
0000
0000
0000
0000
0000
0000
0000
0000
0000
0000
0000
0000
0000
0000
0000
0000
0000
0000
0000
0000
0000
0000
0000
0000
0000
0000
0000
0000
0000
0000
0000
0000
0000
0000
0000
0000
0000
0000
0000
0000
0000
0000
0000
0000
0000
0000
0000
0000
0000
0000
0000
0000
0000
0110
0000
0000
0000
0000
0000
0000
0000
0000
0000
0000
0000
0000
0000
0000
0000
0000
0000
0000
0000
0000
0000
0000
0000
0000
0000
0000
0000
0000
0000
0000
0000
0000
0000
0000
0000
0000
0000
0000
0000
0000
0000
0000
0000
0000
0000
0000
0000
0000
0000
0000
0000
0000
0000
0000
0000
0000
0000
0000
3003
,
1001
0000
0100
0001
0000
0001
0000
0010
,
0000
0001
0000
1000
0000
0010
0000
0000
,
1000
0000
0001
0010
0000
0100
0000
0010
,
0000
0000
0000
0000
,
0000
0000
0000
0001
0010
0001
0000
0010
,
0000
0010
0000
1000
0000
1000
0000
0100
,
0000
0000
0000
0000
0001
0000
0010
0000
0100
0000
1000
0001
0000
0000
0001
0000
,
0000
0001
0000
1000
0000
0010
0000
0000
,
1010
0000
0010
0000
0101
0000
0100
0000
1001
0010
0101
0000
1010
0000
1000
0000
,
0011
0100
1010
0000
1001
0000
0100
0000
1010
0000
0001
0000
0110
0000
1000
0000
,
0011
0000
0100
0000
1010
0000
0001
0000
0110
0001
1100
0000
0011
0000
1000
0000
,
1001
0100
0011
0000
1100
0000
1000
0000
0101
0000
0010
0000
1100
0000
0010
0000
,
0101
0000
1000
0000
0011
0000
0100
0000
1001
0010
0101
0000
1010
0000
0001
0000
,
0111
1000
0011
0000
1100
0000
0010
0000
1001
0000
0100
0000
0110
0000
0001
0000
,
1110
0000
0010
0000
0101
0000
1000
0000
0111
1000
0001
0000
0110
0000
1000
0000
,
0011
0100
1010
0101
1010
0101
1010
0101
1010
0101
1010
0101
1010
0101
1010
0101
,
1010
0100
0001
0010
1000
0100
1000
0010
0100
0010
1000
0100
0010
0001
0010
0100
,
1000
0001
1000
0001
1000
0010
0100
0010
0100
0001
0100
1000
0001
0010
0100
1000
,
0100
0010
0001
0100
0010
0100
1000
0001
1000
0100
0010
0001
0010
0100
1000
0100
,
0010
0100
0010
1000
0001
1000
0001
0100
0010
0100
0010
1000
0001
1000
0010
0100
,
1011
0100
0001
1000
0100
0010
0001
0010
0100
1000
0100
0010
0100
0010
0100
0001
,
1110
0001
1000
0001
1000
0010
0100
0010
0001
0010
0100
1000
0100
0010
0001
0010
,
1101
0010
1000
0001
1000
0100
0010
0001
1110
0001
1000
0100
0010
0001
0010
0100
,
1000
0000
0001
0000
1000
0000
0001
0000
0000
0000
1000
0000
0000
0000
1000
0010
,
1100
0010
0101
0010
1001
0100
1001
0010
1100
0010
1001
0100
1010
0001
0110
0001
,
1100
0001
1010
0001
1100
0010
0101
0010
1100
0001
0110
1000
0101
0010
0101
1000
,
0101
0010
1001
0100
0011
0100
1010
0001
1010
0100
1010
0001
0110
0001
0110
1000
,
0111
1000
0111
1000
0111
0000
0110
1000
0111
1000
0001
1000
0111
0000
0111
0000
,
0111
1000
0011
1000
0101
0010
1001
0010
0101
1000
0101
0010
1100
0001
0110
0001
,
1110
0001
1010
0100
1001
0010
1100
0010
0101
0010
0101
1000
0101
0010
0101
1000
,
0111
1000
0110
0001
1010
0100
0011
0100
1011
0100
0011
1000
0110
1000
0011
1000
,
0111
0000
0001
0000
1000
0000
0001
0000
0000
0000
1000
0000
0000
0000
1000
0001
,
0110
0000
1000
0000
0100
0000
1000
0000
0100
0100
0100
0000
0100
0000
0001
0000
,
0010
0010
0010
0000
0001
0000
0010
0000
0001
0000
0010
0000
1000
0000
0010
0000
,
1000
0000
0010
0000
0100
0000
1000
0000
1000
1000
1000
0000
0100
0000
0001
0000
,
0010
0010
0010
0000
0100
0000
1000
0000
0100
0000
0001
0010
0000
0000
0010
0000
,
1100
0000
0010
0000
0001
0000
0010
0000
0001
0001
0001
0000
0001
0000
0010
0000
,
1000
1000
1000
0000
0001
0000
0100
0000
0001
0000
0100
0000
0010
0000
1000
0000
,
0010
0000
1000
0000
0010
0000
0001
0000
0100
0100
0100
0000
0100
0000
0010
0000
,
0001
0001
0001
0000
1000
0000
0010
0000
0001
0000
0010
0000
1000
0000
0000
0000
,
0210
0000
0000
0000
0302
0000
0013
0000
1000
1000
1000
0000
0100
0000
0001
0000
,
0100
0100
0100
0000
1001
0000
0000
0000
0100
0000
1000
0000
0100
0000
1010
0000
,
0201
0000
0000
0000
2300
0000
3010
0000
0010
0010
0010
0000
0100
0000
1000
0000
,
0001
0001
0001
0000
1100
0000
0000
0000
0010
0000
0000
0100
0010
0000
1001
0000
,
2001
0000
0000
0000
3020
0000
0130
0000
0010
0010
0010
0000
0010
0000
0000
0000
,
0011
0010
0010
0000
1000
0000
0001
0000
1100
0100
0100
0000
1000
0000
0000
0000
,
1001
0101
0110
1010
,
1001
0000
0000
0000
0010
0000
0100
0000
0001
1000
0000
0001
1110
0000
1110
0000
,
1111
0000
0010
0000
0101
0000
0100
0000
0101
0010
0010
0000
1010
0000
1000
0000
,
0011
1000
1000
0000
0101
0000
1000
0000
0110
0000
0001
0000
1100
0000
0010
0000
,
0101
0000
0010
0000
1001
0000
0010
0000
1100
0001
0001
0000
0011
0000
1000
0000
,
1001
0100
0110
0000
1100
0000
0001
0000
0101
0000
1000
0001
1100
0000
0110
0000
,
0111
0000
1000
0000
0011
0000
0100
0000
1001
0010
0010
0000
1010
0000
0001
0000
,
0110
1000
1000
0000
1100
0000
0010
0000
1001
0000
0100
0000
0110
0000
0001
0000
,
1100
0000
0010
0000
0101
0000
1000
0000
0101
0010
0010
0000
0110
0000
1000
0000
,
0011
1000
0110
0000
0101
0000
1010
0100
0011
0000
0110
0000
1001
0000
0011
0000
,
1100
0010
0101
0010
1001
0100
1001
0010
1100
0010
1001
0100
1010
0001
0110
0001
,
1100
0001
1010
0001
1100
0010
0101
0010
1100
0001
0110
1000
0101
0010
0101
1000
,
0101
0010
1001
0100
0011
0100
1010
0001
1010
0100
1010
0001
0110
0001
0110
1000
,
0111
1000
0111
1000
0111
0000
0110
1000
0111
1000
0001
1000
0111
0000
0111
0000
,
0111
1000
0011
1000
0101
0010
1001
0010
0101
1000
0101
0010
1100
0001
0110
0001
,
1110
0001
1010
0100
1001
0010
1100
0010
0101
0010
0101
1000
0101
0010
0101
1000
,
0111
1000
0110
0001
1010
0100
0011
0100
1011
0100
0011
1000
0110
1000
0011
1000
,
0111
0000
0001
0000
0100
0000
1000
0001
0100
0000
0001
0000
0010
0000
0000
0000
,
1100
0010
0101
0010
1001
0110
1001
0110
1001
0110
1001
0100
1010
0001
0110
0001
,
1100
0001
1010
0001
1100
0011
1100
0011
1100
0001
0110
1000
0011
1100
0011
1100
,
0011
0100
1001
0010
0101
1010
0101
1010
0101
1000
0110
0001
1100
0001
0110
1000
,
0111
1000
0111
1000
0111
0000
0110
1000
0111
1000
0001
1000
0111
0000
0111
0000
,
0111
1000
0011
1000
0101
1010
0101
1010
0101
1010
0101
1010
0101
1000
0110
0001
,
1110
0001
1010
0100
1001
0110
1001
0110
1001
0010
0101
1000
0110
1001
0110
1001
,
0110
1000
0110
0001
1010
0101
1010
0101
1010
0100
0011
1000
0110
1000
0011
1000
,
0111
0000
0001
0000
1000
0000
0010
0001
1000
0000
0001
0000
1000
0000
0001
0000
,
0011
0100
1010
0100
1001
0110
1001
0110
1001
0110
1001
0010
0101
1000
0110
1000
,
0011
1000
0101
1000
0011
1100
0011
1100
0011
1000
0110
0001
1100
0011
1100
0011
,
1100
0010
1001
0100
1010
0101
1010
0101
1010
0001
0110
1000
0011
1000
0110
0001
,
1110
0001
1110
0001
1110
0000
0110
0001
1110
0001
1000
0001
1110
0000
1110
0000
,
1110
0001
1100
0001
1010
0101
1010
0101
1010
0101
1010
0101
1010
0001
0110
1000
,
0111
1000
0101
0010
1001
0110
1001
0110
1001
0100
1010
0001
0110
1001
0110
1001
,
0110
0001
0110
1000
0101
1010
0101
1010
0101
0010
1100
0001
0110
0001
1100
0001
,
2220
3330
0000
0000
0000
0000
0000
0000
0000
0000
0000
0000
0000
0000
0000
0000
;
