#TITLE:Digital Messias;
#SUBTITLE:;
#ARTIST:Parandroid;
#TITLETRANSLIT:;
#SUBTITLETRANSLIT:;
#ARTISTTRANSLIT:;
#CREDIT:;
#BANNER:../_bn-1.png;
#BACKGROUND:../bg-1.png;
#LYRICSPATH:;
#CDTITLE:~CDTitle-@@.png;
#MUSIC:Parandroid - Digital Messias.ogg;
#OFFSET:0.000;
#SAMPLESTART:363.789;
#SAMPLELENGTH:20.209;
#SELECTABLE:YES;
#BPMS:0.000=190.000;
#STOPS:;
#BGCHANGES:;
// cache tags:
#FIRSTBEAT:0.000;
#LASTBEAT:1455.000;
#SONGFILENAME:Songs/Index Tournament 1/Digital Messias/Digital Messias.sm;
#HASMUSIC:1;
#HASBANNER:1;
#MUSICLENGTH:459.794;
// end cache tags

//---------------dance-single - @@----------------
#NOTES:
     dance-single:
     @@:
     Challenge:
     18:
     1.000,1.000,0.000,0.007,1.000,5532.000,0.000,3.000,0.000,0.000:
1000
0000
0001
0000
1000
0100
0010
0100
1000
0001
0010
0100
1000
0100
0010
0001
,
1000
0010
1000
0001
0100
0001
1000
0010
0100
0001
0100
0010
1000
0001
0100
0001
,
1000
0100
0010
0100
1000
0001
1000
0010
0100
0001
0100
0010
1000
0001
1000
0100
,
0010
0100
1000
0001
0010
0100
1000
0001
0100
0010
0100
0001
1000
0010
1000
0001
,
0010
0100
1000
0100
0010
0001
1000
0010
0100
0001
0100
0010
1000
0001
1000
0100
,
0010
0100
1000
0001
0010
0001
1000
0010
0100
0010
1000
0001
0100
0001
1000
0100
,
0010
0100
1000
0001
1000
0100
0010
0001
1000
0010
0100
0010
1000
0001
1000
0100
,
0010
0001
1000
0001
0010
0100
1000
0001
0100
0001
1000
0010
0100
0001
1000
0100
,
1000
0001
0010
0100
0010
0001
1000
0010
1000
0001
0100
0010
1000
0001
1000
0100
,
0010
0100
1000
0001
0010
0001
1000
0010
0100
0010
1000
0001
0100
0001
1000
0100
,
1000
0001
0010
0001
1000
0100
1000
0001
0100
0010
1000
0001
0100
0001
1000
0100
,
0010
0001
1000
0100
1000
0001
0010
0001
1000
0010
1000
0001
0100
0010
1000
0001
,
0010
0100
1000
0100
0010
0001
1000
0010
1000
0001
0100
0001
1000
0010
0100
0001
,
1000
0100
1000
0001
0010
0100
1000
0001
1000
0010
0100
0010
1000
0001
1000
0100
,
0010
0100
1000
0001
0010
0100
1000
0001
1000
0010
1000
0010
0100
0010
0100
0001
,
0010
0100
1000
0001
1000
0100
0010
0001
1000
0001
0100
0010
1000
0010
0100
0010
,
1000
0100
1000
0001
0010
0001
1000
0010
1000
0001
0100
0010
0100
0001
1000
0100
,
0010
0001
1000
0001
0010
0100
1000
0001
1000
0010
0100
0010
1000
0001
0100
0001
,
1000
0100
0010
0001
1000
0100
1000
0001
0100
0010
1000
0001
0100
0001
1000
0100
,
0010
0100
1000
0001
0010
0001
1000
0010
1000
0001
0100
0001
1000
0010
0100
0001
,
1000
0100
0010
0100
1000
0001
0010
0100
1000
0001
0100
0001
1000
0010
1000
0001
,
0010
0100
0010
0001
1000
0100
1000
0001
0100
0010
1000
0010
0100
0001
1000
0100
,
1000
0001
0010
0100
1000
0001
1000
0010
0100
0010
1000
0001
0100
0001
1000
0100
,
1000
0001
0010
0100
1000
0001
0010
0001
1000
0010
0100
0010
1000
0001
0100
0001
,
1000
0100
1000
0001
0010
0001
1000
0100
1000
0001
0100
0010
1000
0001
0100
0001
,
1000
0100
0010
0100
1000
0001
0010
0100
1000
0001
0100
0010
0100
0001
1000
0010
,
1000
0001
0010
0100
0010
0001
1000
0100
1000
0001
0100
0001
1000
0010
0100
0001
,
1000
0100
0010
0001
1000
0100
0010
0100
1000
0001
0100
0010
1000
0010
0100
0001
,
1000
0100
1000
0001
0010
0001
1000
0100
1000
0001
0100
0010
1000
0001
0100
0001
,
1000
0100
1000
0001
0010
0100
1000
0001
1000
0010
0100
0001
0010
0100
1000
0010
,
1000
0100
0010
0001
0100
0010
1000
0100
1000
0010
0100
0001
0010
0100
1000
0010
,
0100
0001
0010
0001
0100
0010
1000
0100
1000
0000
0000
0000
0001
0000
0000
0000
,
0001
1000
0010
1000
0001
1000
0100
0010
0001
0100
0010
1000
0010
1000
0001
0100
,
0001
1000
0100
0010
0001
1000
0010
1000
0100
0010
0001
1000
0100
1000
0010
0100
,
0001
0010
0001
0010
0100
1000
0001
1000
0010
0100
0001
1000
0100
0010
0001
1000
,
0010
1000
0100
0010
0001
0010
0100
1000
0001
0100
0001
0010
0001
0100
0010
1000
,
0100
0010
0001
0010
0100
1000
0010
1000
0001
0100
0010
0100
0001
1000
0100
0010
,
0001
0100
0001
1000
0001
0010
0100
1000
0010
0100
0010
1000
0001
0100
0001
1000
,
0010
1000
0100
1000
0001
0010
0001
1000
0010
0100
0001
0010
0001
1000
0010
0100
,
0001
0010
0100
1000
0001
1000
0010
0100
0001
0010
0100
0010
0001
0100
0010
0100
,
0001
0010
0001
0010
0100
1000
0001
1000
0010
0100
0010
0100
0001
1000
0010
1000
,
0001
0010
0100
1000
0010
1000
0001
0010
0001
0100
0010
0100
0001
0010
0001
0010
,
0100
1000
0001
1000
0010
1000
0001
1000
0010
0100
0001
1000
0100
0010
0001
1000
,
0010
0100
0001
1000
0100
0010
0001
0100
0001
1000
0010
0100
0010
1000
0001
0010
,
0100
1000
0001
0010
0001
0100
0010
1000
0001
0010
0001
0100
0001
1000
0001
0010
,
0100
1000
0010
0100
0001
0010
0100
1000
0001
0100
0010
0100
0001
1000
0010
1000
,
0100
0010
0001
0100
0001
0010
0100
1000
0010
1000
0100
0010
0001
0100
0001
0010
,
0100
1000
0001
0100
0001
0010
0100
0010
0001
0100
0001
1000
0010
1000
0001
0010
,
0100
1000
0100
0010
0001
0100
0001
0010
0100
1000
0010
1000
0001
0010
0001
1000
,
0010
0100
0001
1000
0100
1000
0001
0010
0100
1000
0010
0100
0010
1000
0100
0010
,
0001
1000
0010
1000
0001
1000
0010
0100
0001
0010
0100
1000
0010
1000
0001
0010
,
0001
0100
0010
1000
0001
0010
0001
1000
0010
1000
0001
0100
0010
1000
0100
0010
,
0001
0100
0001
1000
0100
1000
0001
0100
0001
1000
0100
1000
0001
0010
0100
0010
,
0001
0100
0010
1000
0010
0100
0001
0010
0001
1000
0010
0100
0001
1000
0010
1000
,
0100
1000
0001
0010
0001
0100
0010
1000
0100
1000
0001
0010
0001
0100
0010
1000
,
0100
0010
0100
1000
0100
0010
0001
0100
0010
1000
0001
0100
0001
1000
0010
1000
,
0001
0010
0001
1000
0001
0100
0010
1000
0100
0010
0001
0100
0010
1000
0001
0100
,
0001
0010
0100
0010
0001
1000
0010
1000
0001
0010
0001
0100
0001
1000
0001
0010
,
0100
0010
0001
0100
0001
1000
0010
1000
0001
0100
0010
1000
0010
0100
0001
1000
,
0100
0010
0100
1000
0010
1000
0100
0010
0001
1000
0100
1000
0010
0100
0010
1000
,
0001
0100
0001
0010
0100
1000
0001
0010
0001
1000
0010
0100
0010
1000
0001
0100
,
0001
0010
0100
1000
0001
0100
0001
1000
0100
0010
0100
1000
0010
0100
0001
1000
,
0100
0010
0001
0100
0010
1000
0100
1000
0010
0100
0001
0010
0100
1000
0010
1000
,
0100
0010
0001
0100
0010
1000
0100
1000
0010
0100
0001
0010
0100
1000
0010
1000
,
0001
0010
0100
0010
0001
0100
0010
1000
0010
0100
0001
0010
0001
0100
0010
1000
,
0001
0100
0001
1000
0100
1000
0010
0100
0010
1000
0100
0010
0001
1000
0001
0100
,
0010
1000
0001
1000
0100
0010
0100
1000
0010
0100
0001
0010
0100
1000
0010
0100
,
0001
0010
0001
1000
0001
0100
0001
1000
0010
1000
0001
1000
0100
1000
0001
0100
,
0010
1000
0100
0010
0001
0100
0010
1000
0001
0010
0001
1000
0100
1000
0010
0100
,
0001
0010
0100
1000
0010
1000
0001
0010
0100
1000
0010
1000
0100
0010
0001
0100
,
0010
1000
0100
1000
0001
0100
0001
1000
0010
0100
0010
1000
0100
0010
0001
1000
,
0001
0100
0010
0100
0001
1000
0010
1000
0100
0010
0001
1000
0100
1000
0001
0100
,
0010
1000
0010
0100
0001
0010
0100
1000
0100
0010
0001
0100
0010
1000
0001
0010
,
0100
0010
0001
1000
0010
1000
0001
0100
0010
1000
0100
0010
0001
0100
0001
1000
,
0010
1000
0100
0010
0100
1000
0001
0100
0001
1000
0010
1000
0001
0010
0001
0100
,
0010
1000
0001
1000
0100
0010
0100
1000
0001
1000
0100
0010
0001
0100
0001
1000
,
0010
1000
0100
0010
0001
1000
0001
0100
0010
1000
0010
1000
0001
0100
0010
1000
,
0100
1000
0001
0100
0001
0010
0100
1000
0001
0100
0010
0100
0001
0010
0001
1000
,
0010
1000
0100
1000
0010
0100
0001
0010
0001
1000
0010
1000
0001
0100
0010
0100
,
0001
0010
0100
1000
0001
1000
0010
0100
0001
0010
0001
0100
0010
0100
0001
0010
,
0001
1000
0010
1000
0100
0010
0001
0010
0100
1000
0100
0010
0001
0100
0010
1000
,
0001
1000
0100
1000
0010
0100
0001
0010
0001
1000
0001
0100
0010
1000
0100
1000
,
0001
0100
0010
0100
0001
0010
0001
0100
0010
1000
0001
0100
0001
0010
0100
1000
,
0001
1000
0100
0010
0001
0100
0001
1000
0010
1000
0001
0010
0001
1000
0010
0100
,
0001
0010
0100
1000
0001
0100
0001
1000
0010
1000
0001
0010
0100
1000
0100
0010
,
0001
1000
0010
0100
0010
1000
0001
0100
0001
1000
0100
1000
0010
0100
0001
1000
,
0100
1000
0010
0100
0001
0010
0001
1000
0010
1000
0001
0100
0001
1000
0100
0010
,
0001
0100
0010
0100
0001
1000
0100
0010
0001
1000
0001
0100
0010
1000
0001
0010
,
0001
0100
0010
0100
0001
1000
0100
0010
0001
1000
0010
0100
0010
1000
0001
0010
,
0001
1000
0100
1000
0010
0100
0001
0100
0010
1000
0100
0010
0100
1000
0001
1000
,
0010
0100
0010
1000
0001
0010
0001
0100
0010
0100
0001
1000
0100
1000
0010
0100
,
0001
0010
0001
1000
0001
0100
0010
0100
0001
0010
0100
1000
0001
0100
0001
1000
,
0100
1000
0010
0100
0001
0010
0100
1000
0001
1000
0010
0100
0010
1000
0001
0100
,
0001
1000
0100
1000
0001
1000
0010
0100
0001
0010
0001
1000
0001
0100
0010
1000
,
0100
1000
0001
0100
0010
0100
0001
0010
0100
1000
0001
0100
0001
1000
0100
1000
,
0001
0100
0010
0100
0001
1000
0010
1000
0100
0010
0100
1000
0010
0100
0001
1000
,
0001
0010
0100
0010
0001
0010
0100
0010
0001
0100
0010
0100
0001
1000
0010
1000
,
0100
0010
0001
1000
0001
0100
0010
1000
0100
1000
0010
0100
0010
1000
0010
0100
,
0001
0010
0001
1000
0100
0010
0001
1000
0010
1000
0001
0100
0001
1000
0100
0010
,
0001
1000
0100
1000
0001
0010
0100
0010
0001
1000
0010
0100
0010
1000
0001
0100
,
0001
1000
0100
1000
0010
0100
0010
1000
0100
1000
0001
0100
0010
1000
0100
0010
,
0001
1000
0001
0100
0010
0100
0001
0010
0100
0010
0001
0010
0100
0010
0001
1000
,
0010
0100
0001
0010
0100
1000
0001
1000
0010
0100
0010
1000
0100
0010
0001
1000
,
0001
0100
0010
1000
0100
1000
0010
0100
0010
1000
0010
1000
0001
0010
0001
0100
,
0001
0010
0100
1000
0010
1000
0001
0100
0001
1000
0100
1000
0010
0100
0010
1000
,
0001
0100
0001
0010
0100
0010
0001
1000
0010
1000
0100
0010
0001
1000
0010
0100
,
0001
0000
0000
0010
0000
0000
0100
0000
0000
1000
0000
0000
0010
0000
0000
1000
0000
0000
0001
0000
0000
0100
0000
0000
0001
0000
0000
0010
0000
0000
0100
0000
0000
0010
0000
0000
0001
0000
0000
0100
0000
0000
0010
0000
1000
0000
0100
0000
,
1000
0001
0010
0100
1000
0010
1000
0010
0100
0001
0100
0010
1000
0100
1000
0001
,
0100
0001
0010
0100
1000
0001
1000
0010
0100
0010
1000
0001
0010
0100
1000
0001
,
0100
0001
1000
0010
1000
0100
0010
0001
0010
0100
1000
0010
1000
0000
0000
0000
,
1000
0100
1000
0010
0100
0001
0010
0001
1000
0010
1000
0100
0010
0001
0100
0001
,
0100
0010
1000
0001
0100
0001
0010
0100
0010
0001
0100
0010
1000
0100
1000
0001
,
0100
0010
0100
0001
0010
0100
1000
0001
1000
0010
0100
0010
1000
0100
0010
0001
,
1000
0010
0100
0010
1000
0100
1000
0001
0100
0001
0010
0100
1000
0010
1000
0001
,
0010
0100
0010
0001
0100
0010
1000
0001
1000
0100
0010
0100
1000
0010
0100
0001
,
0010
0001
1000
0100
1000
0010
0100
0010
1000
0001
0010
0001
0100
0010
1000
0001
,
0010
0100
0010
0001
0100
0010
1000
0001
1000
0100
0010
0100
1000
0010
0100
0001
,
1000
0100
0010
0100
1000
0010
1000
0001
0010
0001
0100
0010
1000
0100
1000
0001
,
0100
0010
0100
0001
0010
0100
1000
0001
1000
0010
0100
0010
1000
0100
0010
0001
,
1000
0010
1000
0100
0010
0001
0100
0001
0010
0100
1000
0010
0100
0001
0010
0100
,
1000
0100
0010
0001
0100
0010
1000
0001
1000
0100
0010
0100
1000
0010
0100
0001
,
1000
0100
0010
0100
1000
0010
1000
0001
0010
0001
0100
0010
1000
0100
1000
0001
,
0100
0010
0100
0001
0010
0100
1000
0001
1000
0010
0100
0010
1000
0100
0010
0001
,
0100
0001
1000
0010
1000
0100
0010
0100
1000
0001
0100
0001
0010
0100
1000
0001
,
1000
0010
0100
0001
0010
0100
1000
0001
1000
0010
0100
0010
1000
0100
0010
0001
,
1000
0010
0100
0010
1000
0100
1000
0001
0100
0001
0010
0100
1000
0010
1000
0001
,
0010
0100
0010
0001
0100
0010
1000
0001
1000
0100
0010
0100
1000
0010
0100
0001
,
1000
0100
1000
0010
0100
0001
0010
0001
0100
0010
1000
0100
0010
0001
0100
0010
,
1000
0100
1000
0001
0010
0001
1000
0010
1000
0100
0010
0100
1000
0010
0100
0001
,
1000
0100
0010
0100
1000
0010
1000
0100
0010
0001
0100
0010
1000
0100
1000
0001
,
0100
0010
0100
0001
0100
0010
1000
0001
1000
0100
0010
0100
1000
0001
0010
0100
,
0010
0001
0100
0001
1000
0001
0010
0100
1000
0010
0100
0001
0010
0100
1000
0001
,
1000
0010
0100
0010
1000
0010
0100
0010
1000
0100
0010
0100
1000
0001
0100
0001
,
1000
0100
0010
0100
1000
0010
1000
0001
0010
0001
0100
0010
1000
0010
0100
0001
,
0010
0100
0010
0001
0010
0100
1000
0001
0100
0010
1000
0001
0100
0001
0010
0100
,
1000
0010
1000
0100
0010
0001
0100
0001
0010
0100
1000
0010
0100
0001
0010
0100
,
1000
0010
1000
0001
0100
0001
1000
0100
1000
0010
0100
0010
1000
0100
0010
0001
,
1000
0010
0100
0010
1000
0100
1000
0010
0100
0001
0010
0100
1000
0010
1000
0001
,
0010
0100
0010
0001
0100
0010
1000
0001
1000
0100
0010
0100
1000
0001
0100
0010
,
0100
0001
0010
0001
1000
0001
0100
0010
1000
0100
0010
0001
0100
0010
1000
0001
,
1000
0100
0010
0100
1000
0100
0010
0100
1000
0010
0100
0010
1000
0100
0010
0001
,
0100
0000
0000
0010
0000
0000
0100
0000
0000
0001
0000
0000
0010
0000
0000
0100
0000
0000
1000
0000
0000
0001
0000
0000
1000
0000
0000
0010
0000
0000
0100
0000
0000
0010
0000
0000
1000
0000
0000
0100
0000
0000
0010
0000
0001
0000
1000
0000
,
0001
0100
0010
1000
0100
1000
0001
0100
0001
0010
0100
1000
0001
0100
0010
1000
,
0100
0010
0001
0100
0010
1000
0100
1000
0010
0100
0001
0010
0100
1000
0010
0100
,
0001
0010
0001
1000
0100
1000
0010
0100
0001
0010
0001
0100
0010
1000
0100
1000
,
0010
0100
0001
0100
0010
1000
0100
0010
0001
1000
0100
1000
0010
0100
0010
1000
,
0001
0100
0001
0010
0100
1000
0010
1000
0001
0100
0001
0010
0100
1000
0010
1000
,
0100
0010
0001
1000
0001
0100
0010
1000
0001
0010
0001
0100
0010
1000
0100
1000
,
0010
0100
0001
1000
0001
0100
0010
0100
0001
0010
0100
1000
0100
0010
0001
0100
,
0010
1000
0100
1000
0001
1000
0100
1000
0001
0100
0010
1000
0100
1000
0010
0100
,
0001
0100
0010
1000
0100
1000
0001
0010
0001
0100
0010
0100
0001
0010
0100
1000
,
0010
0100
0001
1000
0001
0010
0100
1000
0001
0100
0001
0010
0100
1000
0010
1000
,
0100
0010
0100
1000
0010
0100
0001
0100
0010
1000
0100
1000
0010
0100
0001
1000
,
0100
1000
0010
0100
0001
0010
0100
1000
0010
1000
0001
0100
0001
0010
0100
1000
,
0001
1000
0010
0100
0001
1000
0100
0010
0001
1000
0010
1000
0100
0010
0001
0100
,
0010
0100
0001
1000
0001
0010
0100
1000
0010
1000
0100
0010
0001
0100
0001
0010
,
0100
1000
0100
1000
0010
0100
0001
0100
0010
1000
0100
0010
0001
1000
0001
0100
,
0010
1000
0001
0010
0001
0100
0010
1000
0001
0100
0001
0010
0100
1000
0001
1000
,
0100
0010
0001
0100
0010
1000
0001
0100
0001
0010
0100
1000
0001
0100
0010
1000
,
0100
0010
0001
1000
0001
0100
0010
1000
0100
1000
0010
0100
0001
0010
0001
0100
,
0010
0100
0001
1000
0010
1000
0100
0010
0001
0100
0001
0010
0100
1000
0010
1000
,
0100
0010
0001
0010
0100
1000
0010
0100
0001
1000
0010
1000
0100
0010
0100
1000
,
0001
0010
0001
0100
0010
1000
0100
1000
0001
0010
0001
0100
0010
1000
0100
1000
,
0010
0100
0001
1000
0001
0010
0100
1000
0001
0100
0001
0010
0100
1000
0010
1000
,
0100
0010
0001
1000
0001
0010
0100
0010
0001
0100
0010
1000
0010
0100
0001
0010
,
0100
1000
0010
1000
0001
0100
0010
1000
0001
0010
0100
1000
0010
1000
0100
0010
,
0001
0010
0100
1000
0010
1000
0001
0100
0001
0010
0100
0010
0001
0100
0010
1000
,
0100
0010
0001
1000
0001
0100
0010
1000
0001
0010
0001
1000
0100
0010
0100
1000
,
0010
0100
0010
1000
0100
0010
0001
0010
0100
1000
0010
1000
0100
0010
0001
1000
,
0010
1000
0100
0010
0001
1000
0010
0100
0001
1000
0100
0010
0001
0100
0010
1000
,
0001
1000
0100
0010
0001
1000
0010
0100
0001
1000
0100
1000
0010
0100
0001
0010
,
0100
0010
0001
1000
0001
0100
0010
1000
0100
1000
0010
0100
0001
0010
0001
0100
,
0020
0000
0030
0000
,
0000
0000
0000
0000
0000
0000
1000
0100
1000
0001
0010
0001
,
1000
0010
1000
0001
0100
0001
0010
0100
0010
0001
1000
0001
,
0100
0000
0000
0000
0000
0000
0000
0000
0000
0000
0000
0000
0010
0000
0000
1000
0000
0000
0001
0000
0000
1000
0000
0000
0100
0000
0000
0010
0000
0000
0001
0000
0100
0000
0010
0000
1000
0000
0000
0000
0000
0000
0000
0000
0000
0000
0000
0000
,
1000
0100
1000
0010
0100
0001
1000
0001
0100
0010
1000
0010
0100
0001
0010
0001
,
0100
0010
1000
0001
1000
0100
0010
0001
0100
0010
0100
0001
0010
0001
0100
0010
,
1000
0100
1000
0001
0100
0010
0100
0001
0010
0100
1000
0001
1000
0100
0010
0001
,
0100
0010
0100
0001
1000
0010
1000
0100
0010
0001
1000
0100
1000
0001
0100
0010
,
1000
0100
1000
0010
0100
0001
1000
0001
0100
0010
1000
0010
0100
0001
0010
0001
,
0100
0010
1000
0001
1000
0100
0010
0001
0100
0010
0100
0001
0010
0001
0100
0010
,
1000
0100
1000
0001
0100
0010
0100
0001
0010
0100
1000
0001
1000
0100
0010
0001
,
0100
0010
0100
0001
1000
0010
1000
0100
0010
0001
1000
0010
1000
0001
0010
0100
,
1000
0010
1000
0100
0010
0001
1000
0001
0010
0100
1000
0100
0010
0001
0100
0001
,
0010
0100
1000
0001
1000
0010
0100
0001
0010
0100
0010
0001
0100
0001
0010
0100
,
1000
0010
1000
0001
0010
0100
0010
0001
0100
0010
1000
0001
1000
0010
0100
0001
,
0010
0100
0010
0001
1000
0100
1000
0010
0100
0001
1000
0010
1000
0001
0010
0100
,
1000
0010
1000
0100
0010
0001
1000
0001
0010
0100
1000
0100
0010
0001
0100
0001
,
0010
0100
1000
0001
1000
0010
0100
0001
0010
0100
0010
0001
0100
0001
0010
0100
,
1000
0010
1000
0001
0010
0100
0010
0001
0100
0010
1000
0001
1000
0010
0100
0001
,
0010
0100
0010
0001
1000
0100
1000
0010
0100
0001
1000
0010
1000
0001
0010
0100
,
1000
0000
0010
0100
0010
0000
1000
0000
0001
0010
0100
1000
0001
1000
0010
0000
,
0100
0000
0000
0010
0000
0000
0100
0000
0000
0001
0000
0000
1000
0000
0001
0000
1000
0000
0001
0000
0000
0000
0000
0000
0010
0000
0000
0100
0000
0000
1000
0000
0000
0001
0000
0000
0010
0000
0000
0001
0000
0000
0100
0000
0000
0000
0000
0000
,
0000
0010
1000
0001
0100
0001
0010
0100
1000
0000
0100
0010
0001
1000
0001
0000
,
0100
0000
0000
0010
0000
0000
0100
0000
0000
0001
0000
0000
1000
0000
0001
0000
1000
0000
0001
0000
0000
0000
0000
0000
1000
0000
0000
0100
0000
0000
0010
0000
0000
0100
0000
0000
1000
0000
0000
0001
0000
0000
0010
0000
0000
0100
0000
0000
,
1000
0010
0100
0010
1000
0001
0100
0001
1000
0100
0010
0100
1000
0001
1000
0010
,
0100
0000
0000
0010
0000
0000
1000
0000
0000
0001
0000
0000
1000
0000
0001
0000
1000
0000
0001
0000
0000
0010
0000
0000
0100
0000
0000
1000
0000
0000
0010
0000
0000
1000
0000
0000
0001
0000
0000
0100
0000
0000
0010
0000
0000
0100
0000
0000
,
0001
1000
0100
0010
0100
1000
0001
0010
0001
0100
0010
1000
0100
0010
0001
1000
,
0010
0000
0000
0100
0000
0000
0010
0000
0000
1000
0000
0000
0001
0000
1000
0000
0001
0000
1000
0000
0000
0100
0000
0000
0010
0000
0000
0001
0000
0000
1000
0000
0000
0001
0000
0000
0100
0000
0000
0010
0000
0000
1000
0000
0000
0001
0000
0000
,
0010
0100
1000
0001
1000
0100
0010
0001
1000
0010
0100
0010
1000
0001
0100
0001
,
0010
0000
0000
0100
0000
0000
0010
0000
0000
0001
0000
0000
1000
0000
0001
0000
1000
0000
0001
0000
0000
0010
0000
0000
0100
0000
0000
1000
0000
0000
0010
0000
0000
1000
0000
0000
0001
0000
0000
0100
0000
0000
0010
0000
0000
0100
0000
0000
,
0001
0010
0100
1000
0001
0010
0100
0010
0001
1000
0010
1000
0001
0100
0010
0100
,
0001
1000
0100
0010
0001
1000
0100
1000
0001
0100
0001
1000
0010
0100
0010
1000
,
0001
1000
0100
0010
0001
1000
0100
1000
0010
0100
0001
1000
0001
0100
0010
1000
,
0001
0010
0001
0100
0010
1000
0100
0010
0001
0100
0001
1000
0010
1000
0100
0010
,
0001
0100
0010
1000
0100
1000
0010
0100
0001
0010
0001
0100
0010
1000
0010
0100
,
0001
0010
0100
1000
0001
0010
0001
0100
0010
1000
0001
0100
0001
0000
0000
0000
,
1000
0010
0100
0010
1000
0001
0010
0001
0100
0010
1000
0001
0100
0001
0010
0100
,
1000
0001
0010
0001
0100
0010
1000
0010
0100
0001
0010
0100
1000
0010
0100
0001
,
1000
0010
1000
0100
1000
0001
1000
0010
1000
0100
1000
0001
1000
0010
1000
0100
,
0010
0001
0010
0100
0010
0001
0010
0100
1000
0010
0100
0010
1000
0100
0010
0001
,
0100
0010
1000
0100
1000
0001
0100
0010
1000
0001
0100
0001
0010
0100
1000
0001
,
0100
0010
0100
0001
0010
0001
0100
0010
1000
0001
1000
0100
0010
0001
1000
0001
,
1000
0010
0100
0001
0010
0001
1000
0010
0100
0001
0010
0001
0100
0010
0100
0001
,
0100
0010
1000
0100
0010
0001
1000
0010
1000
0100
0010
0001
0100
0010
0100
0000
,
0001
0010
0100
0010
0001
1000
0010
1000
0100
0010
0001
1000
0100
1000
0010
0100
,
0001
1000
0010
1000
0100
0010
0001
0010
0100
1000
0010
0100
0001
0010
0100
1000
,
0001
0010
0001
0100
0001
1000
0001
0010
0001
0100
0001
1000
0001
0010
0001
0100
,
0010
1000
0010
0100
0010
1000
0010
0100
0001
0010
0100
0010
0001
0100
0010
1000
,
0100
0010
0001
0100
0001
1000
0100
0010
0001
1000
0100
1000
0010
0100
0001
1000
,
0100
0010
0100
1000
0010
1000
0100
0010
0001
1000
0001
0100
0010
1000
0001
1000
,
0001
0010
0100
1000
0010
1000
0001
0010
0100
1000
0010
1000
0100
0010
0100
1000
,
0001
0000
0000
0010
0000
0000
0100
0000
0000
1000
0000
0000
0001
0000
0000
0100
0000
0000
0010
0000
0000
1000
0000
0000
0100
0000
0000
0010
0000
0000
0001
0000
0000
0010
0000
0000
0100
0000
1000
0000
0100
0000
1000
0000
0100
0000
1000
0000
,
0001
1000
0010
0100
0010
1000
0001
0100
0001
0010
0100
1000
0100
0010
0001
1000
,
0001
0100
0010
0100
0001
1000
0010
1000
0001
0010
0100
1000
0001
0010
0100
0010
,
0001
1000
0010
1000
0001
0100
0010
0100
0001
0010
0001
1000
0100
0010
0001
1000
,
0001
0100
0010
0100
0001
1000
0010
1000
0100
0010
0100
1000
0001
0010
0100
0010
,
0001
0100
0010
1000
0100
1000
0001
0010
0001
0100
0010
1000
0100
0010
0001
0100
,
0010
1000
0001
0100
0001
1000
0010
1000
0001
0010
0100
0010
0001
1000
0100
0010
,
0001
1000
0010
1000
0100
0010
0100
1000
0001
0100
0010
0100
0001
1000
0010
1000
,
0001
0010
0100
1000
0010
0000
0100
0000
0001
0010
0100
0010
0001
1000
0001
1000
,
0100
0010
0001
0010
0100
1000
0001
0010
0001
0100
0010
1000
0010
0100
0001
1000
,
0001
0010
0100
0010
0001
1000
0100
1000
0001
0100
0010
1000
0001
0100
0010
0100
,
0001
1000
0100
1000
0001
0010
0100
0010
0001
0100
0001
1000
0010
0100
0001
1000
,
0001
0010
0100
0010
0001
1000
0100
1000
0010
0100
0010
1000
0001
0100
0010
0100
,
0001
0010
0100
1000
0010
1000
0001
0100
0001
0010
0100
1000
0010
0100
0001
0010
,
0100
1000
0001
0010
0001
1000
0100
1000
0001
0100
0010
0100
0001
1000
0010
0100
,
0001
1000
0100
1000
0010
0100
0010
1000
0001
0010
0100
0010
0001
1000
0100
1000
,
0010
0100
0001
0010
0001
1000
0100
0010
0001
0100
0010
1000
0001
0100
0001
1000
,
0100
0010
0100
1000
0001
0010
0100
1000
0010
0100
0010
1000
0001
0100
0001
1000
,
0100
1000
0001
0100
0001
0010
0100
1000
0001
0100
0010
0100
0001
1000
0100
0010
,
0001
0100
0001
0010
0100
1000
0010
1000
0100
0010
0001
0100
0001
0010
0100
1000
,
0010
0100
0001
0010
0001
0100
0010
1000
0010
0100
0001
0010
0001
0100
0010
1000
,
0001
0010
0100
1000
0010
0100
0001
0010
0100
1000
0001
1000
0010
0100
0001
1000
,
0001
0010
0100
0010
0001
1000
0100
0010
0001
0100
0010
1000
0010
0100
0001
1000
,
0100
0010
0001
1000
0010
0100
0010
1000
0001
0010
0001
0100
0010
1000
0100
1000
,
0001
0000
0100
0000
0001
0000
0100
0000
0000
0001
0000
0000
0100
0000
0001
0000
0100
0000
0001
0000
0000
1000
0000
0000
0010
0000
0000
0100
0000
0000
0001
0000
0000
0000
0000
0000
1000
0000
0000
0100
0000
0000
0000
0000
0000
0010
0000
0000
,
0001
0100
0010
1000
0100
1000
0001
0010
0001
0100
0010
1000
0100
1000
0001
0010
,
0001
0100
0010
1000
0100
0010
0001
0100
0001
0010
0100
1000
0010
1000
0100
0010
,
0000
0001
0000
0100
0010
1000
0010
1000
0100
0010
0001
0100
0001
0010
0100
1000
,
0010
0100
0001
0010
0100
1000
0100
1000
0100
1000
0100
1000
0010
0100
0010
0100
,
0010
0100
0010
0100
0001
0010
0001
0100
0010
1000
0100
0010
0001
0100
0001
0010
,
0100
1000
0010
0100
0001
0100
0001
0000
0010
0100
1000
0010
0400
0000
0000
0300
,
0001
0010
0001
0100
0010
1000
0010
1000
0001
0100
0010
1000
0001
0010
0100
1000
,
0001
0100
0001
1000
0100
0010
0100
1000
0001
0100
0010
0100
0001
1000
0100
0010
,
0002
0003
0000
0000
,
0000
0000
0000
0000
,
0000
0000
0000
0000
,
0000
0000
0000
0000
,
0000
0000
0000
0000
1000
0100
0010
0100
1000
0001
0010
0100
1000
0001
0010
0100
,
0010
0001
1000
0100
1000
0001
0100
0001
1000
0010
0100
0010
1000
0001
0100
0001
,
1000
0010
0100
0001
1000
0100
1000
0001
0010
0100
0010
0001
1000
0100
1000
0001
,
0010
0100
1000
0010
1000
0100
0010
0001
1000
0001
0100
0010
1000
0001
0010
0100
,
1000
0010
0100
0001
1000
0010
1000
0001
0100
0001
1000
0010
0100
0001
0100
0010
,
1000
0001
0010
0100
0010
0001
1000
0100
0010
0001
1000
0100
1000
0001
0010
0100
,
1000
0001
1000
0010
0100
0010
1000
0001
0100
0001
1000
0010
1000
0001
0100
0010
,
1000
0001
0010
0100
1000
0001
0100
0010
1000
0001
0010
0100
1000
0001
0100
0010
,
1000
0100
1000
0001
0010
0100
1000
0100
0010
0001
1000
0100
1000
0001
0010
0100
,
1000
0001
0100
0001
1000
0010
0100
0010
1000
0001
0100
0001
1000
0010
0100
0010
,
1000
0001
0010
0100
0010
0001
1000
0100
1000
0001
0010
0100
1000
0100
0010
0001
,
1000
0010
1000
0100
0010
0001
1000
0100
1000
0001
0100
0010
1000
0100
1000
0010
,
0100
0001
1000
0010
1000
0001
0100
0010
1000
0010
0100
0001
1000
0010
1000
0001
,
0010
0100
0010
0001
1000
0100
0010
0100
1000
0001
0010
0100
1000
0100
0010
0001
,
1000
0010
1000
0001
0100
0001
1000
0010
0100
0010
1000
0001
0100
0001
1000
0010
,
1000
0001
0010
0100
1000
0001
0100
0010
1000
0001
0010
0100
1000
0001
0100
0010
,
1000
0100
1000
0001
0010
0001
1000
0100
0010
0001
1000
0100
1000
0001
0010
0100
,
1000
0001
1000
0010
0100
0010
1000
0001
0100
0001
1000
0010
0100
0001
0100
0010
,
1000
0001
0010
0001
1000
0100
0010
0001
1000
0100
1000
0001
0010
0100
0010
0001
,
1000
0010
0100
0001
1000
0100
0010
0001
1000
0010
0100
0001
1000
0100
0010
0001
,
0100
0010
1000
0001
0100
0001
1000
0010
0100
0010
1000
0001
0100
0001
1000
0010
,
1000
0001
0010
0100
0010
0001
1000
0100
0010
0001
1000
0100
1000
0001
0010
0100
,
1000
0010
1000
0100
0010
0001
0100
0010
1000
0100
1000
0010
0100
0001
0010
0100
,
1000
0010
1000
0100
0010
0001
0100
0010
1000
0100
1000
0010
0100
0001
0010
0001
,
0200
0300
0000
0000
0000
0000
0000
0000
0000
0000
0000
0000
0000
0000
0001
0000
,
0000
0000
1000
0100
1000
0001
0010
0100
1000
0001
0100
0010
0100
0001
1000
0010
,
1000
0001
0010
0001
1000
0100
0010
0100
1000
0001
1000
0010
0000
0100
0000
0100
,
0000
0000
0000
0000
0010
0000
1000
0000
0001
0010
0100
1000
0000
0000
0000
0000
,
0001
0010
0100
0010
0001
1000
0010
1000
0001
0010
0100
0010
0001
1000
0010
1000
,
0100
0010
0100
1000
0100
0010
0001
0100
0010
1000
0100
1000
0001
0100
0010
0100
,
0001
1000
0100
1000
0001
0100
0010
0100
0001
1000
0100
1000
0001
0100
0010
0100
,
0001
1000
0100
1000
0010
0100
0001
1000
0100
0010
0001
1000
0010
0100
0001
1000
,
0100
0010
0100
1000
0001
0100
0001
1000
0100
0010
0100
1000
0001
0100
0001
1000
,
0100
1000
0010
0100
0001
0010
0001
1000
0010
1000
0100
0010
0001
0100
0001
1000
,
0010
0100
0010
1000
0001
0010
0001
1000
0010
0100
0010
1000
0100
0010
0001
0100
,
0010
1000
0001
0100
0001
1000
0100
0010
0001
0100
0010
1000
0001
0010
0100
1000
,
0010
1000
0001
0010
0100
0010
0001
1000
0010
0100
0010
1000
0100
0010
0001
1000
,
0010
1000
0100
0010
0100
1000
0001
0100
0010
0100
0001
0010
0100
0010
0001
0010
,
0100
1000
0010
0100
0001
0010
0100
0010
0001
1000
0010
1000
0001
0010
0100
0010
,
0001
1000
0010
0100
0001
0010
0100
1000
0001
0100
0010
1000
0001
0010
0100
1000
,
0001
0100
0001
1000
0100
0010
0100
1000
0001
0100
0001
1000
0100
0010
0100
1000
,
0010
0100
0001
0010
0001
1000
0100
0010
0001
0100
0010
1000
0001
0100
0001
0010
,
0100
1000
0010
1000
0001
1000
0010
0100
0001
0010
0100
0010
0001
0100
0010
1000
,
0001
0010
0001
0100
0010
1000
0010
0100
0001
0010
0100
1000
0010
0100
0001
0010
,
0001
0100
0010
0100
0001
1000
0100
1000
0001
0100
0010
0100
0001
1000
0100
1000
,
0010
0100
0010
1000
0010
0100
0001
0010
0100
1000
0010
1000
0001
0010
0100
0010
,
0001
1000
0010
1000
0001
0010
0100
0010
0001
1000
0010
1000
0001
0010
0100
0010
,
0001
1000
0010
1000
0100
0010
0001
1000
0010
0100
0001
1000
0100
0010
0001
1000
,
0010
0100
0010
1000
0001
0010
0001
1000
0010
0100
0010
1000
0001
0010
0001
1000
,
0010
1000
0100
0010
0001
0100
0001
1000
0100
1000
0010
0100
0001
0010
0001
1000
,
0100
0010
0100
1000
0001
0100
0001
1000
0100
0010
0100
1000
0010
0100
0001
0010
,
0100
1000
0001
0010
0001
1000
0010
0100
0001
0010
0100
1000
0001
0100
0010
1000
,
0100
1000
0001
0100
0010
0100
0001
1000
0100
0010
0100
1000
0010
0100
0001
1000
,
0100
1000
0010
0100
0010
1000
0001
0010
0100
0010
0001
0100
0010
0100
0001
0100
,
0010
1000
0100
0010
0001
0100
0010
0100
0001
1000
0100
1000
0001
0100
0010
0100
,
0001
1000
0100
0010
0001
0100
0010
1000
0001
0010
0100
1000
0001
0100
0010
1000
,
0001
0010
0001
1000
0010
0100
0010
1000
0001
0010
0001
1000
0010
0100
0010
1000
,
0100
0010
0001
0100
0001
1000
0010
0100
0001
0010
0100
1000
0001
0010
0001
0100
,
0010
1000
0100
1000
0001
1000
0100
0010
0001
0100
0010
0100
0001
0010
0100
1000
,
0001
0000
0000
0100
0001
0000
1000
0000
0100
0000
0010
0000
0100
1000
0010
0100
,
0001
0010
0001
1000
0010
0100
0010
1000
0100
0010
0001
1000
0001
0100
0010
1000
,
0100
0010
0100
1000
0100
0010
0100
1000
0010
0100
0001
1000
0001
0010
0100
0010
,
0001
0100
0010
0100
0001
0100
0010
1000
0100
1000
0001
0100
0010
0100
0001
1000
,
0100
0010
0100
1000
0010
0100
0001
1000
0100
0010
0001
1000
0010
0100
0001
1000
,
0100
1000
0001
0100
0001
1000
0010
1000
0001
1000
0100
1000
0001
0100
0010
1000
,
0100
1000
0010
0100
0001
0100
0010
1000
0100
0010
0001
1000
0010
0100
0001
0100
,
0010
1000
0100
0010
0001
0100
0001
1000
0010
1000
0100
1000
0010
0100
0001
0010
,
0001
0100
0010
1000
0001
0010
0100
1000
0010
0100
0001
1000
0100
0010
0001
1000
,
0010
0100
0010
1000
0010
0100
0010
1000
0010
0100
0001
0010
0001
1000
0010
0100
,
0001
0010
0100
0010
0001
0010
0100
0010
0001
0100
0010
1000
0100
1000
0010
0100
,
0001
0010
0001
1000
0001
0100
0001
1000
0010
1000
0001
1000
0100
1000
0001
0010
,
0001
1000
0010
1000
0100
0010
0001
0100
0001
1000
0100
1000
0010
0100
0001
0010
,
0000
0000
0000
0000
,
0000
0000
0000
0000
,
0010
0001
0010
0001
1000
0010
1000
0010
,
0100
0001
1000
0010
1000
0001
0100
0001
1000
0100
0010
0001
1000
0000
0000
0000
,
1000
0010
0100
0001
0010
0001
1000
0010
0100
0001
0100
0001
0010
0100
1000
0001
,
0010
0001
0100
0010
1000
0100
1000
0010
0100
0001
0010
0001
1000
0001
0100
0010
,
1000
0100
1000
0001
0010
0100
1000
0001
0100
0010
0100
0010
1000
0100
0010
0001
,
1000
0010
1000
0001
0100
0001
1000
0100
1000
0010
0100
0001
0010
0100
1000
0010
,
1000
0001
0010
0001
1000
0010
1000
0001
0100
0010
0100
0001
0100
0010
1000
0100
,
1000
0001
0100
0010
0100
0001
1000
0010
1000
0001
0010
0001
1000
0001
0010
0001
,
0100
0010
1000
0100
1000
0010
0100
0001
0010
0100
1000
0001
1000
0010
0100
0001
,
0100
0010
1000
0001
0100
0001
1000
0010
1000
0100
0010
0001
1000
0001
0010
0100
,
1000
0010
1000
0100
0010
0001
0010
0100
1000
0001
0100
0010
1000
0100
1000
0001
,
0100
0010
1000
0001
1000
0010
0100
0001
1000
0100
1000
0001
0100
0001
1000
0100
,
1000
0001
0100
0001
1000
0010
0100
0010
1000
0100
0010
0100
1000
0010
1000
0001
,
0010
0001
1000
0100
1000
0001
0010
0100
1000
0001
0100
0010
1000
0001
1000
0100
,
0010
0001
1000
0001
0100
0010
1000
0001
1000
0100
0010
0100
1000
0010
0100
0001
,
1000
0010
0100
0010
1000
0100
0010
0001
1000
0010
1000
0001
0010
0001
1000
0010
,
1000
0100
0010
0001
0100
0001
1000
0100
0010
0001
1000
0010
1000
0100
0010
0001
,
0100
0010
0100
0001
1000
0010
0100
0010
1000
0001
0010
0100
1000
0001
0010
0001
,
0100
0000
0010
1000
0000
0001
0100
0000
0010
0000
1000
0100
0010
0001
0000
0000
,
1000
0100
1000
0010
0100
0010
1000
0100
1000
0010
0100
0001
0010
0001
0100
0010
,
1000
0100
0000
0000
0000
0000
1000
0000
0001
0010
0100
1000
0010
0000
0000
0000
,
0000
0000
0000
0000
0000
0000
0000
0000
0100
0001
0010
0100
1000
0000
1000
0000
,
0100
0000
0010
0001
0000
1000
0100
0000
1000
0010
1000
0100
0010
0001
0100
0000
,
0000
0000
0000
0000
0010
1000
0010
0000
0100
0001
1000
0100
1000
0001
0100
0001
,
1000
0100
1000
0010
0100
0001
0010
0100
1000
0010
0100
0001
0000
0010
0000
0100
,
0010
0001
1000
0000
0001
1000
0000
1000
0010
0100
0001
0010
0001
0100
0010
1000
,
0100
0000
0010
0001
0000
1000
0010
0000
0000
0000
0000
0000
0100
0000
0000
0000
,
0000
0100
0000
0100
,
0000
0100
0000
0100
,
0000
0100
0000
0100
;
