#TITLE:SIN;
#SUBTITLE:(Another Step);
#ARTIST:ESTi;
#TITLETRANSLIT:;
#SUBTITLETRANSLIT:;
#ARTISTTRANSLIT:;
#CREDIT:;
#BANNER:SIN.png;
#BACKGROUND:SIN-bg.png;
#LYRICSPATH:;
#CDTITLE:NVLM-cdtitle.png;
#MUSIC:SIN (Another Step).mp3;
#OFFSET:-0.104;
#SAMPLESTART:22.784;
#SAMPLELENGTH:12.000;
#SELECTABLE:YES;
#BPMS:0.000=190.000;
#STOPS:;
#BGCHANGES:;
// cache tags:
#FIRSTBEAT:16.000;
#LASTBEAT:364.000;
#SONGFILENAME:Songs/mongol/SIN (Another Step)/SIN (Another Step).sm;
#HASMUSIC:1;
#HASBANNER:1;
#MUSICLENGTH:115.574;
// end cache tags

//---------------dance-single - ----------------
#NOTES:
     dance-single:
     :
     Hard:
     13:
     1.000,1.000,0.883,0.874,0.774,793.000,102.000,101.000,0.000,2.000:  // measure 1
0000
0000
0000
0000
,  // measure 2
0000
0000
0000
0000
,  // measure 3
0000
0000
0000
0000
,  // measure 4
0000
0000
0000
0000
,  // measure 5
2000
3200
0302
0023
0230
2300
3002
0023
,  // measure 6
0230
0000
0302
0000
0023
0000
2030
0000
3200
0000
0320
0000
2030
0000
3000
0001
,  // measure 7
0010
1000
0100
0000
0100
0000
1000
0000
0100
0000
0010
0000
0001
0000
0001
0000
,  // measure 8
0200
0000
0000
0000
0000
0000
1300
0000
0000
0010
0000
0000
0100
0000
0000
0000
0000
0000
0001
0000
0000
0000
0000
0000
0001
0000
0000
0000
0010
0000
0000
0000
0001
0000
0000
0000
0010
0000
0000
0000
0100
0000
0000
0000
0010
0000
0000
0000
,  // measure 9
1000
0100
0010
0000
1000
0000
0010
0000
0001
0010
0001
0000
1000
0000
0001
0000
,  // measure 10
1000
0010
0100
0000
0010
0000
0100
0000
1000
0000
0001
0000
0100
0000
1010
0000
,  // measure 11
0001
0100
0010
0000
1000
0000
0001
0000
0010
0100
0010
0000
0100
0000
0001
0000
,  // measure 12
0010
0100
1000
0000
0001
0000
1000
0000
0001
0000
1010
0000
0100
0000
0010
0000
,  // measure 13
0100
0010
1000
0000
0001
0000
1000
0000
0100
0010
1000
0000
0001
0000
0100
0000
,  // measure 14
0100
0010
1000
0000
0100
0000
1000
0000
0100
0000
1000
0000
0010
0000
1001
0000
,  // measure 15
2000
0100
0100
0100
0100
0100
0100
3100
,  // measure 16
0002
0010
0010
0010
0010
0010
0010
0010
,  // measure 17
0013
0000
1000
0100
0010
0000
1001
0000
1000
0100
0001
1000
0010
0001
0100
0010
,  // measure 18
1001
0000
0000
2200
0000
0000
0000
0000
0000
3300
0000
0000
0000
0000
0000
0000
,  // measure 19
0100
0010
1000
0100
0010
0000
1000
0001
0000
0000
0001
0000
0110
0000
1000
0000
,  // measure 20
0010
1000
0100
0010
1000
0000
1000
0001
0000
0000
1000
0000
0010
0000
1001
0000
,  // measure 21
0100
1000
0010
0100
0001
0000
0010
0100
0000
0000
0100
0000
0010
0000
1001
0000
,  // measure 22
0100
0010
1000
0100
0010
0000
0001
0010
0000
0000
1000
0000
0100
0000
1001
0000
,  // measure 23
0100
1000
0100
1000
0100
0000
0010
0100
0000
0000
1001
0000
1001
0000
1001
0000
,  // measure 24
0100
1000
0100
0010
0100
0000
1000
0100
0000
0000
1000
0000
0100
0000
0010
0000
,  // measure 25
1000
0100
0010
1000
0100
0000
0010
0100
0000
0000
1000
0000
0100
0000
1001
0000
,  // measure 26
0100
1000
0010
0100
0010
0000
0100
0000
0100
1000
0100
1000
0100
1000
0100
0000
,  // measure 27
0100
0010
1000
0100
0010
0000
0001
0010
0100
0010
1000
0000
0100
1000
0010
0001
,  // measure 28
0100
0000
0100
1000
0010
0100
0001
0010
0100
1000
0010
0001
0220
0000
0330
0000
,  // measure 29
0100
0000
1001
0000
0100
0000
0010
0100
0000
0000
1010
0000
0100
0000
1000
0000
,  // measure 30
0100
0000
1001
0000
1000
0000
0010
1000
0000
0000
0101
0000
0100
0000
1001
0000
,  // measure 31
0100
0000
0010
0000
0101
0000
1000
0100
0000
0000
0010
0000
1000
0000
0110
0000
,  // measure 32
0001
0000
0000
0000
1000
0000
0000
0000
0001
0000
0000
0000
0100
0000
0001
0000
0000
0000
0000
0000
1010
0000
0000
0000
1010
0000
0000
0000
0100
0010
1000
0100
,  // measure 33
0010
0000
0100
0000
1000
0000
0100
0010
0000
0000
0001
0000
0100
0000
1000
0000
,  // measure 34
0100
0000
0010
0000
1000
0000
0100
0010
0000
0000
0100
0000
0001
0000
1000
0000
,  // measure 35
0100
0000
0100
0000
1000
0000
0100
0010
0000
0000
0001
0000
0100
0000
1000
0000
,  // measure 36
0100
0000
0010
0000
1000
0000
0100
0010
0000
0000
0100
0000
0001
0000
1001
0000
,  // measure 37
0100
0010
1000
0000
0100
0000
0001
0000
0100
1000
0010
0000
1001
0000
0100
0000
,  // measure 38
0100
0010
1000
0000
0100
0000
1000
0000
0010
0000
0001
0000
1000
0000
0001
0000
,  // measure 39
0001
0010
0001
0010
0001
0010
0001
0010
0000
0000
1001
0000
0001
0000
1000
0000
,  // measure 40
0100
0000
1000
0000
0110
0000
0000
0000
1001
0000
0000
1100
0000
0000
1010
0000
,  // measure 41
0100
1000
0010
0100
0001
0010
0100
1000
0100
0010
0001
0100
0010
1000
0001
0100
,  // measure 42
0010
2200
0000
3300
0022
0033
2002
3003
,  // measure 43
0100
1000
0010
0100
0001
0010
0100
1000
0100
0010
0001
0100
0010
1000
0001
0100
,  // measure 44
0010
0000
1000
0000
0100
0000
0001
0000
1000
0000
0000
0110
0000
0000
1001
0000
,  // measure 45
0100
1000
0010
0100
0001
0010
0100
1000
0100
0010
0001
0100
0010
1000
0001
0100
,  // measure 46
0022
0000
0000
0000
0033
0000
0000
0220
0000
0000
0330
0000
1000
0022
0000
0000
,  // measure 47
0000
0000
0000
0000
0000
0000
0000
0000
0000
0033
0000
0000
0000
0000
0000
0000
,  // measure 48
1000
0000
0100
0000
1001
0000
1100
0000
1000
0010
1000
0000
0100
0010
0100
0000
,  // measure 49
1000
0000
0100
0000
0010
0000
0001
0000
1000
0100
0010
1000
0100
0010
0001
0000
,  // measure 50
0010
0000
0100
0000
1000
0100
0001
0000
0010
0000
0100
0000
1000
0000
0001
0000
,  // measure 51
0010
0100
1000
0000
0100
0001
0010
0000
1000
0000
0100
0010
1000
0000
0100
0000
,  // measure 52
0010
0000
1000
0000
0100
0010
1000
0000
0100
0010
0001
0000
0001
0010
0100
0000
,  // measure 53
1000
0000
0001
0000
0100
0000
1000
0000
0100
0010
1000
0100
1000
0100
0010
0000
,  // measure 54
0100
0000
1000
0100
0010
0000
1001
0000
0100
0000
1000
0100
0010
0000
1000
0000
,  // measure 55
1001
0000
0100
0000
1010
0000
0100
0000
1000
0100
1000
0100
1000
0010
1000
0100
,  // measure 56
1000
0001
0010
0100
0010
1000
0100
0001
0010
1000
0100
0001
0010
0100
1000
0000
,  // measure 57
0000
0000
2200
0000
0000
0000
3300
0000
0000
0022
0000
0000
0000
0033
0000
0000
,  // measure 58
2000
0000
0000
0000
0000
0000
0100
0010
3001
0000
0100
0000
1000
0000
0100
0000
,  // measure 59
0100
0000
1000
0000
0100
0000
1000
0000
0100
0000
1000
0000
0100
0010
0001
0000
,  // measure 60
0002
0000
0000
0000
0000
0000
0010
0100
1003
0000
0010
0000
0001
0000
0010
0000
,  // measure 61
0001
0000
1000
0000
0001
0000
1000
0000
0001
0000
1000
0000
0001
0100
1000
0000
,  // measure 62
0200
0000
0000
0000
0000
0000
0010
0001
1300
0000
0010
0000
0100
0000
0001
0000
,  // measure 63
0100
0010
0001
0100
0001
0010
0100
0010
,  // measure 64
0001
0000
0100
0010
0001
0000
0100
0000
0010
0000
0100
0000
1000
0000
0010
0000
,  // measure 65
1001
1001
1100
1001
0220
0000
0330
0000
,  // measure 66
2000
3200
2300
3200
2300
3200
2300
3020
,  // measure 67
0230
0320
0230
0320
0230
0320
0230
0302
,  // measure 68
0123
0032
0023
0032
0023
0032
0023
0230
,  // measure 69
0302
0203
0302
0203
0302
0203
0302
0023
,  // measure 70
0230
0320
0230
0320
0230
0320
0230
0320
,  // measure 71
2030
3200
2300
3200
0302
0023
0032
0123
,  // measure 72
0130
0000
1000
0000
0001
0000
1000
0000
0100
0010
0100
1000
0001
0000
0001
0000
,  // measure 73
1000
0000
0100
0000
0001
0000
0100
0000
1000
0010
0100
1000
0001
0000
0100
0000
,  // measure 74
1000
0000
0001
0000
0010
0000
0100
0000
0010
1000
0001
0000
0100
0001
0100
0000
,  // measure 75
0001
0000
0010
0000
0100
0000
0001
0000
0100
0010
0100
0000
0001
0100
1000
0000
,  // measure 76
1000
0000
0100
0000
1000
0000
0010
0000
0100
0010
0001
0000
0100
0010
0001
0000
,  // measure 77
1000
0000
0100
0000
1000
0000
0010
0000
0100
0010
0001
0000
0100
0010
0001
0000
,  // measure 78
1000
0000
0100
0000
1000
0000
0010
0000
0010
1000
0001
0000
0100
0001
0010
0000
,  // measure 79
0100
0000
1000
0000
0001
0000
1000
0000
0100
0001
0010
0000
0100
0010
0001
0000
,  // measure 80
1000
0100
1000
0100
0010
0100
0010
0001
0010
0001
0010
0100
0010
0100
1000
0100
,  // measure 81
1000
0100
0010
1000
0001
0100
0010
1000
0100
0010
0001
1000
0100
0010
0001
0000
,  // measure 82
1100
0110
0011
1001
1100
0110
0011
1001
,  // measure 83
1100
0110
0011
1001
1001
0011
0110
0011
,  // measure 84
1100
0110
0011
1001
1100
0110
0011
1001
,  // measure 85
1100
0110
0011
1001
1001
0011
0110
1100
,  // measure 86
1100
0110
0011
1001
1100
0110
0011
1001
,  // measure 87
1100
0110
0011
1001
1001
0011
0110
0011
,  // measure 88
2000
3200
0320
0230
0320
0230
0320
0230
,  // measure 89
0300
0100
0010
1000
0100
0001
0010
1000
0001
0100
0010
1000
0001
0010
0001
0100
,  // measure 90
0022
0000
0000
0000
,  // measure 91
0000
0000
0000
0000
,  // measure 92
0033
0000
0000
0000
;

//---------------dance-single - ----------------
#NOTES:
     dance-single:
     :
     Challenge:
     14:
     1.000,1.000,1.000,0.891,1.000,892.000,262.000,103.000,0.000,59.000:  // measure 1
0000
0000
0000
0000
,  // measure 2
0000
0000
0000
0000
,  // measure 3
0000
0000
0000
0000
,  // measure 4
0000
0000
0000
0000
,  // measure 5
2000
3200
0302
0023
0230
2300
3002
0023
,  // measure 6
0230
0000
0302
0000
0023
0000
2030
0000
3200
0000
0320
0000
2030
0000
3000
0001
,  // measure 7
0010
1000
0100
0000
0100
0000
1000
0000
0100
0000
0010
0000
0001
0000
0001
0000
,  // measure 8
0200
0000
0000
0000
0000
0000
1300
0000
0000
0010
0000
0000
0100
0000
0000
0000
0000
0000
0001
0000
0000
0000
0000
0000
0001
0000
0000
0000
0010
0000
0000
0000
0001
0000
0000
0000
0010
0000
0000
0000
0100
0000
0000
0000
0010
0000
0000
0000
,  // measure 9
1000
0100
0010
0000
1100
0000
0110
0000
0001
0010
0001
0000
1100
0000
0011
0000
,  // measure 10
1000
0010
0100
0000
1010
0000
0101
0000
1010
0000
0101
0000
1100
0000
1010
0000
,  // measure 11
0001
0100
0010
0000
1100
0000
0011
0000
0010
0100
0010
0000
1100
0000
1001
0000
,  // measure 12
0010
0000
0100
0000
1000
0000
0000
0000
1001
0000
0000
0000
1100
0000
0000
0000
1001
0000
0000
0000
1010
0000
0000
0000
1100
0000
0000
1000
0100
0010
1000
0100
,  // measure 13
0010
0100
0001
0000
1001
0000
1100
0000
0100
0010
1000
0000
1001
0000
1100
0000
,  // measure 14
0100
0010
1000
0000
1100
0000
1001
0000
0110
0000
1100
0000
0110
0000
1001
0000
,  // measure 15
2001
0110
0001
0110
0001
0110
3001
0110
,  // measure 16
1002
0110
1000
0110
1000
0110
1000
0110
,  // measure 17
1003
0000
1000
0100
0010
0000
1001
0000
1000
0100
0001
1000
0010
0001
0100
0010
,  // measure 18
1001
0000
0000
0000
0000
0000
1000
0100
1000
0100
1000
0100
1000
0100
1000
0100
1000
0100
0000
0000
0000
0000
0000
0000
0000
0000
0000
0000
0000
0000
0000
0000
,  // measure 19
0100
0010
1000
0100
0010
0000
1000
0001
0000
0000
1001
0000
0110
0000
1100
0000
,  // measure 20
0010
1000
0100
0010
1000
0000
1000
0001
0000
0000
1100
0000
0110
0000
1001
0000
,  // measure 21
0100
1000
0010
0100
0001
0000
0010
0100
0000
0000
1100
0000
1100
0000
1001
0000
,  // measure 22
0100
0010
1000
0100
0010
0000
0001
0010
0000
0000
1100
0000
1100
0000
1001
0000
,  // measure 23
0100
1000
0100
1000
0100
0000
0010
0100
0000
0000
1001
0000
1001
0000
1001
0000
,  // measure 24
0100
1000
0100
0010
0100
0000
1000
0100
0000
0000
1000
0000
0100
0000
0010
0000
,  // measure 25
1001
0100
0010
1000
0100
0000
0010
0100
0000
0000
1100
0000
1100
0000
1001
0000
,  // measure 26
0100
1000
0010
0100
0010
0000
0100
0000
0100
1000
0100
1000
0100
1000
0100
0000
,  // measure 27
0100
0010
1000
0100
0010
0000
0001
0010
0100
0010
1000
0000
0100
1000
0010
0001
,  // measure 28
0100
0000
0100
1000
0010
0100
0001
0010
0100
1000
0010
0001
0220
0000
0330
0000
,  // measure 29
0100
0000
1001
0000
0100
0000
0010
0100
0000
0000
1010
0000
0100
0000
1000
0000
,  // measure 30
1100
0000
0001
0000
1000
0000
0010
1000
0000
0000
0101
0000
1000
0000
1001
0000
,  // measure 31
0100
0000
0010
0000
0101
0000
1000
0100
0000
0000
0010
0000
1100
0000
0110
0000
,  // measure 32
0001
0000
0000
0000
1010
0000
0000
0000
0001
0000
0000
0000
0100
0000
0001
0000
0000
0000
0000
0000
1010
0000
0000
0000
1010
0000
0000
0000
0100
0010
1000
0100
,  // measure 33
0010
0000
0100
0000
1000
0000
0100
0010
0000
0000
0001
0000
0100
0000
1000
0000
,  // measure 34
0100
0000
0010
0000
1000
0000
0100
0010
0000
0000
1100
0000
1001
0000
1001
0000
,  // measure 35
0100
0000
0100
0000
1000
0000
0100
0010
0000
0000
0001
0000
0100
0000
1000
0000
,  // measure 36
0100
0000
0010
0000
1000
0000
0100
0010
0000
0000
1100
0000
1001
0000
1001
0000
,  // measure 37
0100
0010
1000
0000
1100
0000
1001
0000
0100
1000
0010
0000
1001
0000
1100
0000
,  // measure 38
0100
0010
1000
0000
1100
0000
1001
0000
0110
0000
1001
0000
1100
0000
1001
0000
,  // measure 39
0001
0010
0001
0010
0001
0010
0001
0010
0000
0000
1001
0000
1001
0000
1100
0000
,  // measure 40
1100
0000
0100
0000
0110
0000
0000
0000
1001
0000
0000
1100
0000
0000
1010
0000
,  // measure 41
0100
1000
0010
0100
0001
0010
0100
1000
0100
0010
0001
0100
0010
1000
0001
0100
,  // measure 42
0010
2200
0000
3300
0022
0033
2002
3003
,  // measure 43
0100
1000
0010
0100
0001
0010
0100
1000
0100
0010
0001
0100
0010
1000
0001
0100
,  // measure 44
0010
0000
1000
0000
0100
0000
1001
0000
1100
0000
0000
0110
0000
0000
1001
0000
,  // measure 45
0100
1000
0010
0100
0001
0010
0100
1000
0100
0010
0001
0100
0010
1000
0001
0100
,  // measure 46
0022
0000
0000
0000
0033
0000
0000
0220
0000
0000
0330
0000
1000
0022
0000
0000
,  // measure 47
0000
0000
0000
0000
0000
0000
0000
0000
0000
0033
0000
0000
0000
0000
0000
0000
,  // measure 48
1000
0000
0100
0000
1001
0000
1100
0000
1000
0010
1000
0000
0100
0010
0100
0000
,  // measure 49
1010
0000
0101
0000
1010
0000
0101
0000
1000
0100
0010
1000
0100
0010
0001
0000
,  // measure 50
0010
0000
0100
0000
1000
0100
0001
0000
0010
0000
0110
0000
1100
0000
1001
0000
,  // measure 51
0010
0100
1000
0000
0100
0001
0010
0000
1000
0000
0100
0010
1000
0000
0110
0000
,  // measure 52
0010
0000
1000
0000
0100
0010
1000
0000
0100
0010
0001
0000
0001
0010
0100
0000
,  // measure 53
1100
0000
1001
0000
1100
0000
1010
0000
0100
0010
1000
0100
1000
0100
0010
0000
,  // measure 54
0100
0000
1000
0100
0010
0000
1001
0000
0100
0000
1000
0100
0010
0000
1001
0000
,  // measure 55
1001
0000
1100
0000
1010
0000
1100
0000
1000
0100
1000
0100
1000
0010
1000
0100
,  // measure 56
1000
0001
0010
0100
0010
1000
0100
0001
0010
1000
0100
0001
0010
0100
1000
0000
,  // measure 57
0000
0000
0000
0000
1000
0100
1000
0100
1000
0100
1000
0100
1000
0000
0000
0000
0000
0000
0010
0001
0010
0001
0010
0001
0010
0001
0000
0000
0000
0000
0000
0000
,  // measure 58
2000
0000
0000
0000
0000
0000
3100
0010
0001
0000
0100
0000
1000
0000
0100
0000
,  // measure 59
1100
0000
1001
0000
1100
0000
1001
0000
1100
0000
1001
0000
1100
0110
1001
0000
,  // measure 60
0002
0000
0000
0000
0000
0000
0013
0100
1000
0000
0010
0000
0001
0000
0010
0000
,  // measure 61
0011
0000
1001
0000
0011
0000
1001
0000
0011
0000
1001
0000
0011
0110
1001
0000
,  // measure 62
0200
0000
0000
0000
0000
0000
0310
0001
1000
0000
0010
0000
0100
0000
0001
0000
,  // measure 63
0101
0110
0101
0110
0101
0110
0101
0110
,  // measure 64
1100
0000
0100
0010
0001
0000
0100
0000
0010
0000
0100
0000
1000
0000
0010
0000
,  // measure 65
1001
1001
1100
1001
0220
0000
0330
0000
,  // measure 66
2001
3200
2301
3200
2301
3200
2301
3020
,  // measure 67
1230
0320
1230
0320
1230
0320
1230
0302
,  // measure 68
0123
0032
0123
0032
0123
0032
0123
0230
,  // measure 69
1302
0203
1302
0203
1302
0203
1302
0023
,  // measure 70
2230
3322
2233
3322
2233
3322
2233
3322
,  // measure 71
2033
3210
2301
3210
1302
0123
1032
0123
,  // measure 72
1130
0000
1100
0000
1001
0000
1001
0000
1100
0110
1010
1100
0011
0000
1001
0000
,  // measure 73
1100
0000
1100
0000
0101
0000
0101
0000
1100
1010
0110
1100
0011
0000
0101
0000
,  // measure 74
1000
0000
0001
0000
0010
0000
0100
0000
0010
1000
0101
0000
0100
0001
0110
0000
,  // measure 75
0001
0000
0010
0000
0101
0000
0001
0000
0100
0010
0101
0000
0001
0100
1001
0000
,  // measure 76
1000
0000
0100
0000
1000
0000
0110
0000
1100
0010
0001
0000
0100
0100
0011
0000
,  // measure 77
1000
0000
0100
0000
1000
0000
0110
0000
1100
0010
0001
0000
1100
0010
0001
0000
,  // measure 78
1000
0000
0100
0000
1000
0000
0010
0000
0110
1000
0001
0000
0110
1000
0001
0000
,  // measure 79
1100
0000
1100
0000
1001
0000
1001
0000
0100
0001
0010
0000
0100
0010
0001
0000
,  // measure 80
1000
0100
1000
0100
0010
0100
0010
0001
0010
0001
0010
0100
0010
0100
1000
0100
,  // measure 81
1001
0100
0010
1000
0001
0100
0010
1000
0101
0010
0001
1000
0110
0010
0001
0000
,  // measure 82
1010
0100
1000
0100
1010
0001
0100
0010
1001
0010
1000
0100
1001
0010
0100
0001
,  // measure 83
0110
0001
0010
0100
1001
0010
0001
1000
0011
0100
0001
1000
0110
0001
0010
0001
,  // measure 84
1100
0010
1000
0100
0011
1000
0001
0010
1100
0010
0100
1000
0011
1000
0010
0001
,  // measure 85
1100
0001
1000
0100
1010
0100
0010
0100
1001
0100
1000
0100
0011
1000
0100
0010
,  // measure 86
0101
1000
0010
1000
0101
0100
0010
0001
0110
1000
0100
0001
1010
0100
0001
0010
,  // measure 87
1100
0001
0100
1000
0110
0001
1000
0100
0011
1000
0010
0001
0110
1000
0100
0010
,  // measure 88
2001
0010
3201
0010
2301
0010
3201
0010
2301
0010
3201
0010
2301
0010
3201
0010
,  // measure 89
0301
0100
0010
1000
0100
0001
0010
1000
0001
0100
0010
1000
0001
0010
0100
1000
,  // measure 90
0122
1000
0100
1000
0100
1000
0100
1000
0100
1000
0100
1000
0100
0000
0000
0000
,  // measure 91
0000
0000
0000
0000
,  // measure 92
0033
0000
0000
0000
;

//---------------dance-single - ----------------
#NOTES:
     dance-single:
     :
     Medium:
     9:
     0.692,0.984,0.684,0.320,0.078,444.000,79.000,37.000,0.000,0.000:  // measure 1
0000
0000
0000
0000
,  // measure 2
0000
0000
0000
0000
,  // measure 3
0000
0000
0000
0000
,  // measure 4
0000
0000
0000
0000
,  // measure 5
1000
0100
0001
0010
0100
1000
0001
0010
,  // measure 6
0100
0001
0010
1000
0100
0010
1000
0010
,  // measure 7
0001
0010
0100
1000
0100
0010
0001
0010
,  // measure 8
0100
1000
0100
0001
0010
0100
1000
0100
,  // measure 9
1010
1001
0101
1010
,  // measure 10
1010
0110
0101
1010
,  // measure 11
0110
1010
0101
1010
,  // measure 12
1010
0101
1010
0101
,  // measure 13
1010
0110
1100
0110
,  // measure 14
0011
1100
0011
1100
,  // measure 15
0100
0010
0100
0010
0100
0010
0100
0010
,  // measure 16
0001
0100
0001
0100
0001
0100
0001
0100
,  // measure 17
1100
0000
0101
0000
,  // measure 18
0000
0000
0000
2200
0000
0000
0000
0000
0000
3300
0000
0000
0000
0000
0000
0000
,  // measure 19
0100
1000
0010
1000
0000
0000
0100
1000
,  // measure 20
0010
0100
1000
1000
0000
1000
0010
0001
,  // measure 21
0100
0010
0001
0010
0000
0100
0010
0001
,  // measure 22
0100
1000
0010
0001
0000
1000
0100
0001
,  // measure 23
0100
0010
0100
0010
0000
0001
1000
0001
,  // measure 24
0100
0010
0100
1000
0000
1000
0100
0010
,  // measure 25
1000
0010
0100
0010
0000
1000
0100
0001
,  // measure 26
0100
0001
0010
0100
0000
0100
0010
0100
,  // measure 27
0010
1000
0010
0000
0100
1000
0100
0000
,  // measure 28
0100
0010
0001
0000
0100
0010
0220
0330
,  // measure 29
0100
0001
0100
0000
0000
0010
0100
1000
,  // measure 30
0100
0001
0100
0010
0000
0100
0010
0001
,  // measure 31
0100
0010
0001
1000
0000
0010
1000
0010
,  // measure 32
0001
1000
0001
0100
0000
1000
0010
0100
,  // measure 33
0000
0100
1000
0100
0000
0001
0100
1000
,  // measure 34
0100
0010
1000
0100
0000
0100
0001
1000
,  // measure 35
0100
0010
1000
0100
0000
0001
0100
1000
,  // measure 36
0100
0010
1000
0100
0000
0100
0001
1000
,  // measure 37
0100
1000
0100
0000
0100
0010
0001
0010
,  // measure 38
0100
1000
0100
1000
0000
0001
1000
0001
,  // measure 39
0100
0010
0100
0010
0100
0010
0100
0010
0000
0000
0000
0000
0000
0000
0000
0000
,  // measure 40
0100
0000
1000
0000
0010
0000
0100
0000
0000
0000
0000
0010
0000
0000
1000
0000
,  // measure 41
0100
0000
1000
0000
0010
0000
0100
0000
0000
0000
0000
1000
0000
0000
0010
0000
,  // measure 42
0100
0000
1000
0000
0010
0000
0100
0000
0000
0000
0000
0100
0000
0000
1000
0000
,  // measure 43
0100
0000
1000
0000
0010
0000
0100
0000
0000
0000
0000
0100
0000
0000
1000
0000
,  // measure 44
0100
0000
1000
0000
0010
0000
0100
0000
0000
0000
0000
0100
0000
0000
0010
0000
,  // measure 45
0100
0000
1000
0000
0010
0000
0100
0000
0000
0000
0000
1000
0000
0000
0100
0000
,  // measure 46
0020
0000
0000
0000
0030
0000
0000
0020
0000
0000
0030
0000
0010
0002
0000
0000
,  // measure 47
0000
0000
0000
0000
0000
0000
0000
0000
0000
0003
0000
0000
0000
0000
0000
0000
,  // measure 48
1010
0000
0110
0000
1000
0100
1000
0100
,  // measure 49
1000
0000
0000
0010
0000
0000
0100
0000
0001
0000
0000
0010
0000
0000
0100
0000
,  // measure 50
2000
0000
0000
0000
,  // measure 51
3000
0000
0000
0000
0000
0000
0000
0000
1000
0000
0000
0100
0000
0000
0010
0000
,  // measure 52
0002
0000
0000
0000
,  // measure 53
0023
0000
0000
0000
,  // measure 54
0230
0000
0000
0000
,  // measure 55
2300
0000
0000
0000
,  // measure 56
3000
0000
0000
0000
,  // measure 57
0000
0000
2200
0000
0000
0000
3300
0000
0000
0022
0000
0000
0000
0033
0000
0000
,  // measure 58
2000
0000
0000
0000
3001
0100
1000
0100
,  // measure 59
0011
1100
0110
1100
,  // measure 60
0002
0000
0000
0000
1003
0010
0001
0010
,  // measure 61
1001
0101
0011
0101
,  // measure 62
0200
0000
0000
0000
1300
0010
0100
0001
,  // measure 63
0110
0101
0011
1100
,  // measure 64
0001
0000
0100
0010
0001
0000
0100
0000
0010
0000
1000
0000
0100
0000
1000
0000
,  // measure 65
0110
1010
0220
0330
,  // measure 66
0101
0110
1100
0011
,  // measure 67
0011
0101
0101
0110
,  // measure 68
1001
0110
0110
0101
,  // measure 69
0110
1010
1100
0011
,  // measure 70
1001
0101
1001
0110
,  // measure 71
0011
0011
0011
0101
,  // measure 72
1000
0100
0010
0001
0010
0100
0010
1000
,  // measure 73
1100
0110
0011
0110
,  // measure 74
0010
0001
0010
0100
0000
0000
0000
0000
,  // measure 75
0000
0000
0000
0000
0000
0000
0010
0100
,  // measure 76
1000
0100
1000
0010
0000
0000
0000
0000
,  // measure 77
0000
0000
0000
0000
,  // measure 78
1000
0100
1000
0010
0000
0000
0000
0000
,  // measure 79
0000
0000
0000
0000
0000
0010
0100
1000
,  // measure 80
0100
0010
0001
0010
0000
0000
0000
0000
,  // measure 81
1010
0110
1010
0110
,  // measure 82
1000
0100
0010
0001
1000
0100
0010
0001
,  // measure 83
1000
0100
0010
0001
0001
0010
0100
1000
,  // measure 84
1000
0100
0010
0001
1000
0100
0010
0001
,  // measure 85
1000
0100
0010
0001
0001
0010
0100
1000
,  // measure 86
1000
0100
0010
0001
1000
0100
0010
0001
,  // measure 87
1000
0100
0010
0001
0001
0010
0100
1000
,  // measure 88
2000
3200
0320
0230
0320
0230
0320
0230
,  // measure 89
0320
0230
0320
0230
0320
0230
0320
0200
,  // measure 90
0000
0000
0000
0000
,  // measure 91
0000
0000
0000
0000
,  // measure 92
0330
0000
0000
0000
;

//---------------dance-single - ----------------
#NOTES:
     dance-single:
     :
     Easy:
     7:
     0.561,0.709,0.337,0.900,0.052,311.000,39.000,104.000,0.000,0.000:  // measure 1
0000
0000
0000
0000
,  // measure 2
0000
0000
0000
0000
,  // measure 3
0000
0000
0000
0000
,  // measure 4
0000
0000
0000
0000
,  // measure 5
2000
3200
0320
0230
,  // measure 6
2300
3200
0320
0032
,  // measure 7
0023
0230
2300
3002
,  // measure 8
0023
0230
0320
0032
,  // measure 9
1003
0100
0010
0001
,  // measure 10
1000
0100
0001
0010
,  // measure 11
1000
0100
0010
0001
,  // measure 12
1000
0100
0001
0010
,  // measure 13
1000
0100
0010
0001
,  // measure 14
1000
0100
0001
0010
,  // measure 15
2000
0000
0000
0000
,  // measure 16
0020
0000
0000
0000
0000
0000
0000
3030
,  // measure 17
1000
0000
0000
0000
,  // measure 18
0000
0000
0000
2200
0000
0000
0000
0000
0000
3300
0000
0000
0000
0000
0000
0000
,  // measure 19
1001
0000
0100
0010
0000
0001
0000
0001
,  // measure 20
1001
0000
0010
0100
0000
1000
0000
1000
,  // measure 21
1001
0000
0100
0010
0000
0001
0000
0001
,  // measure 22
1001
0000
0010
0100
0000
1000
0000
1000
,  // measure 23
1001
0000
0100
0010
0000
0001
0000
0001
,  // measure 24
1001
0000
0010
0100
0000
1000
0000
1000
,  // measure 25
1001
0000
0100
0010
0000
0001
0000
0001
,  // measure 26
1001
0000
0010
0100
0000
1000
0000
1000
,  // measure 27
2000
3000
0002
0003
0200
0300
0000
2000
,  // measure 28
3000
0000
0000
0000
0000
0020
0000
0000
0000
0030
0000
0000
0000
0000
0002
0000
0000
0000
0003
0000
0020
0000
0000
0000
0200
0000
0000
0000
0330
0000
0000
0000
,  // measure 29
1000
0000
0000
0100
0000
0000
0001
0000
,  // measure 30
0000
0100
0000
0000
0100
0000
0010
0000
,  // measure 31
1001
0000
0000
0010
0000
0000
1000
0000
,  // measure 32
0000
0000
0200
0000
0000
0000
0300
0000
2001
0000
0000
3000
0000
2000
0000
0000
,  // measure 33
3002
0000
0003
0020
0000
0030
2000
0000
,  // measure 34
3000
0000
0000
0000
0001
1000
0001
1000
,  // measure 35
0002
0000
0000
0000
,  // measure 36
0000
0000
0000
0000
0023
0000
0000
0030
,  // measure 37
2000
0000
3200
0000
,  // measure 38
0320
0000
0000
0000
0032
0000
0000
0003
,  // measure 39
1000
0001
1000
0001
1000
0001
1000
0000
0000
0000
0000
0000
0000
0000
0000
0000
,  // measure 40
0002
0000
0000
0010
0000
0000
0103
0000
,  // measure 41
2000
0000
0000
0100
0000
0000
3010
0000
,  // measure 42
0020
0000
0000
0100
0000
0000
1030
0000
,  // measure 43
0002
0000
0000
1000
0000
0000
0103
0000
,  // measure 44
2002
0000
0003
0020
0000
0030
3100
0000
,  // measure 45
0220
0000
0300
2000
0000
3000
0031
0000
,  // measure 46
2002
0000
3003
0220
0000
0330
1001
0000
,  // measure 47
0000
0000
0000
0000
,  // measure 48
1010
0110
0101
1001
,  // measure 49
0011
0000
0000
0010
0000
0000
0100
0000
0001
0000
0000
0010
0000
0000
0100
0000
,  // measure 50
2000
0000
0000
0000
,  // measure 51
3000
0000
0000
0000
0000
0000
0000
0000
1000
0000
0000
0100
0000
0000
0010
0000
,  // measure 52
0002
0000
0000
0000
,  // measure 53
0023
0000
0000
0000
,  // measure 54
0230
0000
0000
0000
,  // measure 55
2300
0000
0000
0000
,  // measure 56
3000
0000
0000
0000
,  // measure 57
0000
0000
2200
0000
0000
0000
3300
0000
0000
0022
0000
0000
0000
0033
0000
0000
,  // measure 58
2000
0000
0000
0000
3001
0100
1000
0100
,  // measure 59
0002
0023
0230
2300
,  // measure 60
3002
0000
0000
0000
1003
0010
0001
0010
,  // measure 61
0002
0023
0230
2300
,  // measure 62
3200
0000
0000
0000
1300
0010
0100
0001
,  // measure 63
0020
0230
0320
0230
,  // measure 64
0301
0000
0100
0010
0001
0000
0100
0000
0010
0000
1000
0000
0100
0000
1000
0000
,  // measure 65
2000
3200
0020
0330
,  // measure 66
0002
0103
2000
3010
,  // measure 67
0002
0103
0020
0130
,  // measure 68
1001
0110
0110
0101
,  // measure 69
0002
0103
2000
3010
,  // measure 70
0002
0103
0020
0130
,  // measure 71
1001
0110
0110
0101
,  // measure 72
1000
0100
0010
0001
0010
0100
0010
1000
,  // measure 73
1100
0110
0011
0110
,  // measure 74
0010
0001
0010
0100
0000
0000
0000
0000
,  // measure 75
0000
0000
0000
0000
0000
0000
0010
0100
,  // measure 76
1000
0100
1000
0010
0000
0000
0000
0000
,  // measure 77
0000
0000
0000
0000
,  // measure 78
1000
0100
1000
0010
0000
0000
0000
0000
,  // measure 79
0000
0000
0000
0000
0000
0010
0100
1000
,  // measure 80
0100
0010
0001
0010
0000
0000
0000
0000
,  // measure 81
1010
0110
1010
0110
,  // measure 82
2000
3010
0200
0310
,  // measure 83
1000
0100
0010
0001
0001
0010
0100
1000
,  // measure 84
0002
0013
0200
0310
,  // measure 85
1000
0100
0010
0001
0001
0010
0100
1000
,  // measure 86
0020
0130
0200
0301
,  // measure 87
1000
0100
0010
0001
0001
0010
0100
1000
,  // measure 88
2000
0000
3010
0200
0300
0200
0300
0200
,  // measure 89
0300
0200
0300
0200
0300
0200
0320
0200
,  // measure 90
0000
0000
0000
0000
,  // measure 91
0000
0000
0000
0000
,  // measure 92
0330
0000
0000
0000
;
