#TITLE:A Few Fresh Veggies;
#SUBTITLE:;
#ARTIST:Oxygenfad;
#TITLETRANSLIT:;
#SUBTITLETRANSLIT:;
#ARTISTTRANSLIT:;
#CREDIT:;
#BANNER:;
#BACKGROUND:;
#LYRICSPATH:;
#CDTITLE:wyde cd-tital.png;
#MUSIC:Oxygenfad - A Few Fresh Veggies.ogg;
#OFFSET:0.230;
#SAMPLESTART:64.458;
#SAMPLELENGTH:16.200;
#SELECTABLE:YES;
#DISPLAYBPM:89.000:178.000;
#BPMS:0.000=178.075,2.000=267.112,2.833=133.556,3.667=267.113,4.500=133.556,5.333=267.112,6.167=133.556,7.000=267.113,7.500=133.557,8.000=178.075,9.000=356.150,9.500=178.075,10.500=356.150,11.250=178.075,12.000=356.150,13.500=118.717,14.000=356.150,16.000=178.075,17.000=356.150,17.500=178.075,18.500=118.717,18.750=356.150,19.000=118.716,19.250=356.150,19.500=118.717,19.750=356.150,20.500=178.075,20.750=356.130,21.250=178.075,21.500=356.150,22.000=178.075,22.250=356.130,22.750=178.075,23.000=356.150,24.500=178.075,27.000=356.150,28.500=178.075,29.500=356.150,30.250=118.717,31.000=178.075,31.500=356.150,32.000=178.075,34.000=356.150,34.500=178.075,37.000=356.150,43.000=178.075,46.000=356.150,54.375=118.716,54.750=356.150,56.250=118.717,56.500=178.075,57.250=356.150,59.500=178.075,60.000=356.150,63.000=178.075,66.000=89.028,68.000=356.150,83.500=118.717,84.000=178.075,84.500=356.150,85.500=178.075,86.000=356.015,88.000=356.150,90.500=178.075,91.000=356.150,91.500=178.075,92.000=356.150,96.500=178.075,96.750=356.150,97.250=178.075,97.500=356.150,98.000=178.075,98.250=356.150,102.000=178.075,102.500=356.170,103.500=178.075,104.000=356.150,108.000=89.037,111.000=356.150,111.500=118.716,112.000=356.150,112.500=118.717,113.000=178.075,142.250=356.150,143.000=356.150,144.000=118.717,144.500=356.150,145.000=178.075,177.000=356.150,182.000=178.075,185.000=356.150,185.500=118.716,186.000=356.130,186.500=118.717,187.000=356.150,187.500=118.717,188.000=356.130,188.500=118.716,189.000=356.150,189.250=118.717,189.500=178.075,190.000=356.130,190.250=118.717,190.500=178.075,191.000=356.150,191.250=118.716,191.500=178.075,192.000=356.130,192.250=118.717,192.500=178.075,193.000=356.150,193.250=118.717,193.500=178.075,194.000=356.130,194.250=118.716,194.500=178.075,195.000=356.150,195.250=118.717,195.500=178.075,196.000=356.130,196.250=118.717,196.500=178.075,197.000=356.150,197.250=118.716,197.500=178.075,198.000=356.130,198.250=118.717,198.500=178.075,199.000=356.150,199.500=178.075,200.500=356.150,201.000=178.095,249.000=133.556,249.500=267.112,250.000=133.556,250.500=267.113,251.000=178.075,266.000=356.150,274.000=178.075,275.250=356.150,275.750=178.075,276.000=356.150,276.500=178.075,277.500=356.150,292.500=178.075,293.000=356.150,310.000=178.075,310.500=356.150,311.500=178.075,312.000=356.150,314.500=178.075,314.750=356.150,315.250=178.075,315.500=356.150,316.000=178.055,317.250=356.150,317.500=178.095,317.750=356.150,320.250=178.075;
#STOPS:9.000=0.085
,10.500=0.042
,10.750=0.084
,12.500=0.168
,14.000=0.042
,14.250=0.042
,14.500=0.042
,14.750=0.042
,15.000=0.043
,15.250=0.042
,15.500=0.042
,15.750=0.042
,17.375=0.085
,20.000=0.084
,20.750=0.084
,21.500=0.085
,22.250=0.084
,23.000=0.168
,24.000=0.084
,27.000=0.168
,28.000=0.021
,28.125=0.021
,28.250=0.021
,28.375=0.021
,31.500=0.021
,31.625=0.021
,31.750=0.021
,31.875=0.021
,34.000=0.021
,34.125=0.021
,34.250=0.021
,34.375=0.021
,36.500=0.337
,37.000=0.042
,37.250=0.042
,37.500=0.043
,37.750=0.042
,38.000=0.042
,38.250=0.042
,38.500=0.042
,38.750=0.042
,39.000=0.043
,39.250=0.042
,39.500=0.042
,39.750=0.042
,40.000=0.043
,40.250=0.042
,40.500=0.042
,40.750=0.042
,41.000=0.043
,41.250=0.042
,41.500=0.042
,41.750=0.042
,42.000=0.042
,42.250=0.042
,42.500=0.043
,42.750=0.042
,45.500=0.337
,46.000=0.042
,46.250=0.042
,46.500=0.042
,46.750=0.042
,47.000=0.043
,47.250=0.042
,47.500=0.042
,47.750=0.043
,48.000=0.042
,48.250=0.042
,48.500=0.043
,48.750=0.042
,49.000=0.042
,49.250=0.042
,49.500=0.042
,49.750=0.042
,50.000=0.043
,50.250=0.042
,50.500=0.084
,51.000=0.042
,51.250=0.042
,51.500=0.042
,51.750=0.042
,52.000=0.043
,52.250=0.042
,52.500=0.042
,52.750=0.042
,53.000=0.021
,53.125=0.021
,53.250=0.021
,53.375=0.021
,53.500=0.021
,53.625=0.021
,53.750=0.021
,53.875=0.022
,54.750=0.042
,55.000=0.085
,55.500=0.084
,57.250=0.043
,57.500=0.084
,58.000=0.085
,58.500=0.021
,58.625=0.021
,58.750=0.021
,58.875=0.021
,59.000=0.084
,60.000=0.021
,60.125=0.021
,60.250=0.021
,60.375=0.021
,60.500=0.042
,60.750=0.042
,61.000=0.084
,61.500=0.085
,62.000=0.084
,62.500=0.042
,62.750=0.042
,68.000=0.084
,68.500=0.085
,69.000=0.084
,69.500=0.084
,70.000=0.085
,70.500=0.084
,71.000=0.084
,71.500=0.042
,71.750=0.043
,72.000=0.042
,72.250=0.042
,72.500=0.042
,72.750=0.042
,73.000=0.085
,73.500=0.084
,74.000=0.042
,74.250=0.043
,74.500=0.042
,74.750=0.042
,75.000=0.042
,75.250=0.042
,75.500=0.042
,75.750=0.043
,76.000=0.084
,76.500=0.085
,77.000=0.084
,77.500=0.042
,77.750=0.042
,78.000=0.042
,78.250=0.042
,78.500=0.042
,78.750=0.043
,79.000=0.042
,79.250=0.042
,79.500=0.021
,79.625=0.021
,79.750=0.021
,79.875=0.021
,80.000=0.042
,80.250=0.042
,80.500=0.042
,80.750=0.043
,81.000=0.084
,81.500=0.042
,81.750=0.042
,82.000=0.042
,82.250=0.042
,82.500=0.085
,84.500=0.042
,84.750=0.043
,85.000=0.084
,86.000=0.042
,86.250=0.042
,86.500=0.084
,87.000=0.085
,87.500=0.021
,87.625=0.021
,87.750=0.021
,87.875=0.021
,88.000=0.042
,88.250=0.042
,88.500=0.042
,88.750=0.043
,89.000=0.084
,89.500=0.042
,89.750=0.042
,90.000=0.042
,90.250=0.042
,91.000=0.084
,92.000=0.085
,92.500=0.084
,93.000=0.084
,93.500=0.085
,94.000=0.084
,94.500=0.084
,95.000=0.085
,95.500=0.021
,95.625=0.021
,95.750=0.021
,95.875=0.022
,96.000=0.084
,96.750=0.084
,97.500=0.085
,98.250=0.126
,99.000=0.084
,99.500=0.084
,100.000=0.085
,100.500=0.084
,101.000=0.042
,101.250=0.043
,101.500=0.042
,101.750=0.042
,102.500=0.042
,102.750=0.042
,103.000=0.042
,103.250=0.043
,104.000=0.042
,104.250=0.042
,104.500=0.042
,104.750=0.042
,105.000=0.042
,105.250=0.043
,105.500=0.042
,105.750=0.042
,106.000=0.084
,106.500=0.085
,107.000=0.042
,107.250=0.042
,107.500=0.042
,107.750=0.043
,142.250=0.126
,143.000=0.042
,143.250=0.042
,144.500=0.084
,177.000=0.042
,177.250=0.042
,177.500=0.042
,177.750=0.043
,178.000=0.042
,178.250=0.042
,178.500=0.042
,178.750=0.042
,179.000=0.042
,179.250=0.042
,179.500=0.043
,179.750=0.042
,180.000=0.042
,180.250=0.043
,180.500=0.042
,180.750=0.042
,181.000=0.042
,181.250=0.042
,181.500=0.042
,181.750=0.043
,199.000=0.021
,199.125=0.021
,199.250=0.021
,199.375=0.021
,200.500=0.021
,200.625=0.021
,200.750=0.021
,200.875=0.021
,264.500=0.663
,266.000=0.084
,266.500=0.084
,267.000=0.085
,267.500=0.084
,268.000=0.085
,268.500=0.085
,269.000=0.084
,269.500=0.084
,270.000=0.085
,270.500=0.084
,271.000=0.042
,271.250=0.042
,271.500=0.042
,271.750=0.042
,272.000=0.085
,272.500=0.042
,272.750=0.043
,273.000=0.042
,273.250=0.042
,273.500=0.042
,273.750=0.042
,275.250=0.084
,276.000=0.085
,277.500=0.021
,277.625=0.021
,277.750=0.021
,277.875=0.021
,278.000=0.085
,278.500=0.042
,278.750=0.042
,279.000=0.042
,279.250=0.042
,279.500=0.042
,279.750=0.043
,280.000=0.042
,280.250=0.042
,280.500=0.042
,280.750=0.042
,281.000=0.042
,281.250=0.043
,281.500=0.042
,281.750=0.042
,282.000=0.042
,282.250=0.021
,282.375=0.021
,282.500=0.042
,282.750=0.043
,283.000=0.042
,283.250=0.021
,283.375=0.021
,283.500=0.042
,283.750=0.042
,284.000=0.042
,284.250=0.043
,284.500=0.085
,285.000=0.042
,285.250=0.042
,285.500=0.042
,285.750=0.042
,286.000=0.084
,286.500=0.084
,287.000=0.085
,287.500=0.084
,288.000=0.085
,288.500=0.021
,288.625=0.021
,288.750=0.021
,288.875=0.021
,289.000=0.085
,289.500=0.084
,290.000=0.084
,290.500=0.042
,290.750=0.043
,291.000=0.042
,291.250=0.042
,291.500=0.042
,291.750=0.042
,292.000=0.042
,292.250=0.043
,293.000=0.042
,293.250=0.042
,293.500=0.085
,294.000=0.084
,294.500=0.085
,295.000=0.085
,295.500=0.084
,296.000=0.042
,296.250=0.042
,296.500=0.042
,296.750=0.043
,297.000=0.042
,297.250=0.042
,297.500=0.042
,297.750=0.042
,298.000=0.042
,298.250=0.043
,298.500=0.042
,298.750=0.042
,299.000=0.042
,299.250=0.042
,299.500=0.042
,299.750=0.043
,300.000=0.021
,300.125=0.021
,300.250=0.021
,300.375=0.021
,300.500=0.084
,301.000=0.085
,301.500=0.084
,302.000=0.042
,302.250=0.021
,302.375=0.021
,302.500=0.042
,302.750=0.042
,303.000=0.042
,303.250=0.042
,303.500=0.043
,303.750=0.042
,304.000=0.042
,304.250=0.042
,304.500=0.042
,304.750=0.042
,305.000=0.043
,305.250=0.042
,305.500=0.042
,305.750=0.042
,306.000=0.042
,306.250=0.042
,306.500=0.043
,306.750=0.042
,307.000=0.042
,307.250=0.042
,307.500=0.042
,307.750=0.042
,308.000=0.043
,308.250=0.042
,308.500=0.042
,308.750=0.042
,309.000=0.042
,309.250=0.042
,309.500=0.043
,309.750=0.042
,310.500=0.042
,310.750=0.042
,311.000=0.042
,311.250=0.042
,312.000=0.085
,312.500=0.043
,312.750=0.042
,313.000=0.085
,313.500=0.042
,313.750=0.042
,314.000=0.042
,314.250=0.042
,314.750=0.043
,315.000=0.042
,315.500=0.042
,315.750=0.042
,317.250=0.042
,317.750=0.042
,318.000=0.084
,318.500=0.084
,319.000=0.085
,319.500=0.021
,319.625=0.022
,319.750=0.021
,319.875=0.021
,320.000=0.043
;
#BGCHANGES:;
// cache tags:
#FIRSTBEAT:2.000;
#LASTBEAT:320.250;
#SONGFILENAME:Songs/SSSC Pack 2/A Few Fresh Veggies [Wyde]/A Few Fresh Veggies [Wyde].sm;
#HASMUSIC:1;
#HASBANNER:0;
#MUSICLENGTH:110.795;
// end cache tags

//---------------dance-single - Wyde----------------
#NOTES:
     dance-single:
     Wyde:
     Challenge:
     13:
     1.000,1.000,0.821,0.469,1.000,768.000,91.000,52.000,91.000,0.000:

0000
0000
0000
0000
0000
0000
MMMM
0000
0000
0000
0000
MMMM
,
0000
0000
0000
0000
MMMM
0000
0000
0000
0000
MMMM
0000
0000
,
1001
0000
0000
1010
000M
0000
0101
0000
0001
1000
0100
0010
0000
1100
0000
0001
,
0200
0000
0300
0000
1010
0000
0000
0000
0001
1000
0010
1000
0001
1000
0010
1000
,
0100
0000
0000
0000
0010
0000
0001
0000
4000
00M0
00M0
00M0
3100
0000
0000
0000
0000
0000
0000
0000
0020
0000
0000
0000
0032
0000
0000
0000
0023
0000
0000
0000
,
0130
0000
1000
0100
0000
1000
0100
0000
1000
0100
0000
1000
0020
0000
0000
0000
,
0130
0000
0001
1000
0001
1000
0100
0000
1000
0000
0010
0000
2002
0000
3003
0000
,
0004
00M0
0403
M000
0301
0000
0000
0000
0000
0000
0000
0000
2010
0000
0000
0000
0000
0000
0000
0000
0000
0000
0000
0000
3001
0000
0010
0000
0400
000M
4300
00M0
,
3100
0000
0000
0000
0100
0000
0010
0000
0000
0000
0010
0000
0001
0000
0000
0000
4000
0000
3M40
000M
1030
0000
0000
0000
1001
0000
0000
0000
0000
0000
0110
0000
,
0000
0000
M00M
0000
0001
0010
0100
1000
0001
0100
0001
0100
0010
1000
0001
0010
,
0100
1000
0100
0010
0100
1000
0100
0010
0100
0010
0001
1000
0020
0000
0000
0030
,
0101
0000
1010
0000
0001
0010
M10M
0000
1000
0001
0010
0001
1000
0010
0100
0001
,
0100
0010
0100
0001
0100
0001
1000
0100
0010
0001
1000
0000
0001
0010
0001
1000
,
0010
0000
0100
0000
0010
0000
1000
0000
0004
0400
00M0
00M0
M000
M000
M000
M303
0102
0000
0000
0000
0003
0000
1000
0000
0001
0000
0000
0000
2100
0000
0000
0000
,
3002
0000
0000
0000
0013
0000
0100
0000
1000
0000
0001
0000
0100
0000
0000
0000
0110
0000
0000
0000
4000
0M00
304M
0000
1030
0000
0000
0000
0010
0000
0000
0000
,
0400
0000
M304
00M0
0103
0000
0001
0000
1000
0000
0000
0000
1010
0000
0000
0000
1001
0000
0000
0000
0001
0000
1000
0000
0100
0000
0010
0000
0100
0000
0010
0000
,
0001
0000
0000
0000
1000
0000
0000
0000
0010
0000
0000
0000
0100
0000
0000
0000
0010
0000
0000
0000
0100
0000
0000
0000
0001
0000
0000
0000
1000
0000
0000
0000
0200
0000
0000
0000
0000
000M
0000
0000
0000
00M0
0000
0000
0000
000M
0000
M000
0000
0000
0000
00M0
0000
0000
0000
0000
M300
0000
0000
0000
0000
0000
0000
0000
,
0011
0000
1001
0000
1100
0000
0011
0000
1001
0000
1010
0000
0101
0000
1000
0010
,
1000
0001
0010
0100
0010
0000
1001
0000
1000
0100
0010
0001
1000
0010
0100
0010
,
1000
0000
0000
0000
1001
0000
0000
0000
0101
0000
0000
0000
0001
0000
1000
0000
0100
0000
0010
0000
0001
0000
1000
0000
0010
0000
0100
0000
0004
0000
04M3
M000
,
0301
0100
0010
1000
0001
0000
0100
0010
1000
0001
1000
0000
0011
0000
0000
0000
,
2100
0000
0000
0000
3001
0000
0010
0000
0100
0000
0000
0000
2100
0000
0000
0000
3001
0000
0010
0000
0100
0000
0000
0000
1100
0000
0000
0000
4000
0M00
30M4
0000
,
1003
0001
1000
0100
0010
0000
0001
0100
0001
1000
0020
0030
0101
0000
0020
0030
,
0101
0000
0000
0000
1001
0000
0000
0000
1100
0000
0000
0000
1001
0000
0000
0000
0110
0000
0000
0000
1001
0000
0000
0000
1010
0000
0000
0000
0004
0000
40M3
0M00
,
3001
0000
0001
0010
0000
0010
0100
0000
0100
1000
0000
0000
0011
0000
0101
0000
,
1010
0000
1001
0000
0001
0010
0001
1000
0200
0000
0310
0001
1000
0010
0200
0000
,
0310
1000
0001
0100
0001
1000
0001
0010
0100
0000
0110
0000
0001
1000
0001
0100
,
00M0
0000
0000
0000
0000
0000
0000
0000
M000
0000
0000
0000
0000
0000
0000
0000
00M0
0000
0000
0000
0000
0000
0000
0000
0M00
0000
0000
0000
0000
0000
000M
0000
0000
0000
0000
0000
0000
0000
0000
M000
0000
0000
0000
0000
0000
0000
0000
0000
0000
0000
0000
0000
0M00
0000
0000
0000
0000
0000
0000
0000
00M0
0000
0000
0000
0000
0000
0000
0000
0000
0000
0000
0000
000M
0000
0000
0000
0000
0000
0000
0000
0000
0000
0000
0000
0000
0000
0000
0000
0000
0000
0000
0000
0000
0000
0000
0000
0000
0000
0000
0000
0000
0000
00M0
0000
0000
0000
0000
0000
0000
0000
0000
0000
0M00
0000
0000
0000
0000
0000
0000
0000
0000
0000
0000
0000
M000
0000
0000
0000
0000
0000
0000
0000
0000
0000
0000
0000
0000
0000
0000
0000
0000
0000
0000
0000
2020
0000
0000
0000
0000
0000
0000
0000
0000
0000
0000
0000
0000
0000
0000
0000
0000
0000
0000
0000
0000
0000
0000
0000
0000
0000
0000
0000
0000
0000
0000
0000
0000
0000
0000
0000
3030
0000
0000
0000
0000
0000
0000
0000
0000
0000
0000
0000
,
0202
0000
0000
0303
1000
0000
0100
0000
0010
0000
0001
0000
0100
0000
0010
1000
,
0010
0100
0001
0000
1000
0000
0010
0000
0100
0000
0001
1000
0001
0100
0010
0000
,
1000
0000
0001
0000
0010
0000
0100
0000
1000
0000
0001
0000
0100
0000
0001
1000
,
0001
0010
0100
0000
1000
0000
0001
0000
0100
0000
0001
1000
0010
0100
0001
0000
,
0010
0000
0100
0000
0010
0001
1000
0100
0010
0000
0001
0100
0001
0000
1000
0100
,
1000
0000
0001
0010
0001
0000
1000
0010
1000
0000
0001
0100
0010
1000
0001
0000
,
0010
0100
1000
0000
0001
0000
0100
0000
0010
0000
1000
0000
0001
0000
0010
0100
,
0010
0001
1000
0000
0010
0100
0001
0000
0000
0110
0000
0000
1000
0001
0100
0000
,
0000
0000
1010
0000
0001
0000
0010
0000
0100
0000
1000
0000
0001
0000
0100
0010
,
1000
0100
1000
0000
0001
0000
0010
0000
0100
0000
1000
0010
0100
0001
0010
0000
,
0100
0000
1000
0000
0001
0000
1000
0000
0100
0000
0010
0000
0001
0000
1000
0100
,
1000
0010
0100
0000
0001
0000
0010
0000
0001
0000
0100
0001
0010
0001
1000
0000
,
0100
0000
1000
0000
0001
0000
1000
0000
0010
0000
0100
0000
0001
0000
1000
0010
,
1000
0100
1000
0000
0010
0000
0100
0000
0001
0000
0010
0001
0100
0001
1000
0000
,
0100
0000
0010
0000
0001
0000
0010
0000
0100
0000
1000
0000
0010
0000
0100
0001
,
0100
0010
1000
0000
0100
0000
0020
0000
0032
0000
1003
0000
0010
0000
0010
0000
,
0010
0000
0M00
0000
0001
1000
0010
0100
0001
1000
0100
1000
0001
0010
0100
1000
,
0001
0100
0010
1000
0001
1000
0010
0100
0010
0000
1000
0000
0100
0000
000M
0000
,
0100
0011
0101
1010
,
1100
0000
0001
0010
0100
1000
0010
1000
,
0100
0000
1000
0000
0001
0000
0100
0000
0010
0000
1000
0000
0001
0000
0100
0010
,
1000
0000
0000
0000
0001
0000
0000
0000
0010
0000
0000
0000
0100
0000
0000
0000
0010
0000
0000
0000
0001
0000
0000
0000
4000
00M0
3400
000M
1300
0000
0000
0000
,
0100
0000
0000
0000
0040
000M
0430
M000
0310
0000
0100
0000
1000
0000
0001
0000
0010
0000
0000
0000
0001
0000
0100
0000
0001
0000
0000
0000
1000
0000
0010
0000
,
1000
0000
0001
0010
0001
0000
1000
0100
1000
0000
0001
0100
0010
1000
0001
0000
,
0100
0010
1000
0000
0001
0000
0100
0000
0010
0000
1000
0000
0001
0000
0010
0100
,
0010
0001
1000
0010
0100
0100
0100
0000
,
0100
0000
0000
0000
0001
0000
0100
0000
0010
0000
1000
0000
0001
0010
0100
1000
,
0100
0010
0001
0000
0100
0000
0010
0000
1000
0000
0001
0100
0010
1000
0001
1000
,
0010
0000
0100
0000
0001
0000
1000
0000
0100
0000
0010
0000
0001
0010
0100
1000
,
0100
0010
0001
0000
1000
0000
0010
0000
0100
0000
0001
1000
0001
0100
0010
1000
,
0001
0000
0010
0000
0100
0000
0010
0000
0001
0000
1000
0000
0010
0100
0001
0010
,
0100
1000
0010
0000
1000
0000
0100
0000
0010
0000
0100
1000
0010
0100
0001
0010
,
0100
0000
0010
0000
0001
0000
1000
0000
0001
0000
0100
0000
0010
1000
0100
0010
,
0100
1000
0001
0000
0010
0000
0000
0000
0001
0000
1000
0000
0000
0000
0200
0000
,
0000
03M0
000M
0000
0010
0000
M000
0010
,
0001
0000
0100
0000
0002
0000
0000
1003
0100
0000
0010
0000
0002
0000
0000
0000
,
0M03
0000
M000
0000
0200
0000
0000
0310
1000
0000
0001
0000
0020
0000
0000
0000
,
0030
0000
0100
0000
1000
0000
0000
0001
0000
0000
0100
0000
0010
0000
0000
M000
,
0000
0M0M
0000
0000
1010
0101
0011
1100
,
0110
0000
0110
0000
1001
0000
0101
0000
1010
0000
1001
0000
0001
1000
0100
0010
,
0001
0000
0100
0020
0130
0020
0130
0001
1000
0000
0100
0000
0010
0002
0003
0010
,
0002
0000
0000
0000
0000
0000
0000
0000
0000
0000
0000
0000
0003
0000
0000
0000
0000
0000
0000
0000
0000
0000
0000
0000
1000
0000
0000
0000
0000
0000
0000
0000
0000
0000
0000
0000
0000
0000
0000
0000
0000
0000
0040
0000
0000
0000
0000
0000
0000
0000
0000
0000
0400
0000
0000
0000
0000
0000
0000
0000
0000
0000
0000
0000
0000
0000
0000
0000
0000
0000
0000
0000
0000
0000
0000
0000
0000
0000
000M
0000
0000
0000
0000
0000
M000
0000
0000
0000
0000
0000
033M
0000
0000
0000
0000
0000
0210
0000
0000
0000
0000
0000
0000
0000
0000
0000
0000
0000
0000
0000
0000
0000
0000
0000
0000
0000
0000
0000
0000
0000
0301
0000
0000
0000
0000
0000
0000
0000
0000
0000
0000
0000
1000
0000
0000
0000
0000
0000
0000
0000
0000
0000
0000
0000
0100
0000
0000
0000
0000
0000
0000
0000
0000
0000
0000
0000
0010
0000
0000
0000
0000
0000
0000
0000
0000
0000
0000
0000
0001
0000
0000
0000
0000
0000
0000
0000
0000
0000
0000
0000
0010
0000
0000
0000
0000
0000
0000
0000
0000
0000
0000
0000
,
0100
0000
0010
0000
0100
0000
1000
0000
0001
0000
0010
0000
0001
0000
1000
0000
0010
0000
0400
M000
0301
0000
1000
0000
0100
0000
0040
M000
0031
0000
1000
0000
,
0010
0000
1000
0000
0002
0000
0000
0000
0013
0000
0100
0000
1000
0000
0001
0000
0200
0000
0000
0300
1010
0000
0000
0000
0101
0000
0000
0000
2000
0000
0000
0000
,
3002
0000
0000
0000
4003
00M0
3400
000M
1300
0000
0000
0000
0011
0000
0000
0000
2001
0000
0000
0000
3010
0000
0100
0000
0001
0000
1000
0000
0100
0000
1000
0000
,
0001
0010
0100
0000
1000
0010
1000
0000
1001
0000
0101
0000
1001
0000
0110
0000
,
1000
0010
0100
0001
1000
0001
0100
0010
1000
0001
1000
0100
0010
0100
1000
0001
,
0040
M000
M000
M000
0230
0000
0000
0000
2300
0000
0000
0000
3020
0000
0000
0000
1030
0000
0004
00M0
0103
0000
0001
0000
0100
0000
0010
0000
1000
0000
0001
0000
,
1000
0100
0010
0001
1000
0001
0010
0100
1000
0001
0100
0010
1000
0010
1000
0001
,
0100
0010
0100
0001
1000
0100
1000
0001
0020
0000
0130
1000
0001
1000
0020
0000
,
0230
0000
0310
1000
0001
0000
0010
0100
1000
0100
0020
0130
0010
0002
1003
0100
,
0020
0000
0000
0000
0230
0000
0000
0000
2300
0000
3001
0000
2000
0000
3010
0000
0100
0000
0000
0000
0101
0000
0000
0000
1010
0000
0000
0000
0004
00M0
4003
0M00
,
3001
0010
0000
0000
0000
0000
0000
0000
0000
0000
0000
0000
0000
0000
0000
0000
;
