#TITLE:Melon Lover;
#SUBTITLE:;
#ARTIST:S.S.H.;
#TITLETRANSLIT:;
#SUBTITLETRANSLIT:;
#ARTISTTRANSLIT:;
#CREDIT:Mad Matt;
#BANNER:;
#BACKGROUND:;
#LYRICSPATH:;
#CDTITLE:;
#MUSIC:Melon Lover.ogg;
#OFFSET:-0.078;
#SAMPLESTART:42.752;
#SAMPLELENGTH:12.000;
#SELECTABLE:YES;
#DISPLAYBPM:180.000;
#BPMS:0.000=179.990;
#STOPS:;
#BGCHANGES:;
// cache tags:
#FIRSTBEAT:0.000;
#LASTBEAT:276.000;
#SONGFILENAME:Songs/SSSC Pack 2/Melon Lover - [Mad Matt]/Melon Lover.sm;
#HASMUSIC:1;
#HASBANNER:0;
#MUSICLENGTH:101.781;
// end cache tags

//---------------dance-single - Mad Matt----------------
#NOTES:
     dance-single:
     Mad Matt:
     Challenge:
     13:
     1.000,1.000,0.020,0.766,1.000,822.000,2.000,78.000,0.000,1.000:

0010
0100
0010
0100
1000
0001
1000
0001
0100
0010
1000
0001
1000
0100
0010
0001
,
1000
0001
1000
0010
0100
0001
1000
0001
1000
0100
0010
0001
1000
0001
0100
0010
,
1000
0001
1000
0100
0010
0001
1000
0001
0100
0010
1000
0001
1000
0100
0010
0001
,
2000
0000
0000
0000
0000
0000
0000
0000
3020
0000
0000
0230
0000
0000
0302
0000
,
1003
0100
0010
0001
1000
0001
0100
0001
1000
0100
1000
0001
0100
0001
1000
0010
,
1000
0001
0010
0001
1000
0100
1000
0001
0010
0100
1000
0001
0100
0010
0100
0001
,
1000
0010
1000
0001
0010
0001
1000
0100
0010
0001
0010
0100
1000
0001
0100
0010
,
1000
0000
0000
0000
0000
0000
0000
0000
0000
0100
0000
0000
0000
0000
0000
0000
0000
0000
1000
0000
0000
0000
0000
0000
0000
0000
0000
0010
0000
0000
0000
0000
0000
0000
0000
0000
0100
0000
0000
0000
0000
0000
0001
0000
1000
0000
0001
0000
,
1000
0010
1000
0010
0100
0001
1000
0100
1000
0001
0010
0100
1000
0001
0100
0001
,
1000
0010
1000
0001
0100
0010
1000
0001
0010
0100
0010
0001
1000
0100
0010
0001
,
1000
0010
1000
0001
1000
0100
1000
0001
0100
0001
1000
0001
0010
0001
1000
0010
,
0200
0000
0000
0000
0000
0000
0000
0000
0302
0000
0000
2003
0000
0000
3200
0000
,
0310
0001
1000
0001
0100
0001
1000
0001
0010
0001
1000
0010
1000
0100
1000
0001
,
0010
0100
1000
0001
0100
0001
1000
0100
1000
0001
0010
0100
1000
0001
0100
0001
,
1000
0010
0100
0001
1000
0100
1000
0001
0010
0100
1000
0001
0100
0001
1000
0010
,
0100
0000
0000
0000
0000
0000
0000
0000
0000
0001
0000
0000
0000
0000
0000
0000
0000
0000
1000
0000
0000
0000
0000
0000
0000
0000
0000
0100
0000
0000
0000
0000
0000
0000
0000
0000
0010
0000
0000
0000
0000
0000
0001
0000
1000
0000
0001
0000
,
1000
0010
0100
0001
1000
0001
1000
0010
0100
0010
0100
0001
1000
0001
1000
0100
,
0010
0100
0010
0001
1000
0001
1000
0100
1000
0100
0010
0001
1000
0100
0010
0001
,
1000
0010
1000
0010
0100
0001
0100
0001
1000
0100
1000
0100
0010
0001
0010
0001
,
1000
0001
1000
0001
0100
0010
0100
0010
1000
0001
1000
0001
0010
0100
0010
0100
,
1000
0001
0100
0010
1000
0000
0011
1001
,
1000
0000
0001
0010
0100
1000
0001
0010
0001
1000
0100
0010
0001
1000
0100
1000
,
0001
0200
0320
1030
0200
0320
0031
2000
,
3020
0000
0130
0001
0100
0010
1000
0001
0010
0100
1000
0100
0010
0001
1000
0010
,
0100
0002
0023
0130
2000
3020
0130
0002
,
2003
0000
3100
0010
0001
0010
0100
1000
0001
0100
0001
1000
0010
0100
0001
1000
,
0100
0020
0032
1003
0020
0230
0301
2000
,
3200
0000
0000
0320
0000
0000
0032
0000
,
2003
3020
0230
0301
2000
3200
0310
0002
,
2003
0000
3010
0100
0001
1000
0100
1000
0001
0010
0100
1000
0001
0100
0010
1000
,
0002
0023
0230
2300
3002
0203
0320
2030
,
3200
0000
0310
0001
0010
0100
1000
0001
0100
0001
1000
0010
0100
0001
1000
0100
,
0010
0002
2003
3010
0200
0302
1003
0200
,
0320
0000
0031
1000
0100
1000
0001
0100
0001
1000
0010
1000
0001
0100
0001
0000
,
0000
1000
0020
0000
0230
0000
0302
0000
,
2003
0000
0200
3000
,
0020
0000
0302
0030
2000
0003
0020
3000
0200
0030
0002
0300
2000
0003
3001
0010
,
0100
0000
2000
0000
0000
3020
0000
0130
,
0001
1000
0100
0010
0000
0010
0100
1000
,
0001
0100
0001
0100
0020
0000
0000
0000
1030
0100
1000
0100
0020
0000
0000
0000
,
0031
1000
0001
1000
0020
0000
0000
0000
0130
0001
0100
0001
0020
0000
0230
0000
,
2300
3001
0010
0100
2000
3010
0200
0301
,
2000
3100
0010
0001
0020
0230
1300
0020
,
0130
0000
0001
1000
0010
0000
0100
0000
0010
0000
1000
0001
0010
0000
0100
0000
,
1000
0000
0010
0100
0001
0000
1000
0000
0200
0000
0000
0000
0320
0000
0000
0030
,
0001
1000
0100
0010
0001
0010
0100
1000
0001
0010
0100
0010
0001
1000
0010
1000
,
0001
0100
0001
1000
0010
0100
0001
1000
0100
0010
0001
0010
0100
1000
0001
0100
,
0001
1000
0010
1000
0001
0100
0001
1000
0100
1000
0001
0010
0100
1000
0100
0010
,
0001
1000
0010
1000
0010
1000
0001
0010
0100
1000
0001
0100
0001
1000
0100
0010
,
0001
1000
0010
0100
0010
0100
0001
1000
0001
1000
0100
0010
0001
1000
0010
0100
,
0001
1000
0100
1000
0001
0010
0100
1000
0001
0100
0001
1000
0010
0100
0001
1000
,
0100
1000
0001
0100
0010
1000
0001
0100
0001
1000
0100
0010
0001
1000
0100
0010
,
0001
0000
1000
0000
0010
0000
0100
0000
0001
1000
0001
1000
0100
0000
0010
0000
,
0001
1000
0010
0100
0001
1000
0100
1000
0100
0010
0001
0010
0001
1000
0010
0100
,
0001
1000
0100
1000
0001
0010
0100
1000
0001
0100
0001
0100
0010
1000
0010
1000
,
0001
0100
0001
1000
0100
1000
0001
0010
0100
1000
0001
0010
0001
1000
0010
1000
,
0001
0100
0001
1000
0100
1000
0001
0010
0100
1000
0001
0100
0010
1000
0001
0010
,
0100
0010
0001
1000
0100
0010
0001
1000
0100
0010
0001
1000
0010
1000
0010
0100
,
0001
0100
0001
1000
0100
0010
0001
0010
0100
1000
0001
0010
0100
1000
0001
0100
,
0001
1000
0010
0100
0001
1000
0100
0010
0001
0010
0100
1000
0001
0010
0100
0010
,
0001
1000
0100
0010
0001
1000
0010
0100
0001
1000
0100
0010
0001
0010
0100
1000
,
0001
0100
0001
0010
0001
1000
0010
1000
,
0100
1000
0001
0100
0001
0010
0001
1000
,
0100
1000
0010
1000
0001
0100
0001
0010
,
0001
1000
0100
0010
0001
1000
0100
1000
,
0010
1000
0001
0010
0001
0100
0001
1000
,
0100
0010
0001
1000
0010
1000
0100
1000
,
0001
0100
0001
0010
0001
1000
0100
0010
,
0001
1000
0010
0100
0001
0010
0100
1000
,
0001
0000
0000
0000
;
