#TITLE:Dreaming!;
#SUBTITLE:(DJ Sharpnel Hardrave Remix);
#ARTIST:民安★ROCK;
#TITLETRANSLIT:;
#SUBTITLETRANSLIT:;
#ARTISTTRANSLIT:People Depreciation ★ ROCK;
#CREDIT:owenviau1;
#BANNER:;
#BACKGROUND:;
#LYRICSPATH:;
#CDTITLE:;
#MUSIC:Dreaming! (DJ Sharpnel Hardrave Remix).mp3;
#OFFSET:-0.512;
#SAMPLESTART:73.699;
#SAMPLELENGTH:29.999;
#SELECTABLE:YES;
#BPMS:0.000=200.036;
#STOPS:;
#BGCHANGES:;
// cache tags:
#FIRSTBEAT:4.000;
#LASTBEAT:804.500;
#SONGFILENAME:Songs/owenviau1 (2016) (Pad & Index)/Dreaming! - [owenviau1] v1.0.0/Dreaming!.sm;
#HASMUSIC:1;
#HASBANNER:0;
#MUSICLENGTH:248.621;
// end cache tags

//---------------dance-single - 18.13 (18) (owenviau----------------
#NOTES:
     dance-single:
     18.13 (18) (owenviau:
     Challenge:
     18:
     1.000,1.000,0.004,0.330,1.000,2665.000,1.000,82.000,1.000,0.000:
0000
0000
0000
0000
,
200M
3010
0100
0002
1003
0100
2000
3010
,
0200
0301
1000
0200
0310
0002
0203
0320
,
2030
3001
0100
0002
1003
0100
0020
0031
,
0200
0310
1000
0002
0013
0002
2003
3100
,
2000
3010
0100
0002
1003
0100
0020
0031
,
0200
0301
1000
0020
0130
0020
2030
3002
,
0023
0000
0130
0000
1000
0000
0020
0000
0130
0001
1000
0100
0010
0001
1000
0010
,
1000
0001
0100
0010
0100
0001
0010
0100
1000
0010
0100
0001
1000
0100
0010
0001
,
1000
0010
0100
0001
0010
0100
1000
0010
0100
0010
1000
0001
0010
0001
0100
0010
,
1000
0001
0100
0001
1000
0100
0010
0001
0100
0010
1000
0001
0010
0001
0100
0010
,
1000
0001
0010
0100
1000
0010
0100
0001
0100
0010
1000
0001
1000
0100
0010
0001
,
0100
0010
1000
0001
0100
0001
0010
0100
1000
0010
1000
0001
0100
0010
0100
0001
,
1000
0010
0100
0001
1000
0100
0010
0001
0100
0010
0100
0001
1000
0010
0100
0001
,
1000
0100
1000
0001
0100
0010
0100
0001
1000
0010
0100
0010
1000
0001
0010
0001
,
0100
0010
1000
0001
0010
0100
1000
0010
0100
0001
1000
0100
1000
0001
0100
0010
,
0100
0001
0010
0100
1000
0100
0010
0001
0100
0010
0100
0001
1000
0100
0010
0001
,
1000
0010
0100
0001
0010
0100
1000
0010
0100
0010
1000
0001
0010
0001
0100
0010
,
1000
0001
0100
0001
1000
0100
0010
0001
0100
0010
1000
0001
0010
0001
0100
0010
,
1000
0001
0010
0100
1000
0010
0100
0001
0100
0010
1000
0001
1000
0100
0010
0001
,
0100
0010
1000
0001
0100
0001
0010
0100
1000
0010
1000
0001
0100
0010
0100
0001
,
1000
0010
0100
0001
1000
0100
0010
0001
0100
0010
0100
0001
1000
0010
0100
0001
,
1000
0100
1000
0001
0100
0010
0100
0001
1000
0010
0100
0010
1000
0001
0010
0001
,
0100
0010
1000
0001
0010
0100
1000
0010
0100
0001
1000
0100
0010
0001
0010
0100
,
1000
0010
0100
0001
0010
0100
1000
0010
1000
0001
0100
0010
1000
0100
0010
0001
,
1000
0010
0100
0001
0010
0100
1000
0010
0100
0010
1000
0001
0010
0001
0100
0010
,
1000
0001
0100
0001
1000
0100
0010
0001
0100
0010
1000
0001
0100
0010
0100
0001
,
1000
0010
1000
0100
0010
0001
0010
0100
1000
0010
1000
0100
0010
0001
0010
0100
,
1000
0010
1000
0100
0010
0001
0010
0100
1000
0010
1000
0100
0010
0001
1000
0001
,
0100
0010
0100
0001
1000
0100
0010
0001
0100
0010
0100
0001
1000
0100
0010
0001
,
0100
0010
0100
0001
1000
0100
0010
0001
0100
0010
0100
0001
1000
0100
0010
0001
,
0100
0010
0100
0001
1000
0100
0010
0001
1000
0010
1000
0100
0010
0001
0010
0100
,
1000
0010
1000
0100
0010
0001
0010
0100
1000
0010
1000
0100
0010
0001
0010
0100
,
1000
0010
0100
0001
1000
0100
1000
0010
0100
0001
0010
0100
1000
0001
0010
0001
,
1000
0100
0010
0001
0100
0010
1000
0001
0100
0001
1000
0010
0100
0010
1000
0001
,
0010
0001
0100
0010
1000
0001
0010
0001
1000
0100
0010
0001
1000
0010
1000
0100
,
0010
0001
0100
0010
1000
0010
0100
0001
0010
0001
0100
0010
1000
0100
0010
0001
,
1000
0100
1000
0010
0100
0001
0100
0010
1000
0100
1000
0010
0100
0001
0100
0010
,
1000
0100
1000
0010
0100
0001
0100
0010
1000
0100
1000
0010
0100
0001
1000
0001
,
0100
0010
0100
0001
1000
0100
0010
0001
0100
0010
0100
0001
1000
0100
0010
0001
,
0100
0010
0100
0001
1000
0100
0010
0001
0100
0010
1000
0001
0010
0001
0100
0010
,
1000
0010
0100
0001
0010
0100
1000
0010
0100
0010
1000
0001
0010
0001
0100
0010
,
1000
0001
0100
0001
1000
0100
0010
0001
0100
0010
1000
0001
0010
0001
0100
0010
,
1000
0001
0010
0100
1000
0010
0100
0001
0100
0010
1000
0001
1000
0100
0010
0001
,
0100
0010
1000
0001
0100
0001
0010
0100
1000
0010
1000
0001
0100
0010
0100
0001
,
1000
0010
0100
0001
1000
0100
0010
0001
0100
0010
0100
0001
1000
0010
0100
0001
,
1000
0100
1000
0001
0100
0010
0100
0001
1000
0010
0100
0010
1000
0001
0010
0001
,
0100
0010
1000
0001
0010
0100
1000
0010
0100
0001
1000
0100
1000
0001
0100
0010
,
0100
0001
0010
0100
1000
0100
0010
0001
0100
0010
0100
0001
1000
0100
0010
0001
,
1000
0010
0100
0001
0010
0100
1000
0010
0100
0010
1000
0001
0010
0001
0100
0010
,
1000
0001
0100
0001
1000
0100
0010
0001
0100
0010
1000
0001
0010
0001
0100
0010
,
1000
0001
0010
0100
1000
0010
0100
0001
0100
0010
1000
0001
1000
0100
0010
0001
,
0100
0010
1000
0001
0100
0001
0010
0100
1000
0010
1000
0001
0100
0010
0100
0001
,
1000
0010
0100
0001
1000
0100
0010
0001
0100
0010
0100
0001
1000
0010
0100
0001
,
1000
0100
1000
0001
0100
0010
0100
0001
1000
0010
0100
0010
1000
0001
0010
0001
,
0100
0010
1000
0001
0010
0100
1000
0010
0100
0001
1000
0100
0010
0001
0010
0100
,
1000
0010
0100
0001
0010
0100
1000
0010
1000
0001
0100
0010
1000
0100
0010
0001
,
2000
0000
0000
0010
0000
0010
0010
0000
,
0010
0000
0010
0010
0000
0010
0010
3000
,
0001
0010
0100
2000
0000
3010
0100
0001
,
1000
0100
1000
0010
0100
0001
1000
0100
,
0010
0001
0100
0010
1000
0001
1000
0010
0100
0010
1000
0001
0010
0001
0100
0010
,
1000
0001
0100
0001
1000
0100
0010
0001
0100
0010
1000
0001
0010
0001
0100
0010
,
1000
0001
0010
0100
1000
0010
0100
0001
0100
0010
1000
0001
1000
0100
0010
0001
,
0100
0010
1000
0001
0100
0001
0010
0100
1000
0010
1000
0001
0100
0010
0100
0001
,
1000
0010
0100
0001
1000
0100
0010
0001
0100
0010
0100
0001
1000
0010
0100
0001
,
1000
0100
1000
0001
0100
0010
0100
0001
1000
0010
0100
0010
1000
0001
0010
0001
,
0100
0010
1000
0001
0010
0100
1000
0010
0100
0001
1000
0100
1000
0001
0100
0010
,
0100
0001
0010
0100
1000
0100
0010
0001
0100
0010
0100
0001
1000
0100
0010
0001
,
1000
0010
0100
0001
0010
0100
1000
0010
0100
0010
1000
0001
0010
0001
0100
0010
,
1000
0001
0100
0001
1000
0100
0010
0001
0100
0010
1000
0001
0010
0001
0100
0010
,
1000
0001
0010
0100
1000
0010
0100
0001
0100
0010
1000
0001
1000
0100
0010
0001
,
0100
0010
1000
0001
0100
0001
0010
0100
1000
0010
1000
0001
0100
0010
0100
0001
,
1000
0010
0100
0001
1000
0100
0010
0001
0100
0010
0100
0001
1000
0010
0100
0001
,
1000
0100
1000
0001
0100
0010
0100
0001
1000
0010
0100
0010
1000
0001
0010
0001
,
0100
0010
1000
0001
0010
0100
1000
0010
0100
0001
1000
0100
0010
0001
0010
0100
,
1000
0010
0100
0001
0010
0100
1000
0010
1000
0001
0100
0010
1000
0100
0010
0001
,
1000
0010
0100
0001
0010
0100
1000
0010
0100
0010
1000
0001
0010
0001
0100
0010
,
1000
0001
0100
0001
1000
0100
0010
0001
0100
0010
1000
0001
0010
0001
0100
0010
,
1000
0001
0010
0100
1000
0010
0100
0001
0100
0010
1000
0001
1000
0100
0010
0001
,
0100
0010
1000
0001
0100
0001
0010
0100
1000
0010
1000
0001
0100
0010
0100
0001
,
1000
0010
0100
0001
1000
0100
0010
0001
0100
0010
0100
0001
1000
0010
0100
0001
,
1000
0100
1000
0001
0100
0010
0100
0001
1000
0010
0100
0010
1000
0001
0010
0001
,
0200
0000
0310
2000
0000
3000
0010
0200
,
0301
0000
0000
0000
1000
0100
0010
0001
0100
0010
1000
0001
0010
0000
0100
0000
,
1000
0001
0010
0100
1000
0001
1000
0010
0100
0010
1000
0001
0010
0001
0100
0010
,
1000
0001
0100
0001
1000
0100
0010
0001
0100
0010
1000
0001
0010
0001
0100
0010
,
1000
0001
0010
0100
1000
0010
0100
0001
0100
0010
1000
0001
1000
0100
0010
0001
,
0100
0010
1000
0001
0100
0001
0010
0100
1000
0010
1000
0001
0100
0010
0100
0001
,
1000
0010
0100
0001
1000
0100
0010
0001
0100
0010
0100
0001
1000
0010
0100
0001
,
1000
0100
1000
0001
0100
0010
0100
0001
1000
0010
0100
0010
1000
0001
0010
0001
,
0100
0010
1000
0001
0010
0100
1000
0010
0100
0001
1000
0100
1000
0001
0100
0010
,
0100
0001
0010
0100
1000
0100
0010
0001
0100
0010
0100
0001
1000
0100
0010
0001
,
1000
0010
0100
0001
0010
0100
1000
0010
0100
0010
1000
0001
0010
0001
0100
0010
,
1000
0001
0100
0001
1000
0100
0010
0001
0100
0010
1000
0001
0010
0001
0100
0010
,
1000
0001
0010
0100
1000
0010
0100
0001
0100
0010
1000
0001
1000
0100
0010
0001
,
0100
0010
1000
0001
0100
0001
0010
0100
1000
0010
1000
0001
0100
0010
0100
0001
,
1000
0010
0100
0001
1000
0100
0010
0001
0100
0010
0100
0001
1000
0010
0100
0001
,
1000
0100
1000
0001
0100
0010
0100
0001
1000
0010
0100
0010
1000
0001
0010
0001
,
0100
0010
1000
0001
0010
0100
1000
0010
0100
0001
1000
0100
0010
0001
0010
0100
,
1000
0010
0100
0001
0010
0100
1000
0010
1000
0001
0100
0010
1000
0100
0010
0001
,
1000
0010
0100
0001
0010
0100
1000
0010
0100
0010
1000
0001
0010
0001
0100
0010
,
1000
0001
0100
0001
1000
0100
0010
0001
0100
0010
1000
0001
0010
0001
0100
0010
,
1000
0001
0010
0100
1000
0010
0100
0001
0100
0010
1000
0001
1000
0100
0010
0001
,
0100
0010
1000
0001
0100
0001
0010
0100
1000
0010
1000
0001
0100
0010
0100
0001
,
1000
0010
0100
0001
1000
0100
0010
0001
0100
0010
0100
0001
1000
0010
0100
0001
,
1000
0100
1000
0001
0100
0010
0100
0001
1000
0010
0100
0010
1000
0001
0100
0010
,
1000
0001
1000
0010
0100
0010
1000
0001
0010
0001
0100
0010
1000
0001
0100
0001
,
1000
0000
0010
0000
0100
0000
0001
0000
1000
0010
0100
0010
1000
0001
0010
0100
,
1000
0010
0100
0001
0100
0010
1000
0001
1000
0100
0010
0001
0100
0010
1000
0001
,
0100
0001
0010
0100
1000
0010
1000
0001
0100
0010
0100
0001
1000
0010
0100
0001
,
1000
0100
0010
0001
0100
0010
0100
0001
1000
0010
0100
0001
1000
0100
1000
0001
,
0100
0010
0100
0001
1000
0010
0100
0010
1000
0001
0010
0001
0100
0010
1000
0001
,
0010
0100
1000
0010
0100
0001
1000
0100
1000
0001
0100
0010
0100
0001
0010
0100
,
1000
0100
0010
0001
0100
0010
0100
0001
1000
0100
0010
0001
1000
0010
0100
0001
,
0010
0100
1000
0010
0100
0010
1000
0001
0010
0001
0100
0010
1000
0001
0100
0001
,
1000
0100
0010
0001
0100
0010
1000
0001
0010
0001
0100
0010
1000
0001
0010
0100
,
1000
0010
0100
0001
0010
0100
1000
0001
,
0010
0001
0100
0010
1000
0001
0100
0001
,
1000
0100
1000
0010
0100
0001
1000
0100
,
0010
0001
0100
0010
1000
0001
0010
0001
,
0100
0010
1000
0001
0100
0001
1000
0100
,
1000
0010
0100
0001
1000
0100
0010
0001
,
0100
0010
1000
0001
0010
0001
1000
0100
,
1000
0010
0100
0010
1000
0001
0100
0001
,
1000
0100
0010
0001
0100
0010
1000
0001
,
0010
0100
1000
0010
0100
0001
1000
0100
,
1000
0001
0010
0001
1000
0100
1000
0010
,
0100
0001
1000
0100
0010
0001
0100
0010
,
1000
0001
0010
0001
0100
0010
1000
0001
,
0010
0100
1000
0010
0100
0001
1000
0100
,
0010
0000
0001
0000
1000
0000
0010
0000
1000
0000
0001
0000
0100
0010
1000
0001
,
0010
0001
0100
0010
1000
0100
0010
0001
0100
0010
1000
0001
0100
0001
0010
0100
,
1000
0001
0100
0010
1000
0001
1000
0010
0100
0010
1000
0001
0010
0001
0100
0010
,
1000
0001
0100
0001
1000
0100
0010
0001
0100
0010
1000
0001
0010
0001
0100
0010
,
1000
0001
0010
0100
1000
0010
0100
0001
0100
0010
1000
0001
1000
0100
0010
0001
,
0100
0010
1000
0001
0100
0001
0010
0100
1000
0010
1000
0001
0100
0010
0100
0001
,
1000
0010
0100
0001
1000
0100
0010
0001
0100
0010
0100
0001
1000
0010
0100
0001
,
1000
0100
1000
0001
0100
0010
0100
0001
1000
0010
0100
0010
1000
0001
0010
0001
,
0100
0010
1000
0001
0010
0100
1000
0010
0100
0001
1000
0100
1000
0001
0100
0010
,
0100
0001
0010
0100
1000
0100
0010
0001
0100
0010
0100
0001
1000
0100
0010
0001
,
1000
0010
0100
0001
0010
0100
1000
0010
0100
0010
1000
0001
0010
0001
0100
0010
,
1000
0001
0100
0001
1000
0100
0010
0001
0100
0010
1000
0001
0010
0001
0100
0010
,
1000
0001
0010
0100
1000
0010
0100
0001
0100
0010
1000
0001
1000
0100
0010
0001
,
0100
0010
1000
0001
0100
0001
0010
0100
1000
0010
1000
0001
0100
0010
0100
0001
,
1000
0010
0100
0001
1000
0100
0010
0001
0100
0010
0100
0001
1000
0010
0100
0001
,
1000
0100
1000
0001
0100
0010
0100
0001
1000
0010
0100
0010
1000
0001
0010
0001
,
0100
0010
1000
0001
0010
0100
1000
0010
0100
0001
1000
0100
0010
0001
0010
0100
,
1000
0010
0100
0001
0010
0100
1000
0010
1000
0001
0100
0010
1000
0100
0010
0001
,
2000
0000
0000
0001
0000
0000
0001
0000
,
0001
0000
0001
0001
0000
0000
0001
3000
,
0001
0010
0100
2000
0000
3010
0100
0001
,
1000
0100
1000
0010
0100
0001
1000
0100
,
0020
0000
0000
0000
0032
0000
0000
0000
0203
0000
0000
0300
0010
0000
2000
0000
,
0000
3000
0000
0000
0001
0000
0100
0000
0020
0000
0000
0030
2000
0000
0000
3000
,
0002
0000
0000
0000
0023
0000
0000
0030
0200
0000
0000
0300
1000
0000
0020
0000
,
0000
0030
0200
0000
0000
0300
0001
0000
2000
0000
0000
3000
0200
0000
0000
0300
,
0020
0000
0000
0000
0000
0030
0000
0000
0000
0000
0000
0000
0002
0000
0000
0000
,
0203
0000
0000
0000
0000
0300
0000
0000
0000
0000
0000
0000
0020
0000
0000
0030
,
2000
0000
0000
0000
3200
0000
0000
0300
0020
0000
0000
0030
0001
0000
0200
0000
,
0000
0300
0010
0000
1000
0000
0001
0000
0200
0000
0000
0000
0300
0000
0000
0000
,
0020
0000
0000
0000
0032
0000
0000
0000
0203
0000
0000
0300
0010
0000
2000
0000
,
0000
3000
0100
0000
0020
0000
0000
0030
0002
0000
0000
0000
2003
0000
0000
3000
,
0002
0000
0000
0000
0023
0000
0000
0030
0200
0000
0000
0300
1000
0000
0020
0000
,
0000
0030
0100
0000
0001
0000
0010
0000
0200
0000
0000
0300
2000
0000
0000
3000
,
0020
0000
0000
0000
0000
0030
0000
0000
0000
0000
0000
0000
0200
0000
0000
0000
,
0302
0000
0000
0000
0003
0000
0000
0000
0000
0000
0000
0000
2000
0000
0000
3000
,
0020
0000
0000
0000
0230
0000
0000
0300
0002
0000
0000
0003
1000
0000
0200
0000
,
0000
0300
0010
0000
0001
0000
0100
0000
0020
0000
0000
0030
2000
0000
0000
3000
,
0001
0010
0100
1000
0010
0100
0001
1000
,
0100
1000
0010
0100
0001
1000
0100
0010
,
0001
1000
0010
1000
0001
0100
0010
0100
,
0001
1000
0100
1000
0001
0010
0100
1000
,
0010
0100
0001
1000
0100
0010
0001
1000
,
0010
0000
1000
0000
0001
0000
0100
0000
0010
1000
0100
0010
0001
1000
0010
1000
,
0001
0100
0010
0100
0001
1000
0100
1000
0010
0100
0001
1000
0100
0010
0001
0100
,
0020
0000
0000
0000
0000
0000
0000
0000
4030
0000
0000
0000
0000
0000
3000
0000
4000
0000
0000
3000
4000
0000
0000
0000
3020
0000
0000
0000
0000
0000
0000
0000
,
0130
0000
0000
0001
0000
0000
1000
0000
0000
0100
0010
0001
1000
0000
0000
0001
0010
0100
1000
0000
0000
0010
0100
0001
,
1000
0010
0100
0001
0100
0010
1000
0001
0010
0100
1000
0001
0010
0001
0100
0010
,
1000
0001
0100
0001
1000
0100
0010
0001
0100
0010
1000
0001
0010
0001
0100
0010
,
1000
0001
0010
0100
1000
0010
0100
0001
0100
0010
1000
0001
1000
0100
0010
0001
,
0100
0010
1000
0001
0100
0001
0010
0100
1000
0010
1000
0001
0100
0010
0100
0001
,
1000
0010
0100
0001
1000
0100
0010
0001
0100
0010
0100
0001
1000
0010
0100
0001
,
1000
0100
1000
0001
0100
0010
0100
0001
1000
0010
0100
0010
1000
0001
0010
0001
,
0100
0010
1000
0001
0010
0100
1000
0010
0100
0001
1000
0100
1000
0001
0100
0010
,
0100
0001
0010
0100
1000
0100
0010
0001
0100
0010
0100
0001
1000
0100
0010
0001
,
1000
0010
0100
0001
0010
0100
1000
0010
0100
0010
1000
0001
0010
0001
0100
0010
,
1000
0001
0100
0001
1000
0100
0010
0001
0100
0010
1000
0001
0010
0001
0100
0010
,
1000
0001
0010
0100
1000
0010
0100
0001
0100
0010
1000
0001
1000
0100
0010
0001
,
0100
0010
1000
0001
0100
0001
0010
0100
1000
0010
1000
0001
0100
0010
0100
0001
,
1000
0010
0100
0001
1000
0100
0010
0001
0100
0010
0100
0001
1000
0010
0100
0001
,
1000
0100
1000
0001
0100
0010
0100
0001
1000
0010
0100
0010
1000
0001
0010
0001
,
0100
0010
1000
0001
0010
0100
1000
0010
0100
0001
1000
0100
0010
0001
0010
0100
,
1000
0010
0100
0001
0010
0100
1000
0010
1000
0001
0100
0010
1000
0100
0010
0001
,
1000
0010
0100
0001
0010
0100
1000
0010
0100
0010
1000
0001
0010
0001
0100
0010
,
1000
0001
0100
0001
1000
0100
0010
0001
0100
0010
1000
0001
0010
0001
0100
0010
,
1000
0001
0010
0100
1000
0010
0100
0001
0100
0010
1000
0001
1000
0100
0010
0001
,
0100
0010
1000
0001
0100
0001
0010
0100
1000
0010
1000
0001
0100
0010
0100
0001
,
1000
0010
0100
0001
1000
0100
0010
0001
0100
0010
0100
0001
1000
0010
0100
0001
,
1000
0100
1000
0001
0100
0010
0100
0001
1000
0010
0100
0010
1000
0001
0010
0001
,
0200
0000
0310
2000
0000
3000
0010
0200
,
0000
0300
0000
0000
0000
0000
0000
0000
,
0000
0000
0000
0000
,
0000
0000
0000
0000
,
0000
0000
0000
0000
,
0000
0000
0000
0000
,
0000
0000
0000
0000
;
