#TITLE:Shinsekai;
#SUBTITLE:;
#ARTIST:Shiraishi;
#TITLETRANSLIT:;
#SUBTITLETRANSLIT:;
#ARTISTTRANSLIT:;
#CREDIT:Bobbykaze;
#BANNER:../Banner.png;
#BACKGROUND:../BG.PNG;
#LYRICSPATH:;
#CDTITLE:../CDTitleBobby.png;
#MUSIC:shinsekai.ogg;
#OFFSET:-0.025;
#SAMPLESTART:31.113;
#SAMPLELENGTH:25.000;
#SELECTABLE:YES;
#BPMS:0.000=193.001;
#STOPS:;
#BGCHANGES:;
// cache tags:
#FIRSTBEAT:4.000;
#LASTBEAT:300.000;
#SONGFILENAME:Songs/Index Fusion/Shinsekai - [Bobbykaze]/shinsekai.sm;
#HASMUSIC:1;
#HASBANNER:1;
#MUSICLENGTH:95.033;
// end cache tags

//---------------dance-single - Bobbykaze----------------
#NOTES:
     dance-single:
     Bobbykaze:
     Challenge:
     16:
     1.000,1.000,0.000,0.105,1.000,1013.000,0.000,10.000,0.000,0.000:

0000
0000
0000
0000
,
1000
0100
0010
0001
0000
0000
0001
0000
,
0010
0000
0000
1000
0000
0000
0000
0000
,
0100
0000
0000
0000
0001
0010
0100
1000
,
0010
0000
0000
0100
0000
0000
1000
0000
,
0002
0000
0000
0000
0000
0013
1000
0001
,
0200
0000
0000
0000
,
0300
0000
2000
0000
0000
3002
0000
0000
,
1003
0100
0010
0001
0010
0100
1000
0010
1000
0001
0100
0001
1000
0100
0010
0001
,
0100
0001
1000
0010
1000
0001
0010
0001
1000
0010
0100
0001
1000
0100
0010
0001
,
0100
0010
1000
0001
0100
0001
1000
0010
0100
0001
1000
0001
1000
0100
0010
0001
,
0100
0010
1000
0001
0100
0010
1000
0010
0100
0001
1000
0001
1000
0100
0010
0001
,
0100
0001
1000
0010
0100
0001
1000
0010
1000
0001
0010
0100
1000
0010
0100
0001
,
1000
0001
0100
0010
1000
0001
0100
0001
1000
0010
1000
0100
0010
0001
0010
0100
,
1000
0010
0100
0001
1000
0010
1000
0001
0100
0010
1000
0001
0100
0001
1000
0100
,
1000
0010
0100
0001
1000
0100
0010
0001
0100
0010
1000
0001
1000
0010
0100
0001
,
1000
0100
0010
0001
0010
0100
1000
0010
0100
0001
1000
0100
0010
0100
1000
0001
,
0100
0010
1000
0001
0100
0001
1000
0010
0100
0001
1000
0001
0100
0010
1000
0001
,
1000
0100
0010
0001
0100
0010
1000
0001
0100
0001
1000
0010
1000
0001
0100
0001
,
1000
0010
0100
0001
0100
0010
1000
0001
0100
0010
1000
0001
0100
0001
1000
0010
,
1000
0100
0010
0001
0100
0010
1000
0001
0100
0001
0010
0100
1000
0010
0100
0001
,
1000
0100
0010
0001
0100
0010
1000
0100
0010
0001
0010
0100
1000
0010
0100
0001
,
1000
0010
0100
0001
0010
0100
1000
0010
1000
0001
0100
0001
1000
0100
0010
0001
,
0100
0001
1000
0010
0100
0001
1000
0010
1000
0100
0010
0001
0100
0001
1000
0010
,
0200
0000
0300
0001
0010
0100
1000
0010
0100
0001
1000
0100
0010
0001
0100
0001
,
2000
0000
3000
0100
0010
0001
0010
0100
1000
0010
1000
0001
0100
0001
1000
0010
,
0200
0000
0300
0010
1000
0001
0010
0100
1000
0010
0100
0001
1000
0010
0100
0001
,
1000
0010
1000
0001
0100
0010
1000
0001
0100
0001
1000
0010
1000
0001
0100
0010
,
2000
0000
3000
0100
0010
0001
0100
0010
1000
0100
0010
0001
0010
0100
1000
0010
,
0100
0001
1000
0001
0100
0010
1000
0001
0100
0001
1000
0100
0010
0001
0010
0100
,
2000
0000
3000
0100
0010
0001
1000
0001
0100
0001
1000
0010
0100
0001
1000
0001
,
0100
0010
1000
0001
1000
0010
0100
0001
1000
0100
0010
0001
0010
0100
1000
0001
,
0100
0010
1000
0001
0100
0001
1000
0100
0010
0001
0100
0001
1000
0001
0010
0100
,
1000
0010
0100
0001
1000
0100
0010
0001
0010
0100
1000
0001
0100
0010
1000
0001
,
0100
0000
0000
0001
0010
0100
1000
0001
0100
0000
0000
0010
0100
0001
1000
0010
,
0100
0000
0000
0001
0010
0100
1000
0001
0100
0000
0000
0001
1000
0010
1000
0001
,
0100
0000
0000
0100
0010
0000
0000
0100
1000
0000
0000
0010
0100
0000
0000
0001
,
0010
0100
0001
1000
0010
1000
0001
0100
,
0010
1000
0001
0100
0010
1000
0001
0100
0001
1000
0010
0100
0001
1000
0010
1000
,
0001
0010
0100
1000
0010
1000
0001
0100
0010
1000
0001
0010
0100
1000
0100
0010
,
0001
0100
0001
1000
0010
0100
0001
1000
0010
1000
0001
0010
0100
1000
0010
0100
,
0001
0010
0100
1000
0010
1000
0001
0100
0010
1000
0001
0100
0001
1000
0100
0010
,
0001
0100
0010
1000
0001
0100
0001
1000
0010
0100
0001
1000
0100
0010
0001
0100
,
0010
1000
0010
0100
0001
0100
0010
1000
0001
0100
0001
0010
0100
1000
0100
0010
,
0001
1000
0010
1000
0001
0100
0010
1000
0010
0100
0001
1000
0001
0010
0100
1000
,
0010
0100
0001
1000
0001
0100
0010
1000
0001
1000
0010
0100
0001
0010
0100
1000
,
0100
0010
0001
0100
0001
1000
0100
1000
0010
0100
0001
1000
0010
1000
0001
0100
,
0010
1000
0001
0010
0100
1000
0100
0010
0001
0100
0010
1000
0010
0100
0001
0010
,
0100
1000
0001
0100
0001
1000
0010
1000
0001
0100
0010
1000
0001
0010
0001
1000
,
0010
0100
0001
1000
0100
0010
0001
0100
0010
1000
0001
0010
0100
1000
0001
0100
,
0001
0010
0100
0010
0100
1000
0100
0010
0001
0100
0010
1000
0100
0010
0001
0100
,
0010
1000
0001
0100
0001
1000
0010
0100
0001
0100
0010
1000
0100
0010
0001
1000
,
0010
0100
0001
1000
0010
1000
0001
0010
0100
1000
0010
0100
0001
1000
0100
1000
,
0001
0100
0010
1000
0001
0100
0001
1000
0010
0100
0001
0010
0100
1000
0100
0010
,
0001
0100
0001
1000
0001
0010
0100
1000
0010
1000
0001
1000
0010
0100
0001
1000
,
0010
1000
0001
1000
0010
0100
0001
1000
0001
0010
0100
1000
0100
0010
0001
1000
,
0010
0100
0001
1000
0001
0100
0001
1000
0100
0010
0001
1000
0001
0100
0001
1000
,
0010
0100
0001
1000
0010
1000
0001
0100
0001
0010
0100
1000
0010
0100
0001
1000
,
0100
0010
0001
0100
0010
1000
0100
0010
0001
0010
0100
1000
0010
0100
0001
1000
,
0001
0010
0100
1000
0001
1000
0010
0100
0001
1000
0100
0010
0001
0100
0001
1000
,
0001
0010
0100
1000
0001
0010
0100
1000
0001
0010
0100
1000
0001
0010
0100
1000
,
0001
0100
0010
1000
0001
1000
0010
0100
0001
0010
0100
1000
0100
0010
0001
0100
,
0010
1000
0001
1000
0010
0100
0001
1000
0010
1000
0001
0100
0001
1000
0100
1000
,
0001
0100
0010
1000
0100
0010
0001
0100
0001
1000
0100
1000
0001
0100
0010
1000
,
0001
0010
0100
1000
0100
0010
0001
0100
0001
1000
0010
1000
0001
0010
0100
1000
,
0010
1000
0001
0100
0001
1000
0100
1000
0001
0100
0010
1000
0001
0010
0100
1000
,
0010
0100
0001
1000
0010
1000
0001
0100
0010
1000
0001
1000
0001
0010
0100
1000
,
0010
0100
0001
1000
0010
0100
0001
0100
0010
1000
0001
1000
0001
0010
0100
1000
,
0010
1000
0001
0100
0010
1000
0001
0100
0001
1000
0100
0010
0001
0100
0010
1000
,
0001
1000
0010
0100
0001
1000
0010
1000
0001
0100
0001
0010
0100
1000
0100
0010
,
0001
0100
0010
1000
0001
0100
0001
1000
0010
0100
0001
1000
0010
1000
0001
0010
,
0001
0100
0010
1000
0001
0010
0100
1000
0010
0100
0001
1000
0001
0100
0010
1000
,
0002
0000
0000
0000
,
0000
0000
0000
0000
,
0000
0000
0000
0000
,
0003
0000
0000
0000
;
