#TITLE:Dangerous Slot;
#SUBTITLE:The BOSS Song Of owenviau1;
#ARTIST:Laur;
#TITLETRANSLIT:;
#SUBTITLETRANSLIT:;
#ARTISTTRANSLIT:;
#CREDIT:owenviau1;
#BANNER:../Banner.png;
#BACKGROUND:../BG.PNG;
#LYRICSPATH:;
#CDTITLE:../CdTitleOV1.PNG;
#MUSIC:Laur - Dangerous Slot.ogg;
#OFFSET:-0.144;
#SAMPLESTART:34.089;
#SAMPLELENGTH:29.999;
#SELECTABLE:YES;
#DISPLAYBPM:194.250;
#BPMS:0.000=194.250,489.000=259.000,490.000=282.572,491.000=308.248,492.000=336.256,493.000=366.838,494.000=400.181,495.000=349.261,496.000=487.293,497.000=531.646,498.000=463.966,499.000=517.910,500.000=481.792,501.000=550.562,502.000=629.251,503.000=616.352,504.000=841.871,505.000=721.571,506.000=866.121,507.000=1039.280,508.000=1246.940,509.000=1496.610,510.000=1795.120,511.000=2154.720,512.000=2586.510,513.000=3101.990,514.000=3721.520,515.000=4469.590,516.000=5367.140,517.000=6437.960,518.000=7714.290,519.000=9251.750,520.000=11117.600,521.000=13363.600,522.000=16036.400,523.000=19173.900,524.000=23008.699,525.000=27562.500,526.000=16537.500,527.000=24962.301,528.000=37267.602,529.000=56297.898,530.000=55125.000,531.000=0.001;
#STOPS:;
#BGCHANGES:;
// cache tags:
#FIRSTBEAT:0.000;
#LASTBEAT:531.000;
#SONGFILENAME:Songs/Index Fusion/Dangerous Slot - [owenviau1]/Dangerous Slot.sm;
#HASMUSIC:1;
#HASBANNER:1;
#MUSICLENGTH:155.872;
// end cache tags

//---------------dance-single - owenviau1----------------
#NOTES:
     dance-single:
     owenviau1:
     Challenge:
     28:
     1.000,1.000,0.038,0.565,1.000,1600.000,6.000,88.000,55.000,0.000:

1000
0100
0010
0001
1000
0001
0100
0010
1000
0100
1000
0001
0010
0100
1000
0001
,
1000
0000
0020
0000
0000
0130
0001
0000
1000
0200
0000
0000
,
0320
0000
0000
0000
0030
0002
0000
0000
0000
0003
0000
0000
,
2000
0000
3010
0200
0000
0000
0302
0000
0000
2003
0000
0000
,
3010
0000
2000
0000
3000
0002
0000
0000
0000
0000
0003
0100
,
0020
0000
0000
2030
0000
0000
3001
0010
0001
0100
0000
0010
,
0000
0000
1000
0001
0000
0000
0200
0300
0200
0300
0000
0010
,
2000
3002
0023
0230
,
2300
0000
0000
3002
0000
0000
0203
0000
0000
0320
0000
2030
,
0000
0000
0000
3040
,
M132
0000
0000
0000
0000
0000
0000
0000
0000
0000
0000
0000
0000
0000
0000
0000
1003
0010
0100
0001
1000
0000
0010
0000
0400
0000
0000
0000
0000
0000
0000
0000
,
0302
0000
0000
0000
0000
0000
0000
0000
0000
0000
0000
0000
0003
0000
0000
0000
0000
0000
000M
0000
0000
000M
0000
0000
000M
0000
0000
000M
0000
0000
000M
0000
0000
000M
0000
0000
000M
0000
0000
000M
0000
0000
000M
0M00
0M00
0M0M
0M00
0000
,
000M
000M
000M
000M
000M
0000
M000
0000
0000
0000
00M0
0000
0M00
0000
0000
0000
,
0000
0000
000M
000M
000M
000M
0000
0000
2000
0000
0000
0000
0000
0000
0000
0000
,
3001
0100
0001
0000
0010
0000
0100
0000
1000
0000
0001
0000
1000
0000
0010
0000
0100
0001
0100
0000
0010
0000
1000
0000
0001
0100
0001
0000
1000
0010
1000
0000
,
0001
0100
0001
0000
1000
0000
0010
0000
0100
0000
0010
0000
1000
0000
0001
0000
0100
0010
0100
0000
0001
1000
0001
0000
0200
0000
0000
0000
0320
0000
0000
0000
,
1030
0100
1000
0000
0001
0000
0100
0000
0010
0000
0100
0000
0001
0000
1000
0000
0100
0010
0100
0000
1000
0000
0010
0000
0100
0001
0100
0000
0010
1000
0010
0000
,
1000
0001
1000
0000
0100
0000
0010
0000
0001
0000
1000
0000
0010
0000
0100
0000
0001
1000
0001
0000
0100
0010
0100
0000
0002
0000
0000
0000
2003
0000
0000
0000
,
3010
0100
0010
0000
1000
0000
0001
0000
0010
0000
0100
0000
1000
0000
0010
0000
0100
0001
0100
0000
0010
0000
1000
0000
0001
0010
0001
0000
0100
0010
0100
0000
,
0001
1000
0001
0000
0100
0000
0010
0000
0100
0000
0001
0000
1000
0000
0010
0000
0100
0001
0100
0000
0010
1000
0010
0000
0200
0000
0000
0000
0000
0000
0000
0000
,
0301
0000
0000
0000
0000
0000
0000
0000
0000
0000
0000
0000
1000
0000
0000
0000
0000
0000
0000
0000
0000
0000
0000
0000
0010
0000
0000
0000
0000
0000
0000
0000
0000
0000
0000
0000
0100
0000
0000
0000
0000
0000
0000
0000
0000
0000
0000
0000
0010
0000
0000
0000
0000
0000
0000
0000
0000
0000
0000
0000
1000
0000
0000
0000
0000
0000
0000
0000
0000
0000
0000
0000
0001
0000
0000
0000
0000
0000
0000
0000
0000
0000
0000
0000
0010
0000
0000
0000
0000
0000
0000
0000
0000
0000
0000
0000
0100
0000
0000
0000
0000
0000
1000
0000
0000
0000
0000
0000
0100
0000
0000
0000
0000
0000
0000
0000
0000
0000
0000
0000
0010
0000
0000
0000
0000
0000
0000
0000
0000
0000
0000
0000
0001
0000
0000
0000
0000
0000
0000
0000
0000
0000
0000
0000
1000
0000
0000
0000
0010
0000
0000
0000
0100
0000
0000
0000
0001
0000
0000
0000
1000
0000
0000
0000
0010
0000
0000
0000
0100
0000
0000
0000
0001
0000
0000
0000
1000
0000
0000
0000
0010
0000
0000
0000
0100
0000
0000
0000
0001
0000
0000
0000
,
2000
0000
0000
0000
3000
0000
0000
0001
0000
0000
0100
0040
0000
0000
0000
0000
,
1030
0001
1000
0000
0100
0000
0010
0000
0001
0000
1000
0000
0010
0000
0100
0000
0010
1000
0010
0000
0100
0000
0001
0000
1000
0100
1000
0000
0010
0100
0010
0000
,
1000
0001
1000
0000
0100
0000
0010
0000
0001
0000
0100
0000
0010
0000
1000
0000
0001
0100
0001
0000
1000
0010
1000
0000
0002
0000
0000
0000
0203
0000
0000
0000
,
0310
1000
0010
0000
0100
0000
0001
0000
1000
0000
0001
0000
0010
0000
0100
0000
1000
0010
1000
0000
0001
0000
0100
0000
0010
1000
0010
0000
0100
0001
0100
0000
,
0001
0000
1000
0000
0001
0000
0000
0000
0010
0000
0000
0000
0100
0000
0000
0000
1000
0000
0000
0000
0001
0000
0000
0000
0010
0000
0000
0000
0001
0000
0000
0000
1000
0100
0010
0001
1000
0000
0000
0000
0100
0010
0001
1000
0100
0000
0000
0000
0020
0000
0000
0000
0000
0000
0000
0000
0000
0000
0000
0000
0000
0000
0000
0000
,
0032
2003
0000
0000
,
0000
0000
0000
0000
0000
0000
0000
0000
30M2
0000
0000
0000
0000
0000
0000
0000
0103
0010
0100
0000
0001
0000
1000
0000
0010
0000
0100
0000
0001
0000
0100
0000
,
0010
1000
0010
0000
0100
0000
0001
0000
1000
0100
1000
0000
0001
0100
0001
0000
1000
0010
1000
0000
0001
0000
0100
0000
0010
0000
1000
0000
0010
0000
0100
0000
,
0001
1000
0001
0000
0010
0100
0010
0000
2000
0000
0000
0000
3002
0000
0000
0000
0013
0000
0100
0000
1000
0000
0001
0000
0100
0000
0010
0000
1000
0000
0001
0000
,
0100
0000
0000
0000
0000
0000
0010
0000
0000
0000
0000
0000
0100
0000
0000
0000
0000
0000
0000
0000
0000
0000
0000
0000
0001
0000
0000
0000
0000
0000
0000
0000
0000
0000
0000
0000
0100
0000
0000
0000
0000
0000
0000
0000
0000
0000
0000
0000
0010
0000
0000
0000
1000
0000
0000
0000
0001
0000
0000
0000
0100
0000
0000
0000
0010
0000
0000
0000
1000
0000
0000
0000
0001
0000
0000
0000
0100
0000
0000
0000
0010
0000
0000
0000
1000
0000
0000
0000
0001
0000
0000
0000
0100
0000
0000
0000
0010
0000
0000
0000
0000
0000
0000
0000
0000
0000
0000
0000
0000
0000
0000
0000
0000
0000
0000
0000
0000
0000
0000
0000
0000
0000
0000
0000
0000
0000
0000
0000
0000
0000
0000
0000
0000
0000
0000
0000
0000
0000
0000
0000
0000
0000
0000
0000
000M
0000
0000
0000
0000
0000
0000
0000
0000
0000
0000
0000
0000
0000
0000
0000
0000
0000
0000
0000
0000
0000
0000
0000
0000
0000
0000
0000
0000
0000
0000
0000
0000
0000
0000
0000
0000
0000
0000
0000
0000
0000
0000
0000
0000
0000
0000
0000
,
00M0
0000
0000
0000
2000
0000
0000
0000
3100
0000
0010
0000
0001
0000
1000
0010
,
0000
0000
0100
0000
0000
0000
0001
0000
1000
0000
0000
0000
0100
0000
0000
0000
0010
0000
0000
0000
0001
0000
0000
0000
1000
0000
0000
0000
0010
0100
0010
0000
,
0000
0000
1000
0000
0000
0000
0001
0000
0010
0000
0000
0000
0001
0000
1000
0010
1000
0000
0000
0000
0100
0000
0000
0000
0010
0000
0000
0000
0001
0000
1000
0000
,
0000
0000
0010
0000
0000
0000
0100
0000
0001
0000
0000
0000
1000
0000
0000
0000
0010
0000
0000
0000
1000
0000
0000
0000
0001
0000
0000
0000
0100
0010
0100
0000
,
0000
0000
0001
0000
0000
0000
1000
0000
0100
0000
0000
0000
0010
0000
0001
1000
0001
0000
0100
0010
0100
0000
0001
0000
1000
0010
1000
0000
0001
0000
0100
0010
,
0100
0000
0001
0000
1000
0010
1000
0000
0100
0000
0000
0000
0010
0000
0001
0100
0001
0000
1000
0010
1000
0000
0001
0000
0100
0010
0100
0000
0001
0000
1000
0100
,
1000
0000
0000
0000
0000
0000
0000
0000
0000
0000
0000
0000
0001
0000
0000
0000
0000
0000
0000
0000
0000
0000
0000
0000
1000
0000
0000
0000
0000
0000
0010
0000
0000
0000
0000
0000
1000
0000
0000
0000
0000
0000
0000
0000
0000
0000
0000
0000
0001
0000
0000
0000
0100
0000
0000
0000
0010
0000
0000
0000
1000
0000
0000
0000
0001
0000
0000
0000
0100
0000
0000
0000
0010
0000
0000
0000
0000
0000
0000
0000
0000
0000
0000
0000
1000
0000
0000
0000
0000
0000
0000
0000
0000
0000
0000
0000
0010
0000
0000
0000
0000
0000
0000
0000
0000
0000
0000
0000
1000
0000
0000
0000
0000
0000
0001
0000
0000
0000
0000
0000
1000
0000
0000
0000
0000
0000
0000
0000
0000
0000
0000
0000
0100
0000
0000
0000
0000
0000
0000
0000
0000
0000
0000
0000
0010
0000
0000
0000
0000
0000
0001
0000
0000
0000
0000
0000
0010
0000
0000
0000
0000
0000
0000
0000
0000
0000
0000
0000
0100
0000
0000
0000
0000
0000
0000
0000
0000
0000
0000
0000
1000
0000
0000
0000
0000
0000
0010
0000
0000
0000
0000
0000
,
1000
0000
0001
0000
0100
0010
0100
0000
0001
0000
0000
0000
1000
0000
0010
0100
0010
0000
1000
0010
1000
0000
0001
0000
0100
0010
0100
0000
0001
0000
1000
0001
,
1000
0000
0100
0000
0010
0001
0010
0000
0200
0000
0000
0000
0000
0000
0000
0000
1300
0000
0010
0000
1000
0000
0001
0000
0100
0000
0010
0000
0100
0000
0001
0000
,
1000
0100
1000
0001
0010
0100
1000
0100
0010
0001
1000
0010
0100
0010
1000
0001
,
1000
0010
1000
0000
0001
0000
0100
0000
0020
0000
0000
0000
2030
0000
0000
0000
3100
0000
0010
0000
0001
0000
1000
0000
0100
0000
1000
0000
0001
0000
0100
0000
,
0010
0100
0001
1000
0010
1000
0001
0010
0100
1000
0001
0010
0001
0100
0010
1000
,
0001
0100
0001
0000
1000
0010
1000
0000
0002
0000
0000
0000
0023
0000
0000
0000
0130
0000
1000
0000
0001
0000
1000
0000
0010
0000
0100
0000
0001
0000
0100
0000
,
0010
1000
0001
1000
0100
0010
0001
1000
0100
1000
0001
0100
0010
0100
0001
1000
,
0010
0100
0010
0000
1000
0000
0001
0000
0200
0000
0000
0000
0000
0000
0000
0000
0310
0000
1000
0000
0001
0000
0010
0000
0001
0000
0100
0000
0010
0000
1000
0000
,
0001
0000
0000
0000
0000
0000
0010
0000
0000
0000
0000
0000
0001
0000
0000
0000
0000
0000
0000
0000
0000
0000
0000
0000
0100
0000
0000
0000
0000
0000
0000
0000
0000
0000
0000
0000
0010
0000
0000
0000
0000
0000
0000
0000
0000
0000
0000
0000
1000
0000
0000
0000
0100
0000
0000
0000
0010
0000
0000
0000
0001
0000
0000
0000
1000
0000
0000
0000
0100
0000
0000
0000
0010
0000
0000
0000
0001
0000
0000
0000
1000
0000
0000
0000
0100
0000
0000
0000
0010
0000
0000
0000
0001
0000
0000
0000
2000
0000
0000
0000
0000
0000
0000
0000
0000
0000
0000
0000
0000
0000
0000
0000
0000
0000
0000
0000
0000
0000
0000
0000
0000
0000
0000
0000
0000
0000
0000
0000
0000
0000
0000
0000
0000
0000
0000
0000
0000
0000
0000
0000
0000
0000
0000
0000
3000
0000
0000
0000
0000
0000
0000
0000
0000
0000
0000
0000
0000
0000
0000
0000
0000
0000
0000
0000
0000
0000
0000
0000
0000
0000
0000
0000
0000
0000
0000
0000
0000
0000
0000
0000
0001
0000
0000
0000
0000
0000
0000
0000
0000
0000
0000
0000
,
0000
0000
0100
0040
0000
0000
0000
0000
1030
0000
M000
0000
0004
0000
0003
0000
,
0100
0010
0200
0001
0000
0300
0040
4030
,
0000
3000
0001
0000
0100
0010
0100
0001
,
1000
0010
1000
0100
0010
0000
0001
0100
,
0001
1000
0000
0000
01M0
0000
0010
0001
,
1000
0001
0100
0010
1000
0000
0100
M000
,
0010
0001
1000
0000
0010
0000
0100
0001
,
M100
0000
0000
0000
0010
0000
1000
0000
0MM1
0000
0000
0M00
0000
0000
0000
0000
,
00M0
0000
0000
0000
000M
0000
0000
0000
1000
0100
0010
0001
0100
0001
1000
0010
,
0100
0010
1000
0001
0100
0001
0010
0100
1000
0001
0100
0010
0100
0001
1000
0100
,
1000
0001
0010
0100
0010
0001
1000
0010
1000
0001
0100
0010
1000
0010
0100
0001
,
1000
0100
1000
0001
0100
0010
0100
0001
1000
0001
0010
0100
1000
0001
0010
0001
,
0100
0010
1000
0001
2000
0000
0000
3000
0010
0000
0100
0000
0010
0000
1000
0000
,
0001
0010
0100
1000
0001
0100
0001
1000
,
0010
0000
0100
0000
0010
0000
1000
0000
0001
0100
0010
1000
0010
0100
0001
1000
,
0100
1000
0001
0010
0100
1000
0001
1000
0020
0030
0200
0300
0001
1000
0001
0010
,
0200
0000
0300
0000
1000
0000
0001
0000
2000
0000
0000
0000
3000
0000
0000
0000
0010
0100
0010
0000
1000
0000
0001
0000
0100
0010
0100
0000
0001
0000
1000
0010
,
1000
0000
0001
0000
1000
0001
1000
0000
0010
0100
0010
0000
1000
0000
0001
0000
0010
0100
0010
0000
0001
0000
1000
0000
0010
0100
0010
0000
1000
0000
0001
0100
,
0001
0000
0000
0000
0000
0000
0000
0000
0000
0000
0000
0000
1000
0000
0000
0000
0000
0000
0000
0000
0000
0000
0000
0000
0010
0000
0000
0000
0000
0000
0100
0000
0000
0000
0000
0000
0010
0000
0000
0000
0000
0000
0000
0000
0000
0000
0000
0000
1000
0000
0000
0000
0001
0000
0000
0000
0100
0000
0000
0000
0010
0000
0000
0000
1000
0000
0000
0000
0001
0000
0000
0000
0100
0000
0000
0000
0000
0000
0000
0000
0000
0000
0000
0000
0010
0000
0000
0000
0000
0000
0000
0000
0000
0000
0000
0000
1000
0000
0000
0000
0000
0000
0001
0000
0000
0000
0000
0000
1000
0000
0000
0000
0000
0000
0000
0000
0000
0000
0000
0000
0100
0000
0000
0000
0000
0000
0000
0000
0000
0000
0000
0000
0010
0000
0000
0000
0000
0000
0000
0000
0000
0000
0000
0000
0001
0000
0000
0000
0000
0000
0100
0000
0000
0000
0000
0000
0001
0000
0000
0000
0000
0000
0000
0000
0000
0000
0000
0000
1000
0000
0000
0000
0000
0000
0000
0000
0000
0000
0000
0000
0010
0000
0000
0000
0000
0000
0100
0000
0000
0000
0000
0000
,
0010
0000
1000
0000
0001
0100
0001
0000
1000
0010
1000
0000
0001
0000
0010
0000
0100
1000
0100
0000
0010
0000
0001
0100
0001
0000
1000
0000
0010
0100
0010
0000
,
1000
0000
0000
0000
0001
0000
0000
0000
0100
0000
0000
0000
0010
0000
0000
0000
0000
0000
0000
0000
0000
0000
0000
0000
1000
0000
0000
0000
0001
0000
0000
0000
0100
0000
0000
0000
0010
0000
0000
0000
0000
0000
0000
0000
0000
0000
0000
0000
2000
0000
0000
0000
0000
0000
0000
0000
0000
0000
0000
0000
0000
0000
0000
0000
0000
0000
0000
0000
0000
0000
0000
0000
0000
0000
0000
0000
0000
0000
0000
0000
0000
0000
0000
0000
0000
0000
0000
0000
0000
0000
0000
0000
0000
0000
0000
0000
3001
0000
0000
0000
0000
0000
0010
0000
0000
0000
0000
0000
0001
0000
0000
0000
0000
0000
0000
0000
0000
0000
0000
0000
0100
0000
0000
0000
0000
0000
0000
0000
0000
0000
0000
0000
0010
0000
0000
0000
0000
0000
0000
0000
0000
0000
0000
0000
1000
0000
0000
0000
0000
0000
0001
0000
0000
0000
0000
0000
1000
0000
0000
0000
0000
0000
0000
0000
0000
0000
0000
0000
0100
0000
0000
0000
0000
0000
0000
0000
0000
0000
0000
0000
0010
0000
0000
0000
0000
0000
0001
0000
0000
0000
0000
0000
,
0010
0000
0100
0000
1000
0001
1000
0000
0010
0100
0010
0000
1000
0000
0100
0000
1000
0001
1000
0000
0100
0000
0010
0000
0001
0100
0001
0000
1000
0000
0010
0100
,
0010
0000
0000
0000
1000
0000
0000
0000
0001
0000
0010
0000
0001
0000
0000
0000
1000
0100
0010
0001
1000
0100
0010
0001
1000
0000
0000
0000
0010
0000
0000
0000
0100
0000
0001
0000
0100
0000
0000
0000
0010
0000
0000
0000
0100
0000
0000
0000
0001
0000
1000
0000
0001
0000
0000
0000
0010
0000
0000
0000
0100
0000
1000
0000
,
0100
0000
0010
0000
0001
1000
0001
0000
0100
0010
0100
0000
0001
0000
1000
0000
0200
0000
0300
0000
0020
0000
0030
0000
0001
0000
0100
0000
0001
0000
1000
0000
,
0020
0000
0030
0000
0100
0000
0001
0000
2000
0000
0000
0000
3000
0000
0000
0000
0001
1000
0001
0000
0100
0000
0010
0000
1000
0001
1000
0000
0010
0000
0100
0001
,
0100
0000
0010
0000
1000
0001
1000
0000
0010
0100
0010
0000
1000
0000
0001
0000
0010
0100
0010
0000
0001
0000
1000
0000
0010
0100
0010
0000
1000
0000
0001
0100
,
0001
0000
0000
0000
0000
0000
0000
0000
0000
0000
0000
0000
1000
0000
0000
0000
0000
0000
0000
0000
0000
0000
0000
0000
0010
0000
0000
0000
0000
0000
0100
0000
0000
0000
0000
0000
0010
0000
0000
0000
0000
0000
0000
0000
0000
0000
0000
0000
1000
0000
0000
0000
0001
0000
0000
0000
0100
0000
0000
0000
0010
0000
0000
0000
1000
0000
0000
0000
0001
0000
0000
0000
0100
0000
0000
0000
0000
0000
0000
0000
0000
0000
0000
0000
0010
0000
0000
0000
0000
0000
0000
0000
0000
0000
0000
0000
1000
0000
0000
0000
0000
0000
0001
0000
0000
0000
0000
0000
1000
0000
0000
0000
0000
0000
0000
0000
0000
0000
0000
0000
0100
0000
0000
0000
0000
0000
0000
0000
0000
0000
0000
0000
0010
0000
0000
0000
0000
0000
0000
0000
0000
0000
0000
0000
0001
0000
0000
0000
0000
0000
0100
0000
0000
0000
0000
0000
0001
0000
0000
0000
0000
0000
0000
0000
0000
0000
0000
0000
1000
0000
0000
0000
0000
0000
0000
0000
0000
0000
0000
0000
0010
0000
0000
0000
0000
0000
0100
0000
0000
0000
0000
0000
,
0010
0000
0000
0000
0000
0000
0000
0000
0000
0000
0000
0000
1000
0000
0000
0000
0000
0000
0000
0000
0000
0000
0000
0000
0001
0000
0000
0000
0000
0000
0100
0000
0000
0000
0000
0000
0001
0000
0000
0000
0000
0000
0000
0000
0000
0000
0000
0000
1000
0000
0000
0000
0000
0000
0010
0000
0000
0000
0000
0000
1000
0000
0000
0000
0000
0000
0000
0000
0000
0000
0000
0000
0001
0000
0000
0000
0000
0000
0000
0000
0000
0000
0000
0000
0100
0000
0000
0000
0000
0000
0000
0000
0000
0000
0000
0000
0010
0000
0000
0000
0000
0000
1000
0000
0000
0000
0000
0000
0010
0000
0000
0000
0000
0000
0000
0000
0000
0000
0000
0000
0100
0000
0000
0000
0000
0000
0001
0000
0000
0000
0000
0000
0100
0000
0000
0000
0000
0000
0000
0000
0000
0000
0000
0000
0010
0000
0000
0000
1000
0000
0000
0000
0001
0000
0000
0000
0100
0000
0000
0000
0000
0000
0000
0000
0000
0000
0000
0000
0010
0000
0000
0000
0100
0000
0000
0000
1000
0000
0000
0000
0001
0000
0000
0000
0000
0000
0000
0000
0000
0000
0000
0000
,
1000
0001
0010
0100
1000
0001
0010
0100
1000
0001
0010
0100
1000
0001
0010
0100
2000
0000
0000
0000
0000
0000
0000
0000
0000
0000
0000
0000
0000
0000
0000
0000
3001
0000
0010
0000
0001
0000
0000
0000
0100
0000
0000
0000
0010
0000
0000
0000
1000
0000
0001
0000
1000
0000
0000
0000
0100
0000
0000
0000
0010
0000
0001
0000
,
0010
0000
0100
0000
1000
0001
1000
0000
0010
0100
0010
0000
1000
0000
0100
0000
1000
0001
1000
0000
0100
0000
0010
0000
0001
0100
0001
0000
1000
0000
0010
0100
,
0010
0000
0000
0000
1000
0000
0000
0000
0001
0000
0010
0000
0001
0000
0000
0000
1000
0100
0010
0001
1000
0100
0010
0001
1000
0000
0000
0000
0010
0000
0000
0000
0100
0000
0001
0000
0100
0000
0000
0000
0010
0000
0000
0000
0100
0000
0000
0000
0001
0000
1000
0000
0001
0000
0000
0000
0010
0000
0000
0000
0100
0000
1000
0000
,
0100
0000
0000
0000
0000
0000
0000
0000
0000
0000
0000
0000
0010
0000
0000
0000
0000
0000
0000
0000
0000
0000
0000
0000
0001
0000
0000
0000
0000
0000
1000
0000
0000
0000
0000
0000
0001
0000
0000
0000
0000
0000
0000
0000
0000
0000
0000
0000
0100
0000
0000
0000
0010
0000
0000
0000
1000
0000
0000
0000
0001
0000
0000
0000
0100
0000
0000
0000
0010
0000
0000
0000
1000
0000
0000
0000
0001
0000
0000
0000
0100
0000
0000
0000
0010
0000
0000
0000
1000
0000
0000
0000
0001
0000
0000
0000
0200
0000
0000
0000
0000
0000
0000
0000
0000
0000
0000
0000
0000
0000
0000
0000
0000
0000
0000
0000
0000
0000
0000
0000
0000
0000
0000
0000
0000
0000
0000
0000
0000
0000
0000
0000
0000
0000
0000
0000
0000
0000
0000
0000
0000
0000
0000
0000
0300
0000
0000
0000
0000
0000
0000
0000
0000
0000
0000
0000
0010
0000
0000
0000
0000
0000
0000
0000
0000
0000
0000
0000
0000
0000
0000
0000
0000
0000
0000
0000
0000
0000
0000
0000
1000
0000
0000
0000
0000
0000
0000
0000
0000
0000
0000
0000
,
0000
0000
0000
0000
0002
0000
0000
0000
0103
0010
0100
0001
1000
0100
0010
0001
,
1000
0100
1000
0001
0010
0100
1000
0100
0010
0001
1000
0010
0100
0010
1000
0001
,
1000
0010
1000
0000
0001
0000
0100
0000
0020
0000
0000
0000
2030
0000
0000
0000
3100
0000
0010
0000
0001
0000
1000
0000
0100
0000
1000
0000
0001
0000
0100
0000
,
0010
0100
0001
1000
0010
1000
0001
0010
0100
1000
0001
0010
0001
0100
0010
1000
,
0001
0100
0001
0000
1000
0010
1000
0000
0002
0000
0000
0000
0023
0000
0000
0000
0130
0000
1000
0000
0001
0000
1000
0000
0010
0000
0100
0000
0001
0000
0100
0000
,
0010
1000
0001
1000
0100
0010
0001
1000
0100
1000
0001
0100
0010
0100
0001
1000
,
0010
0100
0010
0000
1000
0000
0001
0000
0200
0000
0000
0000
0000
0000
0000
0000
0310
0000
1000
0000
0001
0000
0010
0000
0001
0000
0100
0000
0010
0000
1000
0000
,
0001
0000
0000
0000
0000
0000
0010
0000
0000
0000
0000
0000
0001
0000
0000
0000
0000
0000
0000
0000
0000
0000
0000
0000
0100
0000
0000
0000
0000
0000
0000
0000
0000
0000
0000
0000
0010
0000
0000
0000
0000
0000
0000
0000
0000
0000
0000
0000
1000
0000
0000
0000
0000
0000
0001
0000
0000
0000
0000
0000
1000
0000
0000
0000
0000
0000
0000
0000
0000
0000
0000
0000
0010
0000
0000
0000
0000
0000
0100
0000
0000
0000
0000
0000
0010
0000
0000
0000
0000
0000
0000
0000
0000
0000
0000
0000
1000
0000
0000
0000
0000
0000
0000
0000
0000
0000
0000
0000
0000
0000
0000
0000
0001
0000
0000
0000
0000
0000
0000
0000
0000
0000
0000
0000
0000
0000
0000
0000
0100
0000
0000
0000
0000
0000
0000
0000
0000
0000
0000
0000
0000
0000
0000
0000
0010
0000
0000
0000
0000
0000
0000
0000
0000
0000
0000
0000
0000
0000
0000
0000
1000
0000
0000
0000
0000
0000
0000
0000
0000
0000
0000
0000
0000
0000
0000
0000
0001
0000
0000
0000
0000
0000
0000
0000
0000
0000
0000
0000
0000
0000
0000
0000
,
1000
0000
0100
0000
0010
0000
0000
0000
0001
0000
0010
0000
0100
0000
0000
0000
1000
0000
0100
0000
0010
0000
0000
0000
0001
0000
0000
0010
0000
0000
0100
0000
0000
1000
0000
0000
0010
0000
0000
0100
0000
0000
0010
0000
0000
1000
0000
0000
,
0001
0100
0001
1000
0100
0010
0001
0100
0010
0100
0001
1000
0100
1000
0010
0100
,
0001
1000
0001
0000
0100
0000
0010
0000
2000
0000
0000
0000
3002
0000
0000
0000
0103
0000
0010
0000
1000
0000
0001
0000
0100
0000
0010
0000
0100
0000
0001
0000
,
1000
0010
1000
0001
0010
0100
1000
0010
0100
0010
1000
0001
0100
0001
1000
0010
,
0100
0001
0100
0000
0010
1000
0010
0000
0200
0000
0000
0000
0320
0000
0000
0000
1030
0000
0001
0000
1000
0000
0010
0000
0100
0000
0001
0000
0100
0000
0010
0000
,
1000
0001
1000
0100
0010
0001
1000
0100
1000
0001
0100
0010
0100
0001
1000
0010
,
0100
0001
0100
0000
0010
0000
1000
0000
0200
0000
0000
0000
0000
0000
0000
0000
0310
0000
0001
0000
1000
0000
0010
0000
0100
0000
0001
0000
1000
0000
0001
0000
,
0100
0000
0000
0000
0000
0000
0010
0000
0000
0000
0000
0000
0100
0000
0000
0000
0000
0000
0000
0000
0000
0000
0000
0000
0001
0000
0000
0000
0000
0000
0000
0000
0000
0000
0000
0000
1000
0000
0000
0000
0000
0000
0000
0000
0000
0000
0000
0000
0001
0000
0000
0000
0010
0000
0000
0000
0100
0000
0000
0000
1000
0000
0000
0000
0001
0000
0000
0000
0010
0000
0000
0000
0100
0000
0000
0000
1000
0000
0000
0000
0001
0000
0000
0000
0010
0000
0000
0000
0100
0000
0000
0000
1000
0000
0000
0000
0002
0000
0000
0000
0000
0000
0000
0000
0000
0000
0000
0000
0000
0000
0000
0000
0000
0000
0000
0000
0000
0000
0000
0000
0000
0000
0000
0000
0000
0000
0000
0000
0000
0000
0000
0000
0000
0000
0000
0000
0000
0000
0000
0000
0000
0000
0000
0000
0003
0000
0000
0000
0000
0000
0000
0000
0000
0000
0000
0000
0000
0000
0000
0000
0000
0000
0000
0000
0000
0000
0000
0000
0000
0000
0000
0000
0000
0000
0000
0000
0000
0000
0000
0000
1000
0000
0000
0000
0000
0000
0000
0000
0000
0000
0000
0000
,
0000
0000
0010
0400
0000
0000
0000
0000
0301
0000
0000
0000
1000
0000
0000
0000
,
0200
0300
0000
0000
0010
0000
0001
0000
1000
0000
0000
1000
0000
0000
0020
0000
,
0000
0230
0001
0000
0310
0000
1000
0000
,
0001
0000
0010
0000
0100
1000
0001
1000
,
0010
0100
0010
1000
0002
0000
0000
0000
1003
0000
0100
0000
0010
0000
0001
0000
,
1000
0010
0100
0010
1000
0001
0010
0100
,
1000
0001
1000
0000
0010
0000
0100
0000
0001
0000
0000
0000
1000
0000
0010
0000
0100
0000
0000
0000
0001
0000
0000
0000
1000
0000
0000
0000
0100
0000
0000
0000
,
0010
0001
1000
0010
0100
0001
0100
0010
,
1000
0001
1000
0000
0010
0100
0010
0000
2000
0000
0000
0000
0000
0000
0000
0000
3100
0000
0000
0000
0010
0000
0000
0000
0001
0000
0000
0000
1000
0000
0000
0000
,
0010
1000
0001
0100
0010
0100
0001
1000
,
0010
0100
0010
0000
1000
0000
0001
0000
0100
0000
0000
0000
0010
1000
0001
0100
0010
0000
0000
0000
1000
0000
0000
0000
0001
0000
0000
0000
0100
0000
0000
0000
,
0010
1000
0010
0000
0100
0000
0001
0000
1000
0010
1000
0000
0001
0100
0001
0000
20M0
0000
0000
0000
0000
0000
0000
0000
3000
0000
0M00
0000
0000
0000
0000
0000
,
0M02
0000
0000
0000
0000
0000
0000
0000
0000
0000
0000
0000
0000
0000
0000
0000
1003
0010
1000
0000
0001
0000
0010
0000
0100
0000
1000
0000
0001
0000
0100
0000
,
0010
1000
0010
0000
0100
0000
0001
0000
1000
0100
1000
0000
0001
0100
0001
0000
1000
0010
1000
0000
0001
0000
0100
0000
0010
0000
1000
0000
0010
0000
0100
0000
,
0001
1000
0001
0000
0100
0010
0100
0000
0002
0000
0000
0000
2003
0000
0000
0000
3010
0100
0010
0000
1000
0000
0100
0000
0010
0000
0001
0000
1000
0000
0010
0000
,
0100
0000
0000
0000
0000
0000
0001
0000
0000
0000
0000
0000
0100
0000
0000
0000
0000
0000
0000
0000
0000
0000
0000
0000
0010
0000
0000
0000
0000
0000
0000
0000
0000
0000
0000
0000
1000
0000
0000
0000
0000
0000
0000
0000
0000
0000
0000
0000
0001
0000
0000
0000
0000
0000
0010
0000
0000
0000
0000
0000
0100
0000
0000
0000
0000
0000
0000
0000
0000
0000
0000
0000
1000
0000
0100
0000
0000
0000
0010
0000
0001
0000
0000
0000
0000
0000
1000
0000
0100
0000
0000
0000
0000
0000
0000
0000
0010
0000
0000
0000
0000
0000
0001
0000
0000
0000
0000
0000
1000
0000
0000
0000
0000
0000
0000
0000
0000
0000
0000
0000
0001
0000
0000
0000
0000
0000
0000
0000
0000
0000
0000
0000
0100
0000
0000
0000
0000
0000
0000
0000
0000
0000
0000
0000
0010
0000
0000
0000
0000
0000
0000
0000
0000
0000
0000
0000
1000
0000
0000
0000
0000
0000
0000
0000
0000
0000
0000
0000
0001
0000
0000
0000
0000
0000
0000
0000
0000
0000
0000
0000
0100
0000
0000
0000
0000
0000
0000
0000
0000
0000
0000
0000
,
0010
1000
0010
0000
0100
0001
0100
0000
0020
0000
0000
0000
2030
0000
0000
0000
3001
0100
0001
0000
1000
0000
0010
0000
0100
0000
0010
0000
1000
0000
0001
0000
,
0010
0100
0010
0000
0001
0000
0100
0000
0010
1000
0010
0000
0100
0001
0100
0000
0010
1000
0010
0000
0100
0000
0001
0000
1000
0000
0010
0000
0100
0000
0001
0000
,
1000
0100
1000
0000
0010
0100
0010
0000
2000
0000
0000
0000
0000
0000
0000
0000
3001
0000
0010
0000
0100
0000
1000
0000
0001
0000
0100
0000
0010
0000
0100
0000
,
0001
0000
0000
0000
0000
0000
1000
0000
0000
0000
0000
0000
0001
0000
0000
0000
0000
0000
0000
0000
0000
0000
0000
0000
0100
0000
0000
0000
0000
0000
0000
0000
0000
0000
0000
0000
0010
0000
0000
0000
0000
0000
0000
0000
0000
0000
0000
0000
1000
0000
0000
0000
0100
0000
0000
0000
0010
0000
0000
0000
0001
0000
0000
0000
1000
0000
0000
0000
0100
0000
0000
0000
0010
0000
0000
0000
0001
0000
0000
0000
1000
0000
0000
0000
0100
0000
0000
0000
0010
0000
0000
0000
0001
0000
0000
0000
2000
0000
0000
0000
0000
0000
0000
0000
0000
0000
0000
0000
0000
0000
0000
0000
0000
0000
0000
0000
0000
0000
0000
0000
0000
0000
0000
0000
0000
0000
0000
0000
0000
0000
0000
0000
0000
0000
0000
0000
0000
0000
0000
0000
0000
0000
0000
0000
3000
0000
0000
0000
0000
0000
0000
0000
0000
0000
0000
0000
0000
0000
0000
0000
0000
0000
0000
0000
0000
0000
0000
0000
0000
0000
0000
0000
0000
0000
0000
0000
0000
0000
0000
0000
0000
0000
0000
0000
0000
0000
0000
0000
0000
0000
0000
0000
,
0000
0000
00M0
0000
0000
0M00
0000
0000
0000
0000
0000
0000
0000
0000
0000
0000
0000
0000
0000
0000
0000
0000
0000
0000
0000
0000
0000
000M
0000
0000
0000
0000
,
0000
0000
0000
0000
0000
0000
0000
0000
M000
0000
0000
0000
0000
0000
0000
0000
0000
0000
0000
0000
0000
0000
0000
0000
0000
0000
0000
0M00
0000
0000
0000
00M0
,
0000
0000
0000
0000
0000
0000
0000
000M
0000
0000
0000
0000
0000
0000
0000
0000
0000
0000
0000
0000
0000
0000
0000
0000
0000
0000
0000
0000
0000
0000
0000
0000
2MM1
0000
0000
0000
0000
0000
0000
0000
0000
0000
0000
0000
0000
0000
0000
0000
0000
0000
0000
0000
0000
0000
0000
0000
0000
0000
0000
0000
0000
0000
0000
0000
,
3001
0100
0010
0100
0001
1000
0010
1000
0100
0010
0001
1000
0100
1000
0001
0100
,
0010
0100
0001
1000
0010
1000
0001
0100
0001
1000
0100
0010
0001
1000
0100
1000
,
0010
0100
0001
0100
0010
1000
0001
1000
02M0
0000
0000
0000
00M0
0000
0000
0000
,
00M0
00M0
0000
0000
,
0000
0000
0000
0000
,
0000
0000
0000
0000
,
0000
0000
0000
0000
,
0000
0000
0000
0000
,
0000
0000
0000
0000
,
0000
0000
0000
0000
,
0000
0000
0000
0000
,
0000
0000
0000
0000
,
0000
0000
0000
0000
,
0000
0000
0000
0000
,
0000
0000
0000
0300
;
