#TITLE:Cartoon Candy;
#SUBTITLE:;
#ARTIST:Kobaryo;
#TITLETRANSLIT:;
#SUBTITLETRANSLIT:;
#ARTISTTRANSLIT:;
#CREDIT:owenviau1;
#BANNER:../BN.png;
#BACKGROUND:;
#LYRICSPATH:;
#CDTITLE:../CDTitleOV1.png;
#MUSIC:Kobaryo - Cartoon Candy.ogg;
#OFFSET:-0.409;
#SAMPLESTART:18.186;
#SAMPLELENGTH:29.999;
#SELECTABLE:YES;
#DISPLAYBPM:100.000:270.000;
#BPMS:0.000=270.000,96.000=135.000,100.000=270.000,124.000=135.000,128.000=270.000,168.000=135.000,264.000=270.000,376.000=260.000,377.000=250.000,378.000=240.000,379.000=225.000,380.000=220.000,384.000=180.000,386.000=150.000,388.000=125.000,389.000=91.125,390.000=100.000,400.000=200.000,416.000=100.000,424.000=200.000,445.000=210.000,448.000=220.000,452.000=235.000,456.000=250.000,460.000=260.000,471.000=270.000,503.000=135.000,507.000=270.000,531.000=135.000,535.000=270.000,575.000=135.000,591.000=270.000,619.000=135.000,621.000=270.000,683.000=135.000,684.000=270.000;
#STOPS:;
#BGCHANGES:;
// cache tags:
#FIRSTBEAT:0.000;
#LASTBEAT:752.000;
#SONGFILENAME:Songs/owenviau1 Simfiles 07_final/Cartoon Candy - [owenviau1] v1.0.4/Cartoon Candy.sm;
#HASMUSIC:1;
#HASBANNER:1;
#MUSICLENGTH:214.056;
// end cache tags

//---------------dance-single - 15.46 (15+) (owenvia----------------
#NOTES:
     dance-single:
     15.46 (15+) (owenvia:
     Hard:
     15:
     1.000,1.000,0.201,0.505,1.000,1835.000,43.000,108.000,5.000,0.000:
1000
0100
0010
0001
1000
0010
0100
0001
0100
0010
1000
0001
,
1000
0100
0010
0001
1000
0100
1000
0001
0100
0010
0100
0001
,
1000
0100
0010
0001
1000
0100
1000
0010
0100
0001
1000
0100
,
1000
0001
0100
0010
0100
0001
1000
0010
1000
0001
0100
0010
,
1000
0001
0010
0100
1000
0001
0100
0001
1000
0010
0100
0001
,
1000
0100
1000
0001
0100
0010
0100
0001
1000
0100
0010
0001
,
1000
0010
0100
0001
0100
0010
1000
0001
1000
0100
0010
0001
,
1000
0010
0100
0010
1000
0001
0010
0001
0100
0010
0100
0001
,
1000
0010
1000
0001
0100
0010
1000
0001
0010
0001
1000
0100
,
0010
0001
0100
0010
0100
0001
1000
0010
1000
0001
0100
0001
,
0010
0100
1000
0001
0100
0010
1000
0010
0100
0001
1000
0100
,
1000
0010
0100
0001
1000
0100
0010
0001
1000
0100
1000
0010
,
0100
0001
0100
0010
1000
0001
1000
0100
0010
0001
1000
0100
,
1000
0010
0100
0001
1000
0001
0010
0100
1000
0001
0010
0001
,
1000
0010
0100
0010
1000
0001
0100
0001
1000
0100
0010
0001
,
0100
0001
1000
0010
1000
0001
0010
0100
1000
0001
0100
0010
,
1000
0100
0010
0001
1000
0010
0100
0001
,
1001
1000
0010
0100
0001
0010
0001
1000
,
1010
0010
0100
0001
0011
0010
0100
1000
,
0010
0000
0100
0000
0001
0000
0100
0000
0010
1000
0001
0100
0001
1000
0100
0010
,
0001
1000
0010
0100
0001
1000
0010
1000
,
0001
0100
0010
1000
0001
0010
0100
1000
,
0001
0010
0001
1000
0100
0010
0001
1000
,
0010
0100
0001
0100
0010
1000
0001
0100
,
0020
0030
1000
0000
0020
0030
0100
0000
0002
1003
0001
0000
0020
0030
0100
0000
,
1010
1000
0001
0010
0110
0100
1000
0001
,
1000
0000
0100
0000
0010
0000
0001
0000
1000
0010
1000
0001
0100
0010
0100
0001
,
1000
0010
0100
0001
1000
0100
1000
0010
,
0100
0001
1000
0100
1000
0001
0100
0010
,
0100
0001
1000
0010
1000
0001
0100
0001
,
1000
0000
0010
0100
0010
0000
1000
0000
0001
0000
0010
0000
0001
0000
1000
0000
,
0100
0010
0001
1000
0010
0100
0002
1003
,
1010
0010
0100
0001
1001
1000
0010
0100
,
0001
0010
0100
1000
0002
0000
0000
0000
,
1003
0010
0100
0010
1000
0001
0010
0001
,
1000
0100
0010
0001
1000
0010
0100
0001
,
1000
0100
1000
0000
0010
0000
0100
0000
0001
1000
0001
0000
0010
0000
0100
0000
,
1000
0010
1000
0001
0200
0000
0000
0000
0340
0000
0000
0000
0000
0000
0000
0000
,
1030
0100
1000
0000
0001
0000
0100
0000
0010
1000
0010
0000
0100
0000
0010
0000
,
1000
0001
0010
0001
0400
0000
0000
0000
0340
0000
0000
0000
1030
0100
1000
0000
,
0002
0000
0023
0000
0230
0000
2300
0000
3002
0000
0203
0000
0320
0000
2030
3200
,
2300
3002
0203
0320
0230
0302
2003
3020
2030
3002
0023
0230
2300
3020
0230
0302
,
1003
0010
0100
0001
1000
0100
1000
0010
0100
0001
1000
0100
0010
0001
1000
0010
,
0100
0001
1000
0100
1000
0010
0100
0001
1000
0100
0010
0001
1000
0010
0100
0001
,
1000
0010
0100
0010
1000
0001
0010
0001
1000
0100
0010
0001
1000
0010
0100
0001
,
0100
0010
1000
0001
0010
0001
1000
0100
1000
0001
0100
0010
1000
0001
0010
0100
,
1100
0000
1000
0010
0100
0000
0001
0000
1000
0100
1000
0000
0001
0100
0010
1000
,
0010
0100
0001
1000
0100
0010
0001
1000
0100
1000
0010
0100
0001
1000
0100
1000
,
0001
0010
0001
0100
0010
1000
0001
0010
0100
1000
0001
0100
0001
1000
0010
0100
,
0001
1000
0010
0100
0010
1000
0001
0010
0001
0100
0010
1000
0001
0100
0001
1000
0100
0010
0002
0000
0000
0000
0000
0000
,
1003
0000
0001
0100
0000
0010
1000
0001
1000
0000
0100
0010
0000
0001
1000
0010
,
1000
0000
0001
0100
0000
0010
1000
0100
1000
0000
0001
0010
0000
0100
1000
0001
,
0100
0000
0010
1000
0000
0001
0010
0100
1000
0000
0001
0100
0000
0010
1000
0001
,
1000
0000
0100
0010
0000
0001
1000
0010
1000
0000
0001
0100
0000
0010
1000
0100
,
1000
0000
0001
0010
0000
0100
1000
0001
0100
0000
0010
1000
0000
0001
0010
0100
,
1000
0000
0001
0100
0000
0010
1000
0001
1000
0000
0100
0010
0000
0001
1000
0010
,
1000
0000
0001
0100
0000
0010
1000
0100
1000
0000
0001
0010
0000
0100
1000
0001
,
0100
0010
1000
0001
0100
0001
0010
0100
1000
0001
0100
0010
0100
0001
1000
0010
0100
0001
2000
0000
0000
0000
0000
0000
,
3001
0000
0100
0000
0010
1000
0000
0001
0000
0100
0010
0000
1000
0000
0001
0010
,
0000
0100
1000
0000
0010
1000
0000
0001
0000
0010
0100
0000
1000
0000
0010
0000
,
0100
0000
0001
0000
1000
0010
0000
0100
0000
0001
1000
0000
0100
0000
1000
0010
,
0000
0100
0001
0000
1000
0100
0000
1000
0000
0010
0100
0000
0001
0000
1000
0000
,
0001
0100
0010
0100
0001
1000
0010
1000
,
0001
0100
0010
1000
0001
0010
0100
1000
,
0001
0100
0010
1000
0010
0100
0001
1000
0100
1000
0010
0100
0001
1000
0010
1000
,
0100
0000
0010
0000
0001
0000
1000
0000
0010
0000
1000
0000
0001
0000
0100
0000
0010
0000
0100
0000
0001
0000
1000
0000
0000
0000
0000
0001
0000
0000
0100
0000
0000
0000
0000
0000
0010
0000
0000
0000
0000
0000
0200
0000
0000
0000
0000
0000
,
0301
1000
0010
0100
0010
1000
0001
0100
,
0001
1000
0100
0010
0001
0100
0010
1000
,
0001
0010
0001
1000
0100
0010
0001
1000
,
0010
1000
0001
0100
0010
0100
0001
1000
,
0010
1000
0100
0010
0001
0100
0010
1000
,
0001
0010
0001
1000
0100
0010
0001
1000
,
0010
1000
0001
0100
0010
0100
0001
1000
,
0100
0000
1000
0000
0001
0100
0010
1000
0020
0000
0000
0000
0430
0000
0000
0000
,
0301
1000
0001
0010
0100
1000
0001
0100
,
0010
0000
0100
0000
0001
0000
1000
0000
0100
0000
1000
0000
0010
0100
0001
1000
,
0001
0000
0010
0000
0100
0000
1000
0000
0001
0000
0100
0010
0100
0000
0002
0000
,
0000
0000
1003
0000
0100
0000
0010
0000
0001
1000
0001
0000
0100
0010
0100
0000
,
0001
0000
1000
0000
0010
0100
0001
1000
0001
0000
0100
0010
0100
0001
1000
0000
,
0100
0000
0040
0000
0031
0000
4000
0000
3010
0100
0040
0000
0000
0000
0000
0000
,
1030
0001
0100
0000
0010
1000
0000
0001
,
0000
0010
0100
0000
2000
0000
3001
0000
,
0100
0010
0100
0001
1000
0010
1000
0100
0010
0001
1000
0010
,
0100
0001
0100
0010
1000
0001
1000
0100
0010
0001
1000
0010
,
1000
0001
0100
0010
0100
0001
1000
0010
1000
0001
0100
0010
,
1000
0001
0010
0001
0100
0010
1000
0010
0100
0001
1000
0100
,
0010
0001
1000
0010
0100
0001
1000
0001
0010
0100
1000
0010
,
0100
0001
0100
0010
1000
0001
1000
0100
0010
0001
1000
0100
,
1000
0001
0100
0010
0100
0001
1000
0010
1000
0001
0100
0010
,
0100
0001
1000
0100
0010
0001
1000
0100
1000
0010
0100
0001
,
1000
0100
1000
0010
0100
0001
1000
0100
0010
0001
1000
0010
,
1000
0001
0100
0010
0100
0001
1000
0001
0010
0100
1000
0010
,
0100
0001
1000
0001
0100
0010
0100
0001
1000
0100
0010
0001
,
1000
0100
1000
0010
0100
0001
0010
0001
0100
0010
1000
0010
,
0100
0001
1000
0100
0010
0001
0100
0001
1000
0010
0100
0010
,
1000
0001
0100
0001
0010
0100
1000
0010
0100
0001
1000
0100
,
1000
0000
0000
0000
0010
0000
0000
0000
0100
0000
0000
0000
0001
0000
0000
0000
1000
0000
0000
0000
0100
0000
0000
0000
0010
0000
0000
0001
0000
0000
1000
0000
0000
0001
0000
0000
0100
0000
0000
0010
0000
0000
1000
0000
0000
0100
0000
0000
,
0010
0001
1000
0010
0100
0002
0000
0000
2003
0000
3M10
0000
01M0
0001
1000
0001
,
0100
0000
0010
1000
0001
0000
1000
0100
200M
0000
3010
0000
M100
0000
00M2
1003
,
0002
0000
0003
0000
0010
0000
0100
0000
4000
0000
0000
0000
3010
0000
0100
0000
0002
0000
1000
0000
0000
0000
2000
0000
0003
3000
1000
0000
0020
0000
0030
0000
,
1000
0100
0010
0001
1000
0010
1000
0001
0200
0000
0000
0000
0310
1000
0001
0100
,
0001
0010
0100
1000
0001
0100
0010
0100
0001
0000
1000
0000
0020
0000
0000
0000
,
0130
0001
1000
0100
1000
0010
0100
0001
2000
0000
0000
0000
3100
0010
0001
1000
,
0010
0100
0010
1000
0001
0100
0001
1000
0010
0000
0100
0000
0002
0000
0003
0000
,
1000
0000
0000
0000
0100
0000
0010
0000
0001
0000
0000
0000
1000
0000
0040
0030
0100
0000
0000
0000
0004
0003
1000
0000
0010
0000
0400
0300
0001
0000
1000
0000
,
0100
0000
0000
0000
0020
0000
0031
0000
2000
0000
0000
0000
3010
0000
0400
0300
0001
0000
1000
0000
0040
0030
1000
0000
0002
0000
0000
0000
0203
0000
0300
0000
,
0010
1000
0001
0100
0001
0010
0100
1000
0002
0000
0000
0000
0103
0010
1000
0100
,
1000
0001
0100
0010
1000
0001
0010
0001
0100
0000
0010
0000
2000
0000
0000
0000
,
3001
0010
0100
1000
0010
0100
0010
1000
0002
0000
0000
0000
0103
0010
1000
0001
,
0010
0100
1000
0001
0100
0001
1000
0010
0100
0000
0001
0000
4000
0000
3000
0000
,
0020
0000
0000
0000
0130
0000
0001
0000
1000
0000
0001
0000
0000
0100
0000
0000
,
0010
0000
0000
1000
0000
0000
0001
0000
0100
0000
0000
0000
0010
0000
1000
0000
,
0001
0010
0100
1000
0010
1000
0001
0100
,
0010
0000
0000
1000
0000
0000
0010
0000
0000
0100
0000
0000
0001
0000
1000
0000
0100
0000
0010
0000
0001
0000
1000
0000
,
0010
0100
0010
1000
0001
0100
0001
0010
0100
1000
0010
0100
,
0001
1000
0010
1000
0001
0100
0010
0100
0001
1000
0100
1000
,
0001
0100
0010
1000
0001
0010
0001
0100
0010
1000
0010
0100
,
0001
0000
1000
0000
0100
0000
0010
0000
0001
0000
0100
0000
0001
0000
1000
0000
0010
0000
0100
0000
0000
0010
0000
0000
,
1000
0001
0100
0010
0100
0001
1001
1000
,
0010
0100
0001
0010
0001
1000
1010
0010
,
0100
0001
0011
0010
0100
1000
0010
0100
,
0001
0000
0100
0000
0010
1000
0001
0100
0001
1000
0100
0010
0001
0000
1000
0000
,
0010
0100
0001
1000
0010
1000
0001
0100
,
0010
1000
0001
0010
0100
1000
0001
0010
,
0001
1000
0100
0010
0001
1000
0010
0100
,
0001
0000
0100
0000
0010
0000
1000
0000
0001
0000
0100
0000
0020
0030
4000
3000
,
0002
0000
0013
0000
0100
0000
1000
0000
0020
0000
0130
0000
0001
0000
0100
0000
0020
0000
4030
0000
0000
3000
0000
0000
1010
0000
0000
0000
1000
0000
0000
0000
,
0001
0010
0110
0100
1000
0001
1000
0100
,
0010
0000
0001
0000
1000
0010
1000
0001
0100
0010
0100
0001
1000
0000
0010
0000
,
0100
0001
1000
0100
1000
0010
0100
0001
,
1000
0100
1000
0001
0100
0010
0100
0001
,
1000
0000
0010
0000
1000
0000
0001
0000
0100
0000
0010
0000
1000
0000
0001
0100
,
0001
0000
1000
0000
0010
0000
0100
0000
0001
0000
1000
0000
0100
0010
0001
1000
,
0001
0100
0010
1000
0001
0010
0100
1000
0002
0000
1003
0000
1010
0000
0010
0000
,
0100
0001
1001
1000
0010
0100
0001
0010
,
0100
1000
0002
0000
0000
0000
1003
0010
,
0100
0010
1000
0001
0010
0001
1000
0100
,
0010
0000
0001
0000
1000
0000
0010
0000
0100
0000
0001
0000
1000
0100
1000
0000
,
0010
0000
0100
0000
0001
1000
0001
0000
0010
0000
0100
0000
1000
0010
1000
0001
,
0200
0000
0000
0000
0340
0000
0000
0000
0000
0000
0000
0000
1030
0100
1000
0000
,
0001
0000
0100
0000
0010
1000
0010
0000
0100
0000
0010
0000
1000
0001
0010
0001
,
0400
0000
0000
0000
0340
0000
0000
0000
1030
0100
1000
0000
0002
0000
0023
0000
,
0230
0000
2300
0000
3002
0000
0203
0000
0320
0000
2030
3200
2300
3002
0203
0320
,
0230
0302
2003
3020
2030
3002
0023
0230
2300
3020
0230
0302
1003
0000
0000
0000
,
0000
0000
0000
0000
0001
0000
0100
0000
0010
1000
0001
0010
0000
0100
1000
0000
,
0010
0100
0000
0001
1000
0010
0100
0000
0001
0000
1000
0000
0100
0000
0010
0000
,
0001
1000
0000
1000
0000
0010
0100
0000
0001
0000
1000
0010
0000
0100
0001
0000
,
1000
0001
0000
0010
0000
0100
1000
0000
0001
0000
0100
0000
0020
0000
0000
0000
,
1030
0001
0010
0200
,
1300
0001
1000
0020
,
0130
0001
0100
0020
,
1030
0000
0200
0000
1300
0000
0001
1000
,
0010
0100
0001
0100
0010
1000
0001
0010
,
0001
0000
1000
0000
0100
0000
0010
0000
0001
0000
1000
0000
0010
0100
0010
1000
,
0001
0100
0001
1000
0100
0010
0001
1000
0010
0100
0010
1000
0000
0001
1000
0000
,
0010
2000
3001
0100
0010
0100
0001
1000
,
0010
0100
0001
1000
0100
0010
0001
0100
,
0010
1000
0001
0010
0001
1000
0100
0010
,
0001
1000
0010
1000
0001
0100
0010
0100
,
0001
1000
0010
1000
0100
0010
0001
0100
,
0010
1000
0001
0010
0001
1000
0100
0010
,
0001
1000
0010
1000
0001
0100
0010
0100
,
0001
0000
1000
0000
0100
0000
1000
0000
0001
0100
0010
1000
0020
0000
0000
0000
,
0430
0000
0301
1000
0010
1000
0100
0010
,
0001
0100
0010
0100
0001
1000
0010
1000
,
0001
0100
0010
0100
0001
1000
0100
0010
,
0001
1000
0001
0100
0010
0100
0001
4000
,
3010
0400
0301
1000
0100
0010
0001
1000
,
0010
0100
0010
1000
0001
0100
0010
0100
,
0001
1000
0100
1000
0001
0010
0100
1000
,
0001
0000
1000
0000
0010
0000
0100
0000
0001
1000
0001
0100
0020
0000
2030
0000
,
3001
0010
0100
1000
0010
1000
0001
0100
,
0010
0000
0100
0000
0001
0000
1000
0000
0100
0000
1000
0000
0001
0100
0010
1000
,
0010
0000
0100
0000
0001
0000
1000
0000
0001
0000
0100
0010
0100
0000
0002
0000
,
0000
0000
1003
0000
0100
0000
0010
0000
0001
1000
0001
0000
0100
0010
0100
0000
,
0001
1000
0100
1000
0010
0100
0001
1000
,
0010
0000
1000
0000
0001
0000
0100
0000
0001
0000
1000
0000
0100
0010
0001
1000
,
0001
0100
0010
0100
0001
1000
0100
1000
,
0001
0000
0010
0000
0100
1000
0001
1000
0020
0000
0000
0000
0430
0000
0000
0000
,
0301
0000
1000
0000
0010
1000
0001
0100
0001
0000
0040
0000
0130
1000
0001
1000
,
0010
0000
0400
0000
0310
0000
4000
0000
3001
0100
0004
0000
1003
0100
1000
0010
,
0100
0000
0001
0000
1000
0010
0100
0001
0100
0000
0040
0000
1030
0001
4000
0000
,
0000
3010
0100
0004
0000
0043
0130
4000
,
3010
0000
0100
0000
0010
1000
0001
0100
0001
0000
0040
0000
0130
1000
0100
0010
,
0001
0000
4000
0000
3010
0000
0400
0000
0301
1000
0004
0000
0013
0000
0400
0000
,
1300
0001
0100
0000
0010
1000
0000
0001
,
2000
0000
3400
0000
0340
0000
0032
4003
3040
0430
0340
4030
3002
0023
0230
2300
,
3020
0000
0030
0000
,
0000
0000
0000
0000
,
0000
0000
0000
0000
,
0000
0000
0000
0000
,
0000
0000
0000
0000
,
0000
0000
0000
0000
,
0000
0000
0000
0000
,
0000
0000
0000
0000
;

//---------------dance-single - 19.26 (19) (owenviau----------------
#NOTES:
     dance-single:
     19.26 (19) (owenviau:
     Challenge:
     19:
     1.000,1.000,0.201,0.505,1.000,1991.000,43.000,108.000,5.000,0.000:
1000
0100
0010
0001
1000
0010
0100
0001
0100
0010
1000
0001
1000
0010
0100
0001
,
1000
0100
1000
0001
0100
0010
1000
0001
0010
0001
0100
0010
1000
0001
0010
0100
,
1000
0001
0100
0001
1000
0010
0100
0001
0100
0010
1000
0001
0010
0001
1000
0100
,
0010
0001
0100
0010
0100
0001
1000
0010
0100
0001
0100
0010
1000
0001
1000
0100
,
0010
0001
0100
0010
0100
0001
1000
0010
1000
0001
0100
0010
1000
0001
0010
0001
,
0100
0010
1000
0001
0100
0001
1000
0100
0010
0001
0100
0010
1000
0010
0100
0001
,
1000
0001
0100
0010
0100
0001
1000
0010
1000
0100
0010
0001
0100
0010
1000
0001
,
0100
0001
0010
0100
1000
0001
0100
0010
0100
0001
1000
0010
1000
0001
0100
0010
,
1000
0001
0010
0001
1000
0100
0010
0001
0100
0010
0100
0001
1000
0010
1000
0001
,
0100
0010
1000
0010
0100
0001
1000
0100
0010
0001
0100
0001
1000
0010
0100
0010
,
1000
0001
0010
0001
0100
0010
1000
0010
0100
0001
1000
0100
1000
0001
0100
0010
,
1000
0001
0010
0001
0100
0010
1000
0010
0100
0001
1000
0100
1000
0010
0100
0001
,
1000
0100
0010
0001
0100
0010
0100
0001
1000
0010
0100
0010
1000
0001
0100
0001
,
0010
0100
1000
0001
0010
0001
0100
0010
1000
0001
0100
0001
1000
0010
0100
0001
,
0100
0010
1000
0001
0010
0100
1000
0001
0100
0010
0100
0001
1000
0010
1000
0100
,
0010
0001
1000
0100
1000
0001
0100
0010
0100
0001
1000
0100
0010
0001
0100
0001
,
1000
0100
0010
0001
1000
0010
0100
0001
,
1001
1000
0010
0100
0001
0010
0001
1000
,
1010
0010
0100
0001
0011
0010
0100
1000
,
0010
0000
0100
0000
0001
0000
0100
0000
0010
1000
0001
0100
0001
1000
0100
0010
,
0001
1000
0010
0100
0001
1000
0010
1000
,
0001
0100
0010
1000
0001
0010
0100
1000
,
0001
0010
0001
1000
0100
0010
0001
1000
,
0010
0100
0001
0100
0010
1000
0001
0100
,
0020
0030
1000
0000
0020
0030
0100
0000
0002
1003
0001
0000
0020
0030
0100
0000
,
1010
1000
0001
0010
0110
0100
1000
0001
,
1000
0000
0100
0000
0010
0000
0001
0000
1000
0010
1000
0001
0100
0010
0100
0001
,
1000
0010
0100
0001
1000
0100
1000
0010
,
0100
0001
1000
0100
1000
0001
0100
0010
,
0100
0001
1000
0010
1000
0001
0100
0001
,
1000
0000
0010
0100
0010
0000
1000
0000
0001
0000
0010
0000
0001
0000
1000
0000
,
0100
0010
0001
1000
0010
0100
0002
1003
,
1010
0010
0100
0001
1001
1000
0010
0100
,
0001
0010
0100
1000
0002
0000
0000
0000
,
1003
0010
0100
0010
1000
0001
0010
0001
,
1000
0100
0010
0001
1000
0010
0100
0001
,
1000
0100
1000
0000
0010
0000
0100
0000
0001
1000
0001
0000
0010
0000
0100
0000
,
1000
0010
1000
0001
0200
0000
0000
0000
0340
0000
0000
0000
0000
0000
0000
0000
,
1030
0100
1000
0000
0001
0000
0100
0000
0010
1000
0010
0000
0100
0000
0010
0000
,
1000
0001
0010
0001
0400
0000
0000
0000
0340
0000
0000
0000
1030
0100
1000
0000
,
0002
0000
0023
0000
0230
0000
2300
0000
3002
0000
0203
0000
0320
0000
2030
3200
,
2300
3002
0203
0320
0230
0302
2003
3020
2030
3002
0023
0230
2300
3020
0230
0302
,
1003
0010
0100
0001
1000
0100
1000
0010
0100
0001
1000
0100
0010
0001
1000
0010
,
0100
0001
1000
0100
1000
0010
0100
0001
1000
0100
0010
0001
1000
0010
0100
0001
,
1000
0010
0100
0010
1000
0001
0010
0001
1000
0100
0010
0001
1000
0010
0100
0001
,
0100
0010
1000
0001
0010
0001
1000
0100
1000
0001
0100
0010
1000
0001
0010
0100
,
1100
0000
1000
0010
0100
0000
0001
0000
1000
0100
1000
0000
0001
0100
0010
1000
,
0010
0100
0001
1000
0100
0010
0001
1000
0100
1000
0010
0100
0001
1000
0100
1000
,
0001
0010
0001
0100
0010
1000
0001
0010
0100
1000
0001
0100
0001
1000
0010
0100
,
0001
1000
0010
1000
0100
0010
0001
0100
0010
1000
0001
1000
0100
0010
0001
1000
0010
0100
0010
1000
0001
0100
0001
1000
0020
0000
0000
0000
0000
0000
0000
0000
,
1030
0000
0001
0100
0000
0010
1000
0001
1000
0000
0100
0010
0000
0001
1000
0010
,
1000
0000
0001
0100
0000
0010
1000
0100
1000
0000
0001
0010
0000
0100
1000
0001
,
0100
0000
0010
1000
0000
0001
0010
0100
1000
0000
0001
0100
0000
0010
1000
0001
,
1000
0000
0100
0010
0000
0001
1000
0010
1000
0000
0001
0100
0000
0010
1000
0100
,
1000
0000
0001
0010
0000
0100
1000
0001
0100
0000
0010
1000
0000
0001
0010
0100
,
1000
0000
0001
0100
0000
0010
1000
0001
1000
0000
0100
0010
0000
0001
1000
0010
,
1000
0000
0001
0100
0000
0010
1000
0100
1000
0000
0001
0010
0000
0100
1000
0001
,
0100
0010
0100
0001
1000
0010
1000
0001
0100
0010
1000
0001
0010
0001
1000
0100
0010
0001
1000
0010
0100
0001
0100
0010
2000
0000
0000
0000
0000
0000
0000
0000
,
3001
0000
0100
0000
0010
1000
0000
0001
0000
0100
0010
0000
1000
0000
0001
0010
,
0000
0100
1000
0000
0010
1000
0000
0001
0000
0010
0100
0000
1000
0000
0010
0000
,
0100
0000
0001
0000
1000
0010
0000
0100
0000
0001
1000
0000
0100
0000
1000
0010
,
0000
0100
0001
0000
1000
0100
0000
1000
0000
0010
0100
0000
0001
0000
1000
0000
,
0001
0100
0010
0100
0001
1000
0010
1000
,
0001
0100
0010
1000
0001
0010
0100
1000
,
0001
0100
0010
1000
0010
0100
0001
1000
0100
1000
0010
0100
0001
1000
0010
1000
,
0100
0010
0001
1000
0010
0100
0001
1000
0001
0100
0010
1000
0010
0100
0001
1000
0000
0000
0001
0000
0100
0000
0000
0000
0010
0000
0000
0000
0200
0000
0000
0000
,
0301
1000
0010
0100
0010
1000
0001
0100
,
0001
1000
0100
0010
0001
0100
0010
1000
,
0001
0010
0001
1000
0100
0010
0001
1000
,
0010
1000
0001
0100
0010
0100
0001
1000
,
0010
1000
0100
0010
0001
0100
0010
1000
,
0001
0010
0001
1000
0100
0010
0001
1000
,
0010
1000
0001
0100
0010
0100
0001
1000
,
0100
0000
1000
0000
0001
0100
0010
1000
0020
0000
0000
0000
0430
0000
0000
0000
,
0301
1000
0001
0010
0100
1000
0001
0100
,
0010
0000
0100
0000
0001
0000
1000
0000
0100
0000
1000
0000
0010
0100
0001
1000
,
0001
0000
0010
0000
0100
0000
1000
0000
0001
0000
0100
0010
0100
0000
0002
0000
,
0000
0000
1003
0000
0100
0000
0010
0000
0001
1000
0001
0000
0100
0010
0100
0000
,
0001
0000
1000
0000
0010
0100
0001
1000
0001
0000
0100
0010
0100
0001
1000
0000
,
0100
0000
0040
0000
0031
0000
4000
0000
3010
0100
0040
0000
0000
0000
0000
0000
,
1030
0001
0100
0000
0010
1000
0000
0001
,
0000
0010
0100
0000
2000
0000
3001
0000
,
0100
0010
0100
0001
1000
0010
1000
0001
0100
0010
1000
0001
0010
0001
0100
0010
,
1000
0001
0010
0001
0100
0010
1000
0001
0010
0001
1000
0010
0100
0010
1000
0001
,
0100
0001
0010
0100
1000
0001
0100
0010
1000
0001
1000
0100
0010
0001
0100
0010
,
0100
0001
1000
0100
1000
0010
0100
0001
0100
0010
1000
0001
1000
0100
0010
0001
,
1000
0010
0100
0001
0100
0010
1000
0001
0010
0001
0100
0010
1000
0001
0010
0100
,
1000
0001
0010
0001
0100
0010
1000
0010
0100
0001
1000
0001
0100
0010
0100
0001
,
1000
0100
1000
0010
0100
0001
1000
0100
0010
0001
0100
0001
1000
0010
0100
0010
,
1000
0001
0100
0001
0010
0100
1000
0001
0100
0010
0100
0001
1000
0010
1000
0100
,
0010
0001
0100
0010
0100
0001
1000
0010
1000
0100
0010
0001
1000
0010
1000
0001
,
0100
0010
1000
0001
0010
0001
0100
0010
1000
0001
0010
0001
0100
0010
1000
0001
,
0010
0001
1000
0010
0100
0010
1000
0001
0100
0001
0010
0100
1000
0001
0100
0010
,
1000
0001
1000
0100
0010
0001
0100
0010
0100
0001
1000
0100
1000
0010
0100
0001
,
0100
0010
1000
0001
1000
0100
0010
0001
1000
0010
0100
0001
0100
0010
1000
0001
,
0010
0001
0100
0010
1000
0001
0010
0100
1000
0001
0010
0001
0100
0010
1000
0010
,
0100
0001
1000
0001
0100
0010
0100
0001
1000
0100
1000
0010
0100
0001
1000
0100
,
0010
0001
1000
0010
0100
0002
0000
0000
2003
0000
3M10
0000
01M0
0001
1000
0001
,
0100
0000
0010
1000
0001
0000
1000
0100
200M
0000
3010
0000
M100
0000
00M2
1003
,
0002
0000
0003
0000
0010
0000
0100
0000
4000
0000
0000
0000
3010
0000
0100
0000
0002
0000
1000
0000
0000
0000
2000
0000
0003
3000
1000
0000
0020
0000
0030
0000
,
1000
0100
0010
0001
1000
0010
1000
0001
0200
0000
0000
0000
0310
1000
0001
0100
,
0001
0010
0100
1000
0001
0100
0010
0100
0001
0000
1000
0000
0020
0000
0000
0000
,
0130
0001
1000
0100
1000
0010
0100
0001
2000
0000
0000
0000
3100
0010
0001
1000
,
0010
0100
0010
1000
0001
0100
0001
1000
0010
0000
0100
0000
0002
0000
0003
0000
,
1000
0000
0000
0000
0100
0000
0010
0000
0001
0000
0000
0000
1000
0000
0040
0030
0100
0000
0000
0000
0004
0003
1000
0000
0010
0000
0400
0300
0001
0000
1000
0000
,
0100
0000
0000
0000
0020
0000
0031
0000
2000
0000
0000
0000
3010
0000
0400
0300
0001
0000
1000
0000
0040
0030
1000
0000
0002
0000
0000
0000
0203
0000
0300
0000
,
0010
1000
0001
0100
0001
0010
0100
1000
0002
0000
0000
0000
0103
0010
1000
0100
,
1000
0001
0100
0010
1000
0001
0010
0001
0100
0000
0010
0000
2000
0000
0000
0000
,
3001
0010
0100
1000
0010
0100
0010
1000
0002
0000
0000
0000
0103
0010
1000
0001
,
0010
0100
1000
0001
0100
0001
1000
0010
0100
0000
0001
0000
4000
0000
3000
0000
,
0020
0000
0000
0000
0130
0000
0001
0000
1000
0000
0001
0000
0000
0100
0000
0000
,
0010
0000
0000
1000
0000
0000
0001
0000
0100
0000
0000
0000
0010
0000
1000
0000
,
0001
0010
0100
1000
0010
0100
0001
0100
,
0010
0000
0000
0000
0000
0000
1000
0000
0000
0000
0000
0000
0001
0000
0000
0000
0100
0000
0000
0000
0001
0000
0000
0000
1000
0000
0000
0100
0000
0000
0010
0000
0000
0001
0000
0000
1000
0000
0000
0010
0000
0000
0100
0000
0000
0001
0000
0000
,
0100
0010
1000
0001
0010
0001
0100
0010
1000
0001
0010
0001
0100
0010
0100
0001
,
1000
0010
1000
0100
0010
0001
0100
0010
0100
0001
1000
0010
1000
0001
0100
0010
,
1000
0010
0100
0001
1000
0100
0010
0001
0100
0010
0100
0001
1000
0100
1000
0010
,
0100
0001
1000
0100
0010
0001
1000
0100
1000
0010
0100
0001
1000
0000
0010
0000
,
1000
0001
0100
0010
0100
0001
1001
1000
,
0010
0100
0001
0010
0001
1000
1010
0010
,
0100
0001
0011
0010
0100
1000
0010
0100
,
0001
0000
0100
0000
0010
1000
0001
0100
0001
1000
0100
0010
0001
0000
1000
0000
,
0010
0100
0001
1000
0010
1000
0001
0100
,
0010
1000
0001
0010
0100
1000
0001
0010
,
0001
1000
0100
0010
0001
1000
0010
0100
,
0001
0000
0100
0000
0010
0000
1000
0000
0001
0000
0100
0000
0020
0030
4000
3000
,
0002
0000
0013
0000
0100
0000
1000
0000
0020
0000
0130
0000
0001
0000
0100
0000
0020
0000
4030
0000
0000
3000
0000
0000
1010
0000
0000
0000
1000
0000
0000
0000
,
0001
0010
0110
0100
1000
0001
1000
0100
,
0010
0000
0001
0000
1000
0010
1000
0001
0100
0010
0100
0001
1000
0000
0010
0000
,
0100
0001
1000
0100
1000
0010
0100
0001
,
1000
0100
1000
0001
0100
0010
0100
0001
,
1000
0000
0010
0000
1000
0000
0001
0000
0100
0000
0010
0000
1000
0000
0001
0100
,
0001
0000
1000
0000
0010
0000
0100
0000
0001
0000
1000
0000
0100
0010
0001
1000
,
0001
0100
0010
1000
0001
0010
0100
1000
0002
0000
1003
0000
1010
0000
0010
0000
,
0100
0001
1001
1000
0010
0100
0001
0010
,
0100
1000
0002
0000
0000
0000
1003
0010
,
0100
0010
1000
0001
0010
0001
1000
0100
,
0010
0000
0001
0000
1000
0000
0010
0000
0100
0000
0001
0000
1000
0100
1000
0000
,
0010
0000
0100
0000
0001
1000
0001
0000
0010
0000
0100
0000
1000
0010
1000
0001
,
0200
0000
0000
0000
0340
0000
0000
0000
0000
0000
0000
0000
1030
0100
1000
0000
,
0001
0000
0100
0000
0010
1000
0010
0000
0100
0000
0010
0000
1000
0001
0010
0001
,
0400
0000
0000
0000
0340
0000
0000
0000
1030
0100
1000
0000
0002
0000
0023
0000
,
0230
0000
2300
0000
3002
0000
0203
0000
0320
0000
2030
3200
2300
3002
0203
0320
,
0230
0302
2003
3020
2030
3002
0023
0230
2300
3020
0230
0302
1003
0000
0000
0000
,
0000
0000
0000
0000
0001
0000
0100
0000
0010
1000
0001
0010
0000
0100
1000
0000
,
0010
0100
0000
0001
1000
0010
0100
0000
0001
0000
1000
0000
0100
0000
0010
0000
,
0001
1000
0000
1000
0000
0010
0100
0000
0001
0000
1000
0010
0000
0100
0001
0000
,
1000
0001
0000
0010
0000
0100
1000
0000
0001
0000
0100
0000
0020
0000
0000
0000
,
1030
0001
0010
0200
,
1300
0001
1000
0020
,
0130
0001
0100
0020
,
1030
0000
0200
0000
1300
0000
0001
1000
,
0010
0100
0001
0100
0010
1000
0001
0010
,
0001
0000
1000
0000
0100
0000
0010
0000
0001
0000
1000
0000
0010
0100
0010
1000
,
0001
0100
0001
1000
0100
0010
0001
1000
0010
0100
0010
1000
0000
0001
1000
0000
,
0010
2000
3001
0100
0010
0100
0001
1000
,
0010
0100
0001
1000
0100
0010
0001
0100
,
0010
1000
0001
0010
0001
1000
0100
0010
,
0001
1000
0010
1000
0001
0100
0010
0100
,
0001
1000
0010
1000
0100
0010
0001
0100
,
0010
1000
0001
0010
0001
1000
0100
0010
,
0001
1000
0010
1000
0001
0100
0010
0100
,
0001
0000
1000
0000
0100
0000
1000
0000
0001
0100
0010
1000
0020
0000
0000
0000
,
0430
0000
0301
1000
0010
1000
0100
0010
,
0001
0100
0010
0100
0001
1000
0010
1000
,
0001
0100
0010
0100
0001
1000
0100
0010
,
0001
1000
0001
0100
0010
0100
0001
4000
,
3010
0400
0301
1000
0100
0010
0001
1000
,
0010
0100
0010
1000
0001
0100
0010
0100
,
0001
1000
0100
1000
0001
0010
0100
1000
,
0001
0000
1000
0000
0010
0000
0100
0000
0001
1000
0001
0100
0020
0000
2030
0000
,
3001
0010
0100
1000
0010
1000
0001
0100
,
0010
0000
0100
0000
0001
0000
1000
0000
0100
0000
1000
0000
0001
0100
0010
1000
,
0010
0000
0100
0000
0001
0000
1000
0000
0001
0000
0100
0010
0100
0000
0002
0000
,
0000
0000
1003
0000
0100
0000
0010
0000
0001
1000
0001
0000
0100
0010
0100
0000
,
0001
1000
0100
1000
0010
0100
0001
1000
,
0010
0000
1000
0000
0001
0000
0100
0000
0001
0000
1000
0000
0100
0010
0001
1000
,
0001
0100
0010
0100
0001
1000
0100
1000
,
0001
0000
0010
0000
0100
1000
0001
1000
0020
0000
0000
0000
0430
0000
0000
0000
,
0301
0000
1000
0000
0010
1000
0001
0100
0001
0000
0040
0000
0130
1000
0001
1000
,
0010
0000
0400
0000
0310
0000
4000
0000
3001
0100
0004
0000
1003
0100
1000
0010
,
0100
0000
0001
0000
1000
0010
0100
0001
0100
0000
0040
0000
1030
0001
4000
0000
,
0000
3010
0100
0004
0000
0043
0130
4000
,
3010
0000
0100
0000
0010
1000
0001
0100
0001
0000
0040
0000
0130
1000
0100
0010
,
0001
0000
4000
0000
3010
0000
0400
0000
0301
1000
0004
0000
0013
0000
0400
0000
,
1300
0001
0100
0000
0010
1000
0000
0001
,
2000
0000
3400
0000
0340
0000
0032
4003
3040
0430
0340
4030
3002
0023
0230
2300
,
3020
0000
0030
0000
,
0000
0000
0000
0000
,
0000
0000
0000
0000
,
0000
0000
0000
0000
,
0000
0000
0000
0000
,
0000
0000
0000
0000
,
0000
0000
0000
0000
,
0000
0000
0000
0000
;

//---------------dance-single - ----------------
#NOTES:
     dance-single:
     :
     Medium:
     11:
     1.000,1.000,0.070,0.210,0.392,1517.000,15.000,45.000,5.000,0.000:
1000
0100
1000
0100
0010
0001
0010
0001
,
0100
0010
0100
0010
1000
0001
0100
0010
,
1000
0001
0010
0100
1000
0100
0010
0001
,
0100
0010
1000
0010
1000
0001
0100
0010
,
1000
0001
0010
0001
0100
0010
1000
0001
,
0100
0010
1000
0001
0100
0010
1000
0001
,
0100
0010
1000
0100
0010
0100
1000
0001
,
0100
0010
1000
0001
0100
0010
1000
0001
,
0100
0010
1000
0001
0010
0001
0100
0010
,
1000
0001
0100
0010
1000
0001
0100
0010
,
1000
0001
0010
0100
1000
0100
0010
0001
,
1000
0010
0100
0001
0100
0010
1000
0001
,
0010
0100
0010
0100
1000
0001
1000
0001
,
0100
0010
0100
0010
1000
0001
1000
0010
,
0100
0001
0100
0010
1000
0100
1000
0001
,
0100
0010
1000
0001
0100
0010
1000
0000
,
1000
0100
0010
0001
1000
0010
0100
0001
,
1000
0010
0100
0001
0010
0001
1000
0010
,
1000
0010
0100
0001
0010
0100
1000
0010
,
0100
0001
0100
0010
1000
0100
0010
0001
,
1000
0001
0100
0010
1000
0001
0100
0001
,
1000
0010
0100
0001
1000
0100
0010
0001
,
1000
0100
1000
0001
0010
0100
1000
0001
,
0100
0010
1000
0010
0100
0001
1000
0010
,
0020
0030
1000
0000
0020
0030
0100
0000
0002
1003
0001
0000
0020
0030
0100
0000
,
1000
0001
0010
0100
1000
0100
1000
0001
,
1000
0100
0010
0001
1000
0010
0100
0001
,
1000
0010
0100
0001
1000
0100
1000
0010
,
0100
0001
1000
0100
1000
0001
0100
0010
,
0100
0001
1000
0010
1000
0001
0100
0001
,
1000
0010
0100
0001
0010
0001
1000
0100
,
0010
0001
1000
0010
0100
0001
1000
0010
,
1000
0010
0100
0001
1000
0010
0100
0001
,
0010
0100
1000
0000
0002
0000
0000
0000
,
1003
0010
0100
0010
1000
0001
0010
0001
,
1000
0100
0010
0001
1000
0010
0100
0001
,
1000
0000
0010
0100
0001
0000
0010
0100
,
1000
0001
0200
0000
0340
0000
0000
0000
,
1030
0000
0001
0100
0010
0000
0100
0010
,
1000
0001
0200
0000
0320
0000
1030
0001
,
1000
0010
0100
0001
0100
0010
1000
0010
,
0400
0000
0000
0000
,
1300
0010
0100
0001
1000
0100
1000
0010
0100
0001
1000
0100
0010
0001
1000
0010
,
0100
0001
1000
0100
1000
0010
0100
0001
1000
0100
0010
0001
1000
0010
0100
0001
,
1000
0010
0100
0010
1000
0001
0010
0001
1000
0100
0010
0001
1000
0010
0100
0001
,
0100
0010
1000
0001
0010
0001
1000
0100
1000
0001
0100
0010
1000
0001
0010
0100
,
1000
0000
1000
0010
0100
0000
0001
0000
1000
0100
1000
0000
0001
0100
0010
1000
,
0010
0100
0001
1000
0100
0010
0001
1000
0100
1000
0010
0100
0001
1000
0100
1000
,
0001
0010
0001
0100
0010
1000
0001
0010
0100
1000
0001
0100
0001
1000
0010
0100
,
0001
0100
0010
1000
0100
1000
0002
0000
,
1003
0000
0001
0100
0000
0010
1000
0001
1000
0000
0100
0010
0000
0001
1000
0010
,
1000
0000
0001
0100
0000
0010
1000
0100
1000
0000
0001
0010
0000
0100
1000
0001
,
0100
0000
0010
1000
0000
0001
0010
0100
1000
0000
0001
0100
0000
0010
1000
0001
,
1000
0000
0100
0010
0000
0001
1000
0010
1000
0000
0001
0100
0000
0010
1000
0100
,
1000
0000
0001
0010
0000
0100
1000
0001
0100
0000
0010
1000
0000
0001
0010
0100
,
1000
0000
0001
0100
0000
0010
1000
0001
1000
0000
0100
0010
0000
0001
1000
0010
,
1000
0000
0001
0100
0000
0010
1000
0100
1000
0000
0001
0010
0000
0100
1000
0001
,
1000
0100
0010
0001
0010
0100
2000
0000
,
3001
0000
0100
0000
0010
1000
0000
0001
0000
0100
0010
0000
1000
0000
0001
0010
,
0000
0100
1000
0000
0010
1000
0000
0001
0000
0010
0100
0000
1000
0000
0010
0000
,
0100
0000
0001
0000
1000
0010
0000
0100
0000
0001
1000
0000
0100
0000
1000
0010
,
0000
0100
0001
0000
1000
0100
0000
1000
0000
0010
0100
0000
0001
0000
1000
0000
,
0001
0100
0010
0100
0001
1000
0010
1000
,
0001
0100
0010
1000
0001
0010
0100
1000
,
0001
0100
0010
1000
0010
0100
0001
1000
0100
1000
0010
0100
0001
1000
0010
1000
,
0010
0000
1000
0000
0100
0000
1000
0000
0001
0100
0010
0000
1000
0000
0010
0000
,
0001
1000
0010
0100
0010
1000
0001
0100
,
0001
1000
0100
0010
0001
0100
0010
1000
,
0001
0010
0001
1000
0100
0010
0001
1000
,
0010
1000
0001
0100
0010
0100
0001
1000
,
0010
1000
0100
0010
0001
0100
0010
1000
,
0001
0010
0001
1000
0100
0010
0001
1000
,
0010
1000
0001
0100
0010
0100
0001
1000
,
0100
1000
0001
0100
0020
0000
2030
0000
,
3001
1000
0001
0010
0100
1000
0001
0100
,
0010
0100
0001
1000
0100
1000
0010
0100
,
0001
0010
0100
1000
0001
0100
0010
2000
,
0000
3001
0100
0010
1000
0001
0010
0100
,
1000
0010
0100
0001
0100
0010
1000
0100
,
0010
0001
1000
0010
0100
0040
0000
0000
,
1030
0001
0100
0000
0010
1000
0000
0001
,
0000
0010
0100
0000
2000
0000
3001
0000
,
0010
1000
0010
0001
0100
0010
1000
0100
,
0010
0100
1000
0001
0100
0010
1000
0100
,
0010
0100
1000
0001
0010
0100
1000
0001
,
0100
0010
0100
0001
1000
0100
0010
0100
,
0010
0001
0100
1000
0100
0001
0100
0010
,
1000
0100
0010
0001
0010
0100
1000
0001
,
0100
0010
1000
0100
1000
0001
0100
0010
,
1000
0100
0010
0001
0100
0010
0100
0001
,
0100
0010
1000
0100
1000
0001
0100
0001
,
0100
0010
1000
0100
1000
0001
0100
0010
,
0001
0010
0100
0001
0100
0010
1000
0100
,
0010
0001
0010
0100
1000
0001
0100
0010
,
1000
0100
0010
0100
1000
0001
0100
0010
,
1000
0100
0010
0100
1000
0001
0100
0010
,
1000
0001
0010
0100
1000
0001
0100
0010
,
1000
0000
0010
0000
0100
0002
0000
0000
2003
0000
3M10
0000
01M0
0001
1000
0001
,
0100
0000
0010
1000
0001
0000
1000
0100
200M
0000
3010
0000
M100
0000
00M2
1003
,
0002
0000
0003
0000
0010
0000
0100
0000
4000
0000
0000
0000
3010
0000
0100
0000
0002
0000
1000
0000
0000
0000
2000
0000
0003
3000
1000
0000
0020
0000
0030
0000
,
1000
0001
1000
0001
1000
0010
0100
0000
,
0010
0100
0010
0100
0010
0000
1000
0001
,
1000
0001
0100
0010
1000
0000
0001
0010
,
0001
1000
0010
0100
0001
0000
1001
0000
,
1000
0000
0000
0000
0100
0000
0010
0000
0001
0000
0000
0000
1000
0000
0040
0030
0100
0000
0000
0000
0004
0003
1000
0000
0010
0000
0400
0300
0001
0000
1000
0000
,
0100
0000
0000
0000
0020
0000
0031
0000
2000
0000
0000
0000
3010
0000
0400
0300
0001
0000
1000
0000
0040
0030
1000
0000
0002
0000
0000
0000
0203
0000
0300
0000
,
0010
1000
0010
1000
0010
1000
0010
0000
,
0100
0001
0100
0001
0010
0000
0001
0000
,
0001
1000
0001
0100
0001
0000
0001
0010
,
0001
1000
0001
0100
0001
1000
0001
0000
,
1001
0010
0100
0010
,
1000
0000
0001
0000
0100
0000
0010
1000
,
0001
0010
0100
1000
0010
1000
0001
0100
,
0010
1000
0010
0100
0010
1000
0001
0100
,
0010
1000
0100
0010
0100
1000
0001
0100
,
0010
1000
0100
1000
0001
0100
0010
1000
,
0100
0010
0100
1000
0001
0100
0010
1000
,
0100
0010
0100
1000
0001
1000
0100
0010
,
0001
0100
0010
1000
0100
0010
0001
1000
,
0010
0100
0001
0010
0001
1000
0100
0010
,
0001
0010
0001
0010
0100
1000
0010
0100
,
0001
0100
0010
1000
0100
1000
0001
1000
,
0010
0100
0001
1000
0010
1000
0001
0100
,
0010
1000
0001
0010
0100
1000
0001
0010
,
0001
1000
0100
0010
0001
1000
0010
0100
,
0001
0000
0100
0000
0010
0000
1000
0000
0001
0000
0100
0000
0020
0030
4000
3000
,
0002
0000
0013
0000
0100
0000
1000
0000
0020
0000
0130
0000
0001
0000
0100
0000
0020
0000
4030
0000
0000
3000
0000
0000
0010
0000
0000
0000
1000
0000
0000
0000
,
0001
0010
0100
1000
0001
1000
0100
0010
,
0001
1000
0010
0100
0001
1000
0001
0010
,
0100
1000
0010
0100
0010
1000
0100
0010
,
0001
0100
0001
0100
0010
0100
0001
1000
,
0010
1000
0001
0100
0010
1000
0001
0100
,
0001
0000
1000
0000
0010
0000
0100
0000
0001
0000
1000
0000
0100
0010
0001
1000
,
0001
0100
0010
1000
0001
0010
0100
1000
0002
0000
1003
0000
1000
0000
0010
0000
,
0100
0001
1000
0010
0100
0001
0010
0100
,
1000
0001
2000
0000
0000
0000
3001
0010
,
0100
1000
0001
0010
0001
1000
0100
0010
,
0001
1000
0010
0100
0001
1000
0100
1000
,
0010
0100
0001
0010
0100
1000
0010
1000
,
0200
0000
0340
0000
0000
0000
1030
0100
,
0010
0001
0010
0100
1000
0010
1000
0010
,
0400
0000
0340
0000
1030
0001
0010
0100
,
1000
0001
0100
0010
1000
0001
0100
0010
,
1000
0100
0010
0100
1000
0001
1000
0000
,
0000
0000
0000
0000
0001
0000
0100
0000
0010
1000
0001
0010
0000
0100
1000
0000
,
0010
0100
0000
0001
1000
0010
0100
0000
0001
0000
1000
0000
0100
0000
0010
0000
,
0001
1000
0000
1000
0000
0010
0100
0000
0001
0000
1000
0010
0000
0100
0001
0000
,
1000
0001
0000
0010
0000
0100
1000
0000
0001
0000
0100
0000
0020
0000
0000
0000
,
1030
0001
0010
0200
,
1300
0001
1000
0020
,
0130
0001
0100
0020
,
1030
0000
0200
0000
1300
0000
0001
1000
,
0010
0100
0001
0100
0010
1000
0001
0010
,
0001
1000
0100
0010
0001
1000
0010
0100
,
0001
1000
0100
0010
0100
1000
0001
1000
,
0010
2000
3001
0100
0010
0100
0001
1000
,
0010
0100
0001
1000
0100
0010
0001
0100
,
0010
1000
0001
0010
0001
1000
0100
0010
,
0001
1000
0010
1000
0001
0100
0010
0100
,
0001
1000
0010
1000
0100
0010
0001
0100
,
0010
1000
0001
0010
0001
1000
0100
0010
,
0001
1000
0010
1000
0001
0100
0010
0100
,
0001
1000
0100
1000
0001
1000
0020
0000
,
0430
0000
0301
1000
0010
1000
0100
0010
,
0001
0100
0010
0100
0001
1000
0010
1000
,
0001
0100
0010
0100
0001
1000
0100
0010
,
0001
1000
0001
0100
0010
0100
0001
4000
,
3010
0400
0301
1000
0100
0010
0001
1000
,
0010
0100
0010
1000
0001
0100
0010
0100
,
0001
1000
0100
1000
0001
0010
0100
1000
,
0001
1000
0010
0100
0001
0100
0020
2030
,
3001
0010
0100
1000
0010
1000
0001
0100
,
0010
0100
0001
1000
0100
1000
0001
1000
,
0010
0100
0001
1000
0001
0100
0010
2000
,
0000
3100
0010
0001
1000
0001
0100
0010
,
1000
0100
1000
0010
0100
0001
1000
0010
,
1000
0001
0100
0001
1000
0100
0010
0001
,
0100
0010
1000
0100
0010
0001
0100
0010
,
1000
0010
0100
0001
0020
0000
0430
0000
,
0301
1000
0010
0100
0001
0040
0130
1000
,
0010
0400
0310
4000
3001
0010
0100
1000
,
0100
0010
0001
0100
0010
1000
0001
1000
,
0000
0010
0100
0001
0000
0010
0100
1000
,
0010
0100
0001
1000
0100
0010
0100
1000
,
0001
0100
0010
1000
0100
0010
0001
0100
,
0010
1000
0100
0000
0010
0100
0000
1000
,
0100
0010
0001
0100
0010
1000
0001
1000
,
0020
0000
0030
0000
;

//---------------dance-single - ----------------
#NOTES:
     dance-single:
     :
     Easy:
     6:
     0.505,0.790,0.294,0.033,0.000,686.000,63.000,7.000,0.000,0.000:
1000
0010
1000
0010
,
1000
0010
0100
0001
,
0010
0001
0100
0001
,
0010
0001
0100
0010
,
1000
0010
0100
0010
,
1000
0001
0100
0001
,
0010
0001
0100
0001
,
0010
0001
0100
0001
,
1001
0010
1000
0010
,
0100
0001
0010
0001
,
0100
0001
1000
0010
,
0100
0001
0010
0100
,
1000
0001
0100
0010
,
1000
0100
0001
1000
,
0001
0100
0001
0010
,
0001
0100
0001
1000
,
1001
0010
0100
0010
,
0110
1000
0100
1000
,
1100
0100
0110
0010
,
0011
0001
0101
0001
,
0001
1000
0010
0100
,
0001
1000
0100
0010
,
0001
1000
0010
0100
,
0001
0010
0001
1000
,
0010
0100
0001
1000
0100
1000
0001
1000
,
1010
1000
1010
1000
,
1010
1010
0101
0101
,
0001
0010
0001
0100
,
0010
1000
0010
0100
,
0001
0010
0100
1000
,
0001
0100
0010
1000
,
0010
0001
1000
0010
0100
0001
1000
0010
,
1010
0010
1010
0010
,
1010
0101
0101
0001
,
0010
0001
0100
0010
,
1000
0001
0100
0001
,
0010
0001
0100
0010
,
1000
0010
0100
0000
,
0001
0010
0001
1000
,
0001
0100
0010
1000
,
0001
0010
0100
1000
,
0020
0000
0000
0030
,
1000
0010
1000
0010
0100
0001
0100
0001
,
0010
0001
0010
0001
0100
0010
0100
0010
,
1000
0100
1000
0100
0010
0001
0010
0001
,
0100
0010
0100
0010
1000
0100
1000
0100
,
1100
0010
0100
0001
,
0010
0001
0100
0010
,
1000
0001
0010
0001
1000
0001
0100
0001
,
0100
0010
1000
0100
1000
0001
1000
0000
,
1010
0010
0100
0001
,
0010
0001
0100
0010
,
1000
0001
0100
0010
,
1000
0001
0100
0010
,
1000
0000
0001
0000
0100
0010
0100
0000
,
0001
0000
0010
0000
0001
1000
0001
0000
,
0100
0010
0100
0000
1000
0001
1000
0000
,
1000
0100
0010
0001
0010
0100
2000
0000
,
3001
0100
0010
1000
,
0001
0010
0001
0100
,
0010
1000
0010
0100
,
0001
0010
0001
0100
,
1001
0010
0100
0001
,
1000
0100
1000
0100
0010
0001
0010
0001
,
0100
0010
0100
0010
1000
0100
1000
0100
,
0020
0000
0030
0001
,
1001
0001
0100
0010
,
1000
0010
0100
0001
,
0010
0100
1000
0100
,
0010
0001
0100
0010
,
1000
0010
0100
0001
,
0010
0100
1000
0001
,
0100
0010
1000
0001
,
0100
0010
1000
0001
,
1001
0001
0100
0001
,
0010
0001
0100
0010
,
0110
0010
1000
0010
,
0100
0001
0010
0001
,
0100
0010
1000
0010
,
0100
0001
0010
0001
,
1000
0000
0000
0000
,
0000
0000
0000
0000
,
1001
0000
0000
0000
,
0001
0000
1000
0000
,
0010
0000
0100
0000
,
0001
0000
0010
0000
,
0100
0000
1000
0000
,
0001
0000
0100
0000
,
0010
0000
1000
0000
,
0001
0000
0010
0000
,
0100
1000
0100
1000
,
0001
0100
0001
0100
,
0010
1000
0010
1000
,
0001
0100
0001
0100
,
0001
0100
0001
0100
,
0001
0100
0001
1000
,
0001
0100
0010
1000
,
0100
0000
0010
0000
1000
0010
1000
0001
,
0100
0010
1000
0001
0100
0010
1000
0100
,
0010
0000
0001
0000
0100
0000
0010
0000
1000
0000
0010
0000
1000
0000
0020
0030
,
0100
0001
0100
0000
,
0010
1000
0010
0000
,
0100
0001
0100
0000
,
0010
1000
1001
0000
,
0001
1000
0010
0100
,
0101
0010
1000
0001
,
1001
0010
1001
0000
,
1001
0010
1001
0000
,
0110
0001
0110
0000
,
0001
1000
1001
0000
,
0010
0000
1000
0000
,
0001
0000
0000
0000
,
0000
0000
0000
0000
,
0000
0000
0000
0000
,
1000
0000
0001
0000
,
0100
0000
0010
0000
,
1000
0000
0001
0000
,
1000
0000
0001
1001
,
0000
0000
0000
1001
,
0000
0000
0000
1001
,
0000
0110
0000
0011
,
0011
1100
1100
0001
,
0100
0010
1000
0010
,
0100
0001
0010
0100
,
1000
0100
0010
0001
,
0100
0000
1010
0001
,
0100
0010
1000
1001
,
0000
0110
0000
1010
,
1010
1100
1100
0001
,
0100
0010
1000
0010
,
0100
0001
0010
0100
,
1000
0001
1000
0010
,
0100
0001
1000
1001
,
0100
0010
0100
1001
,
0000
0110
0000
0011
,
0011
1100
0000
1001
,
0001
0100
0001
0010
,
0001
0100
0010
0110
,
0010
1000
0010
1000
,
0010
0200
0000
0301
,
0010
0100
1000
0100
,
0010
0001
0100
0010
,
1000
0010
1000
0020
,
0000
0000
0000
1030
,
0000
0001
0000
0100
,
0000
0010
0000
1000
,
0000
0001
0000
1000
,
0000
0010
0000
1001
,
0000
0010
0000
0100
,
0000
0001
0000
0011
,
0000
0001
0000
1001
,
0000
0010
0000
1001
,
0000
0001
0000
1000
,
0000
0010
0000
0100
,
0000
0001
0000
1000
,
0000
1001
0001
0100
,
0000
0010
0000
1000
,
0000
0010
0000
0100
,
0000
0001
0000
0010
,
0100
1000
0100
0010
,
0000
0001
0000
0100
,
0000
0010
0000
1000
,
0000
0001
0000
0010
,
0100
1000
0100
0010
,
0001
0100
0010
1000
,
0010
0100
0001
0010
,
0100
1000
0100
0010
,
0100
0010
0100
0010
,
0001
1000
0001
1000
,
0001
0100
0001
0010
,
0001
0100
0001
0010
,
0100
1000
0100
1000
,
0100
0010
0100
0010
,
0001
0010
0001
0100
,
0001
1000
0001
0000
,
0100
0010
0100
0010
,
1000
0010
0100
0001
,
0010
0001
1000
0001
,
0010
0000
0000
0000
,
1001
0001
0100
0001
,
0010
0001
0100
0010
,
1000
0010
0100
0001
,
0010
0001
1000
0001
,
0010
0010
0010
0000
,
0100
0000
1000
0000
,
0001
0100
0010
1000
,
0001
0010
0100
0000
,
0020
0000
0000
0000
,
0030
0000
0000
0000
;

//---------------dance-single - 5(Braeden)----------------
#NOTES:
     dance-single:
     5(Braeden):
     Beginner:
     5:
     0.237,0.480,0.201,0.009,0.000,310.000,43.000,2.000,0.000,0.000:

0000
0000
0000
0000
,
0000
0000
0000
0000
,
0000
0000
0000
0000
,
0000
0000
0000
0000
,
1001
0000
0000
0000
,
0000
0000
0000
0000
,
0000
0000
0000
0000
,
0010
0000
0000
0000
,
1001
0000
0000
0000
,
0100
0000
0000
0000
,
0010
0000
0000
0000
,
0100
0000
0000
0000
,
1001
0000
0000
0000
,
0010
0000
0000
0000
,
0100
0000
0000
0000
,
1000
0000
0000
0000
,
1001
0000
0000
0000
,
1001
0000
0000
0000
,
0110
0000
0110
0000
,
1001
0000
1001
0000
,
0001
0000
0100
0000
,
0010
0000
1000
0000
,
0010
0000
0100
0000
,
0001
0000
0010
0000
,
0001
0000
0100
0000
,
1001
0000
1001
0000
,
0010
0010
0010
0000
,
0100
0000
0001
0000
,
0010
0000
0100
0000
,
1000
0000
0001
0000
,
0100
0000
0010
0000
,
1000
0000
0001
0000
,
1001
0000
0110
0000
,
1001
1001
1001
0000
,
1000
0000
0010
0000
,
0100
0000
0001
0000
,
0010
0000
0100
0000
,
1000
0000
1000
0000
,
0001
0000
0100
0000
,
0010
0000
1000
0000
,
0001
0000
1000
0000
,
0002
0000
0003
0000
,
1001
0000
1000
0000
,
0010
0000
0000
0000
,
0100
0000
0000
0000
,
0010
0000
0000
0000
,
1000
0000
0000
0000
,
0010
0000
0000
0000
,
0100
0000
0010
0000
,
0100
0000
0000
0000
,
1001
0000
0100
0000
,
0010
0000
1000
0000
,
0001
0000
0100
0000
,
0010
0000
1000
0000
,
0010
0000
0100
0000
,
0010
0000
0100
0000
,
0001
0000
0100
0000
,
0010
0000
1000
0000
,
1001
0000
0010
0000
,
0100
0000
0001
0000
,
0100
0000
0010
0000
,
0000
0000
0000
0000
,
1001
0000
0010
0000
,
0100
0000
0001
0000
,
0010
0000
0010
0000
,
0100
0000
1000
0000
,
1000
0000
0001
0000
,
0100
0000
0010
0000
,
1000
0000
0001
0000
,
0010
0000
0100
0000
,
1000
0000
0010
0000
,
0100
0000
0001
0000
,
0010
0000
0100
0000
,
1000
0000
0010
0000
,
0100
0100
0100
0000
,
0001
0000
0010
0000
,
0100
0000
1000
0000
,
0001
0000
0100
0000
,
0010
0000
1000
0000
,
0001
0000
0100
0000
,
0010
0000
0000
0000
,
0000
0000
0000
0000
,
1001
0000
0000
0000
,
0100
0000
0000
0000
,
0100
0000
0000
0000
,
0010
0000
0000
0000
,
1001
0000
0000
0000
,
1000
0000
0000
0000
,
0010
0000
0000
0000
,
0100
0000
0000
0000
,
0010
0000
0000
0000
,
0100
0000
0000
0000
,
0010
0000
0000
0000
,
0100
0000
0000
0000
,
1000
0000
0000
0000
,
0001
0000
0000
0000
,
0100
0000
0000
0000
,
0010
0000
0000
0100
,
0000
0100
0000
0100
,
0000
0010
0000
0010
,
0100
0000
0000
0000
,
0010
0000
0000
0000
,
0100
0000
0000
0000
,
0010
0000
0000
0000
,
1000
0000
0001
0000
,
0100
0000
0010
0000
,
1000
0000
0000
0000
,
0001
0000
0000
0000
,
0100
0000
0000
0000
,
0010
0000
0000
0000
,
1000
0000
0000
0000
,
0001
0000
0000
0000
,
1000
0000
0000
0000
,
0001
0000
0000
0000
,
1000
0000
0000
0000
,
0001
0000
0000
0000
,
1000
0000
0000
0000
,
0001
0000
0000
1001
,
0000
0000
0000
1001
,
0000
0000
0000
1001
,
0000
0110
0000
0001
,
0001
0001
0000
1000
,
0000
0010
0000
0100
,
0000
0001
0000
0010
,
0000
0010
0000
0010
,
0000
0010
0000
1001
,
0000
0010
0000
1001
,
0000
1001
0000
0100
,
0100
0100
0000
1001
,
0000
0010
0000
0100
,
0000
0001
0000
0010
,
0000
0010
0000
0100
,
0000
0100
0000
1001
,
0000
0010
0000
1001
,
0000
1001
0000
0100
,
0100
0100
0000
0001
,
0000
1000
0000
0010
,
0000
0100
0000
0001
,
0000
0010
0000
0100
,
0000
0100
0000
0010
,
0000
0010
0000
1000
,
0000
1000
0000
0001
,
0000
0100
0000
0020
,
0000
0000
0030
1001
,
0000
0010
0000
0100
,
0000
0001
0000
0010
,
0000
0100
0000
1000
,
0000
0001
0000
0110
,
0000
0010
0000
0010
,
0000
0010
0000
0110
,
0000
0010
0000
0110
,
0000
0100
0000
1100
,
0000
0000
0000
0011
,
0000
0000
0000
0001
,
0000
1000
0000
1001
,
0000
1001
0000
1001
,
0000
0010
0000
0100
,
0000
0001
0000
0010
,
0000
1000
0000
1000
,
0000
0010
0000
0001
,
0000
0100
0000
0100
,
0000
1000
0000
0010
,
0000
0001
0000
0100
,
0000
0100
0000
0100
,
0000
0010
0000
0010
,
0000
1000
0000
0010
,
0000
0100
0000
0001
,
0000
0010
0000
0010
,
0000
0100
0000
0100
,
0000
1000
0000
1000
,
0000
0001
0000
1000
,
1000
0000
0010
0000
,
0100
0000
0001
0000
,
0010
0000
0100
0000
,
1000
0000
0010
0000
,
0010
0000
0100
0000
,
0001
0000
0010
0000
,
0100
0000
1000
0000
,
0001
0000
1000
0000
,
1001
0000
0010
0000
,
0100
0000
0010
0000
,
1000
0000
0001
0000
,
0100
0000
0010
0000
,
1000
0000
0001
0000
,
0100
0000
0010
0000
,
1000
0000
0001
0000
,
0010
0000
0100
0000
,
1000
0000
0000
0000
;
