#TITLE:Less Talk More Rokk;
#SUBTITLE:;
#ARTIST:Freezepop;
#TITLETRANSLIT:;
#SUBTITLETRANSLIT:;
#ARTISTTRANSLIT:;
#CREDIT:;
#BANNER:banner.JPG;
#BACKGROUND:;
#LYRICSPATH:;
#CDTITLE:!tizaTitle.png;
#MUSIC:Freezepop - Less Talk More Rokk.ogg;
#OFFSET:-0.020;
#SAMPLESTART:227.502;
#SAMPLELENGTH:22.000;
#SELECTABLE:YES;
#BPMS:0.000=71.000,8.000=73.500,12.000=75.000,16.000=77.000,24.000=80.000,28.000=82.000,31.000=82.500,36.000=85.000,39.000=86.000,40.000=88.000,44.000=90.000,48.000=92.500,52.000=95.000,56.000=97.500,60.000=100.000,68.000=102.500,72.000=105.000,76.000=110.000,84.000=112.500,92.000=120.000,96.000=121.500,104.000=122.000,108.000=125.000;
#STOPS:;
#BGCHANGES:;
// cache tags:
#FIRSTBEAT:12.000;
#LASTBEAT:581.000;
#SONGFILENAME:Songs/Reggaeton and more/Less Talk More Rokk/lesstalkmorerokk.sm;
#HASMUSIC:1;
#HASBANNER:1;
#MUSICLENGTH:302.762;
// end cache tags

//---------------dance-single - ----------------
#NOTES:
     dance-single:
     :
     Challenge:
     11:
     0.648,0.768,0.142,0.244,0.837,1257.000,43.000,74.000,0.000,9.000:

0000
0000
0000
0000
,
0000
0000
0000
0000
,
0000
0000
0000
0000
,
2002
0000
0000
0000
,
0000
0000
0000
0000
,
0000
0000
0000
0000
,
0000
0000
3003
0000
,
1000
0100
1000
0100
1000
0100
1000
0100
1000
0100
1000
0100
1000
0000
0000
0000
,
0100
0010
0100
0010
0100
0010
0100
0010
0100
0010
0100
0010
0100
0010
0100
0000
,
0010
0001
0010
0001
0010
0001
0010
0001
0010
0001
0010
0001
0010
0000
0000
0000
,
1000
0001
1000
0001
1000
0001
1000
0001
1000
0001
1000
0001
1000
0001
1000
0000
,
1000
0100
0010
0001
0010
0100
1000
0100
0010
0001
0010
0100
1000
0000
0000
0000
,
0001
0010
0100
1000
0100
0010
0001
0010
0100
1000
0100
0010
0001
0010
0100
0000
,
1000
0100
0010
0100
1000
0100
0010
0100
1000
0100
0010
0100
1000
0000
0000
0000
,
1000
0010
0100
0010
0100
0010
1000
0010
0100
0010
0100
0010
1000
0010
0100
0000
,
1000
0100
0010
0001
0010
0100
1000
0010
0100
0001
0100
0010
1000
0000
0000
0000
,
0001
0010
0100
1000
0010
0100
0001
0100
0010
1000
0100
0010
0001
0010
0100
0000
,
1000
0100
1000
0010
1000
0001
1000
0100
0010
0001
0010
0100
1000
0000
0000
0000
,
0100
0010
0001
0100
0010
0100
0001
0010
0100
1000
0010
0100
0001
0010
0100
0000
,
1000
0100
0001
0100
1000
0100
0001
1000
0010
0001
0010
1000
0010
0000
0000
0000
,
0001
0100
1000
0100
0001
0010
1000
0010
0001
0100
1000
0001
0010
1000
0100
0000
,
1000
0010
0100
0010
1000
0100
0010
0001
0100
0010
0100
0001
0010
0000
0000
0000
,
0001
0100
0010
1000
0001
0100
0010
1000
0001
0010
0100
1000
0100
0010
0001
0000
,
0100
0001
0010
0100
1000
0010
0100
0010
0100
1000
0001
0010
1000
0000
0000
0000
,
1000
0010
0100
0010
1000
0001
0010
0100
1000
0010
0100
0010
1000
0100
0010
0000
,
0001
0100
0010
0100
0001
0010
0100
1000
0100
0010
0001
0100
0010
0000
0000
0000
,
1000
0100
0001
0100
1000
0100
0001
0100
1000
0010
0100
0001
0010
0100
1000
0000
,
2002
0000
0000
3003
,
0000
1000
0100
0010
0100
1000
0010
0100
,
0001
1001
0000
0000
0000
0000
0000
0000
,
0000
0001
0010
0100
2002
0000
3003
1001
,
0001
0000
0000
0000
,
0000
0000
0000
0000
0000
0000
1000
0000
0000
0001
0000
0000
0100
0000
0000
0010
0000
1000
0000
0001
0000
0100
0000
0000
,
0000
0000
0000
0000
,
0000
0000
1000
0000
0001
0000
0010
0000
0100
0000
1000
0000
0010
0000
0100
0001
,
0000
0000
0000
0000
,
0000
0000
0000
1000
0010
0001
1000
0100
,
0001
2000
0000
0002
0000
3003
0000
0010
,
0110
0100
0001
0010
0100
0100
1000
1001
,
0000
0000
0000
0000
,
0000
0000
0000
0000
0000
0000
1000
0000
1000
0000
0100
0000
0100
0010
0000
0010
,
0000
0001
0000
0000
0000
0000
0000
0000
0000
0000
0000
0000
0000
0000
0001
0000
,
1001
0000
1000
0000
0010
0000
0100
0000
0110
0010
0000
0000
0100
0001
1000
0010
,
2002
0000
0000
0000
0000
0000
3003
1000
,
1001
0000
0000
0001
0000
0100
0010
0000
0000
0000
0000
0000
0000
0000
1100
0000
,
0110
0000
0000
0011
0000
0000
1001
0000
0101
0000
0000
0000
0000
0000
0001
0000
,
0100
0000
0000
0010
0000
0000
1000
0000
0001
0000
0000
0000
0000
0000
1000
0000
,
0010
0000
0000
0001
0000
0000
0010
0000
1000
0000
0000
0000
0000
0000
0000
0000
,
1000
0000
0100
0010
0000
0001
0100
0000
0000
0000
0000
0000
0000
0000
0000
1000
,
0100
0000
0100
0010
0000
0010
0001
0000
0000
0000
0000
0000
0000
0000
0001
0000
,
0101
0000
0000
0100
0000
0000
0110
0000
0010
0000
0000
0000
0000
0000
1000
0000
,
2100
0000
0000
0010
0000
0000
0001
0000
0100
0000
3000
0000
0000
0000
0001
0000
,
0100
0000
0000
0010
0000
0100
0001
0000
0000
0000
0000
0000
0000
0000
0110
0000
,
1000
0000
0100
0000
0010
0000
0000
0001
0000
0000
1001
0000
0000
0000
0000
0000
0000
0000
0000
0000
0000
1000
0000
0000
,
1010
0000
0000
0110
0000
0000
0101
0000
0001
0000
0000
0000
0000
0000
0001
0000
,
0011
0000
0000
0110
0000
0000
1100
0000
1000
0000
0000
0000
0000
0000
1000
0000
,
0010
0000
0000
0001
0000
0000
1000
0000
0100
0000
0000
0001
0000
0000
0010
0000
,
1000
0000
0000
0001
0000
0000
0100
0000
1000
0000
0000
0000
0000
0000
1010
0000
,
0101
0000
0000
1000
0000
0000
0001
0000
0202
0000
0000
0000
0303
0000
0000
0000
,
0000
0000
0000
0000
0000
0000
1000
0000
0010
0000
0000
0101
0000
0000
1010
0000
,
2002
0000
0000
3003
,
2000
0000
0000
0002
0000
3000
0200
0003
0020
0000
0300
2000
0000
0030
3002
0000
,
0020
0000
0000
1033
0000
0000
0000
0000
,
2000
0000
0000
0020
0000
3000
0001
0030
2000
0000
0000
0200
0000
3000
0302
0000
,
2000
0000
0000
0010
3003
0000
0000
0000
,
2000
0000
0000
0002
0000
3000
2000
0003
0020
0000
3000
2000
0000
0030
0002
3000
,
0200
0000
0000
0020
0000
0000
1000
0030
,
0020
0000
0000
1000
0030
0000
1000
0000
,
0020
0000
0000
0000
,
0333
0000
0000
1000
0000
0000
0100
0000
0010
0000
0000
0100
0000
0000
1000
0000
,
0020
0000
0000
0200
0000
0000
0000
0000
,
0330
0000
0000
0001
0000
0000
0100
0000
0010
0000
0000
0100
0000
0000
0001
0000
,
0020
0000
0000
0200
0000
0000
0000
0000
,
0330
0000
0000
1000
0000
0000
0010
0000
0100
0000
0000
0010
0000
0000
1000
0000
,
0002
0000
0000
2000
0000
0003
0002
3000
,
2000
0000
0000
0000
0003
0000
0002
0000
0000
0000
3000
0000
2000
0000
0000
3003
,
0220
0000
0000
0330
,
1000
0100
0010
0100
1000
0010
0100
0010
1000
0100
0010
0001
2000
0000
0000
0000
,
3001
0100
0010
0100
0001
0010
0100
0010
0001
0100
0010
0100
0001
1000
0001
0000
,
1000
0100
0010
0001
1000
0010
0100
0001
0100
0010
1000
0001
2000
0000
0000
0000
,
3001
0010
0100
0010
0001
0100
1000
0001
0010
1000
0100
0010
0100
1000
0001
0000
,
1000
0010
0100
0010
1000
0001
0010
0100
0010
0001
1000
0001
2000
0000
0000
0000
,
3100
0010
1000
0100
0010
0100
1000
0010
0100
0001
1000
0100
0010
0100
1000
0000
,
1000
0010
0100
0010
1000
0010
0100
1000
0001
0010
1000
0100
0020
0000
0000
0000
,
0031
0100
0010
1000
0001
0010
0100
1000
0100
0010
0001
1000
0010
0100
0001
0000
,
1000
0010
0001
0010
1000
0010
0001
0010
1000
0010
0001
0010
2000
0000
3000
0000
,
1000
0100
0001
0100
1000
0100
0001
0100
1000
0100
0001
0100
1000
0010
0100
0000
,
0001
0100
1000
0100
0001
0010
1000
0010
0001
0010
1000
0010
0002
0000
0003
0000
,
0001
0100
1000
0100
0001
0100
1000
0100
0001
0010
1000
0010
0001
0010
1000
0000
,
1000
0010
0001
0100
0010
1000
0100
0010
0100
1000
0010
0100
0002
0000
0000
0000
,
1003
0100
0010
0100
1000
0010
0100
0010
1000
0100
0010
0001
0010
0100
1000
0000
,
1000
0010
0100
0001
1000
0100
0010
0001
1000
0010
0100
0001
0020
0000
0000
0000
,
0031
0100
0010
1000
0001
0100
0010
1000
0001
0100
1000
0100
0001
0010
0100
0000
,
2002
0000
0000
0000
,
3003
0000
0000
0000
,
2002
0000
0000
0000
,
3003
0000
1000
0000
1000
0000
0100
0000
0010
0000
0001
0010
0000
0000
0000
0000
,
0000
0000
0100
0000
0100
0000
0010
0000
1000
0000
0010
0100
0000
0000
0000
0000
,
0000
0000
1000
0000
1000
0000
0100
0000
0010
0000
0100
1000
0000
0000
0000
0000
,
0000
0000
0001
0000
0100
0000
0010
0000
0100
0000
0001
0001
0000
0000
0000
0000
,
0000
0000
1000
0000
0100
0000
0010
0000
0100
0000
1000
1000
0000
0000
0000
0000
,
0000
0000
1000
0000
1000
0000
0100
0000
0010
0000
0010
0010
0000
0000
0000
0000
,
0000
0000
0001
0000
0100
0000
0010
0100
0000
0100
0001
0000
0010
0000
0100
0000
,
0000
0000
1000
0000
1000
0000
1000
0000
1000
0000
1000
1000
0000
0000
0000
0000
,
0000
0000
0100
0000
0010
0000
0001
0010
0000
0100
0000
1000
0000
0000
0000
0000
,
0000
0000
1100
0000
0110
0000
0011
0000
0001
0000
0100
0010
0000
0000
0000
0000
,
0000
0000
0001
0000
0001
0000
0001
0000
0001
0000
0001
0001
0000
0000
0000
0000
,
0000
0000
0010
0000
0100
0000
0010
0000
0100
0000
0010
0100
0000
0000
0000
0000
,
0000
0000
1000
0000
0001
0000
1000
0000
0001
0000
0001
1000
0000
0000
0000
0000
,
0000
0000
1000
0000
0010
0000
0001
0000
0010
0000
1000
0001
0000
0000
0000
0000
,
0000
0000
1000
0000
0010
0000
0001
0010
0000
1000
0100
0000
0010
0000
0001
0000
,
2002
0000
0000
3003
,
0001
0010
0100
0010
0001
0100
0010
0100
0001
0010
0100
1000
0002
0000
0000
0000
,
1003
0010
0100
0010
1000
0100
0010
0100
1000
0010
0100
0010
1000
0001
1000
0000
,
0001
0010
0100
1000
0001
0100
0010
1000
0010
0100
0001
1000
0002
0000
0000
0000
,
1003
0100
0010
0100
1000
0010
0001
1000
0100
0001
0010
0100
0010
0001
1000
0000
,
0001
0100
0010
0100
0001
1000
0100
0010
0100
1000
0001
1000
0002
0000
0000
0000
,
0013
0100
0001
0010
0100
0010
0001
0100
0010
1000
0001
0010
0100
0010
0001
0000
,
0001
0100
0010
0100
0001
0100
0010
0001
1000
0100
0001
0010
0200
0000
0000
0000
,
1300
0010
0100
0001
1000
0100
0010
0001
0010
0100
1000
0001
0100
0010
1000
0000
,
0001
0100
1000
0100
0001
0100
1000
0100
0001
0100
1000
0100
0002
0000
0003
0000
,
0001
0010
1000
0010
0001
0010
1000
0010
0001
0010
1000
0010
0001
0100
0010
0000
,
1000
0010
0001
0010
1000
0100
0001
0100
1000
0100
0001
0100
2000
0000
3000
0000
,
1000
0010
0001
0010
1000
0010
0001
0010
1000
0100
0001
0100
1000
0100
0001
0000
,
0001
0100
1000
0010
0100
0001
0010
0100
0010
0001
0100
0010
2000
0000
0000
0000
,
3001
0010
0100
0010
0001
0100
0010
0100
0001
0010
0100
1000
0100
0010
0001
0000
,
0001
0100
0010
1000
0001
0010
0100
1000
0001
0100
0010
1000
0200
0000
0000
0000
,
1300
0010
0100
0001
1000
0010
0100
0001
1000
0010
0001
0010
1000
0100
0010
0000
,
0001
0100
0010
1000
0001
0100
0010
1000
0001
0100
0010
1000
0001
0000
0000
0000
,
1000
0100
0010
0100
1000
0100
0010
0001
0010
0100
0010
0001
1000
0000
0000
0000
,
1000
0010
0100
0001
0010
0100
1000
0100
0010
0001
0100
0010
1000
0010
0100
0000
,
0001
0010
0100
1000
0010
0100
0010
0100
0010
1000
0100
0010
0100
1000
0010
0000
,
1000
0100
0010
0001
1000
0100
0010
0001
1000
0100
0010
0100
1000
0000
0000
0000
,
0010
0100
0001
0100
0010
0100
0001
0010
0100
1000
0100
0010
0001
0000
0000
0000
,
1000
0001
0010
1000
0001
0100
1000
0010
0100
0001
0010
0100
1000
0100
0010
0000
,
0010
0100
1000
0010
0100
0010
1000
0100
0010
0100
1000
0010
0100
0010
1000
0000
,
1000
0100
0010
0001
0010
0100
1000
0100
0010
0001
0010
0100
1100
0000
0000
0000
,
1000
0010
0100
0001
0010
0100
0010
0001
0100
0010
1000
0100
0110
0000
0000
0000
,
0100
0010
0001
0010
0100
0010
0001
0100
0010
0100
0001
0010
0100
0010
0001
0000
,
0001
0010
0100
0010
0001
0100
0010
0100
0001
0100
0010
0100
0001
0010
0100
0000
,
1000
0100
0010
0001
0100
0010
0100
0010
0001
0010
1000
0100
0010
0000
0000
0000
,
0001
0100
0010
0100
0001
0010
0100
1000
0100
0010
0100
1000
0010
0000
0000
0000
,
1000
1000
0100
0010
0001
0100
0010
0100
0001
0001
0010
0100
1000
0010
0010
0000
,
1000
1000
0010
0100
0010
1000
0100
0010
0010
0100
0010
0001
0100
0010
0010
0000
,
2002
0000
0000
0000
,
0010
3003
0000
0000
;
