#TITLE:SNOWS;
#SUBTITLE:[prototype2];
#ARTIST:Dj Sharpnel;
#TITLETRANSLIT:;
#SUBTITLETRANSLIT:;
#ARTISTTRANSLIT:;
#CREDIT:;
#BANNER:Snows-bn.png;
#BACKGROUND:Snows-bg.png;
#LYRICSPATH:;
#CDTITLE:cdtitle.png;
#MUSIC:12. SNOWS(prototype 2).mp3;
#OFFSET:-0.300;
#SAMPLESTART:67.680;
#SAMPLELENGTH:12.000;
#SELECTABLE:YES;
#BPMS:0.000=185.240;
#STOPS:;
#BGCHANGES:;
// cache tags:
#FIRSTBEAT:2.000;
#LASTBEAT:562.250;
#SONGFILENAME:Songs/toune 3/SNOWS(prototype 2)/12. SNOWS(prototype 2).sm;
#HASMUSIC:1;
#HASBANNER:1;
#MUSICLENGTH:182.382;
// end cache tags

//---------------dance-single - ----------------
#NOTES:
     dance-single:
     :
     Hard:
     13:
     1.000,1.000,1.000,0.011,0.376,1203.000,697.000,2.000,0.000,0.000:
0000
0000
0110
1000
,
0100
0010
0000
0000
1000
0000
0000
0000
0100
0010
0000
0000
1000
0000
1000
0000
,
0001
0010
0001
0100
0001
0010
0001
0000
0100
0000
0100
0000
1000
0000
1000
0100
,
1000
0010
1000
0100
1000
0000
0000
0000
0001
0000
0000
0000
0001
0010
0001
0000
,
0001
0000
0010
0000
0001
0000
0010
0000
1000
0100
0010
0001
0010
0100
1000
0000
0010
0000
0000
0000
0010
0000
0000
0000
0001
0000
0000
0000
0000
0000
0000
0000
,
0010
0010
0001
0000
0010
0010
0001
0101
,
1000
0100
1000
0010
1000
0100
1000
0000
0100
0000
0100
0000
1000
0000
0001
0010
,
0001
0100
0001
0010
0001
0000
0000
0000
1000
0000
0000
0000
1000
0100
1000
0000
,
0001
0010
0001
0010
0100
0000
0000
0000
1001
0000
0000
0000
1100
0000
0000
0000
,
0110
0011
0110
1010
,
0110
0000
0101
0110
1010
0000
0011
0000
,
0110
1100
0101
1010
,
0011
0000
0110
0000
1100
0010
0001
0010
1100
0000
0010
0000
1100
0000
0001
0000
,
0110
1000
0011
0100
0011
1000
0110
0001
,
1100
0010
1100
0110
0011
0100
0011
1000
,
0110
0001
1100
0010
1100
0000
0000
0000
,
0000
0000
0000
0000
1100
0010
0101
0110
,
1100
0101
1010
0110
0011
1100
0110
0101
,
0011
0110
1100
1100
1001
0010
0110
1010
,
0101
0011
1100
0110
1001
1100
0110
0011
,
0101
0000
0000
0000
1100
0010
0001
0010
1100
0000
0010
0000
1001
0000
1010
0000
,
0110
0011
1100
0110
0101
1010
1100
1001
,
1010
0110
0101
0101
1100
0010
0101
0110
,
1100
0110
0101
0010
0110
1010
0101
0011
,
0101
0000
0000
0000
0011
0100
1000
0100
0011
0000
0100
0000
1001
0000
0011
0000
,
0101
0110
1010
1100
1001
0101
0110
1010
,
0101
0011
0110
0110
1100
0101
0011
0110
,
1100
0101
0011
0110
1001
1010
0110
0101
,
0011
0000
0000
0000
1010
0100
0010
0100
1010
0000
0001
0000
0110
0000
1100
0000
,
0101
0110
1001
1010
1100
0011
0110
0101
,
1100
0110
0101
0101
0110
1010
1100
0101
,
0011
1100
0110
0011
0101
0110
1001
1010
,
0101
0110
1010
1010
0011
1001
1010
0110
,
0011
0101
1001
1010
1100
0101
1100
0110
,
0101
1010
0110
0110
0011
1100
0110
0101
,
0110
1010
1001
0110
0101
0000
0100
0000
,
0001
0000
0100
0000
1001
0100
1100
0010
,
1100
0100
1100
0010
1100
0100
1100
0010
,
1100
0100
1100
0010
1100
0100
1100
0010
,
1100
0100
1100
0010
1001
1000
1100
0010
,
1100
1000
1100
0010
1001
1000
1100
1001
,
1100
1000
1001
0010
1100
1000
1100
0010
,
1100
1000
1100
0010
1001
1000
1100
0010
,
1100
1000
1100
0010
1001
1000
1100
0010
,
1001
1000
1100
0010
1001
1000
1100
0010
,
1100
1000
1100
0010
1100
1000
1100
0010
,
1100
1000
1100
0010
1001
1000
1100
0010
,
1100
1000
1100
0010
1001
1000
1100
0010
,
1100
1000
1100
0010
1001
1000
1100
1001
,
1100
1000
1001
0010
1100
1000
1100
0010
,
1100
1000
1100
0010
1001
1000
1100
0010
,
1100
1000
1100
0010
1001
0000
1001
0000
,
0110
0001
1000
0001
1010
0000
1010
0000
0110
0000
0001
0000
0110
0000
1100
0000
,
0101
1001
0110
1100
0110
0101
0011
0101
,
0110
1010
0011
0011
1001
1010
1100
0011
,
0110
0101
1010
0101
0011
1010
1100
0011
,
0110
1100
0101
0101
1010
0011
0110
1100
,
1010
0101
0011
0101
1010
1100
0110
0101
,
1010
0101
0110
0110
1010
1001
0101
0011
,
0101
0110
1001
1100
0110
0101
0110
1010
,
1001
0000
0000
0000
1100
0010
0001
0010
1100
0000
0001
0000
0110
0000
1010
0000
,
0101
0011
0110
1010
0101
0011
1010
1100
,
0011
1001
1010
1010
0110
1100
0101
0011
,
1001
1100
0110
0101
0011
0110
1010
0101
,
0110
1001
1010
1010
0101
0011
0110
1010
,
1100
0101
0011
1001
1100
0110
0101
0110
,
1010
1001
0011
0011
1100
0110
0011
0101
,
1010
1001
0110
1100
1010
0110
0101
0011
,
0100
0010
0100
0010
0110
1000
0100
0010
,
0001
0010
0001
0100
0010
1000
0100
0010
,
0100
0010
0001
0001
0010
1000
0010
0001
,
0010
1000
0100
0001
0100
1000
0100
0010
,
0001
0100
1000
1000
0100
0001
0100
1000
,
0010
0001
0010
0100
0010
0001
1000
0100
,
0010
0100
1000
1000
0001
0010
1000
0100
,
0001
0010
1000
0100
0001
0010
1000
0010
,
0001
0010
1000
1000
0110
0001
0010
0001
,
0010
0100
1000
0100
1000
0010
0100
0001
,
0100
0010
1000
1000
0100
0010
0001
1000
,
0100
0010
0001
0010
0100
1000
0001
0010
,
0100
1000
0010
0010
0100
0001
1000
0010
,
0001
0100
1000
0010
0001
0100
1000
0100
,
0010
0001
0010
0010
0100
1000
0100
0010
,
0001
1000
0010
0100
0001
0100
0010
1000
,
0010
0100
0001
0001
1100
0010
1100
1000
,
1100
0010
1100
1000
1100
0010
1100
1000
,
1100
0010
1100
1000
1100
0010
1100
1000
,
1100
0010
1100
1000
1100
0010
1100
1000
,
1100
0001
0010
0100
1000
0100
0010
0001
1010
0100
0010
0001
0010
0100
1000
0010
,
0100
0001
0010
0100
0010
0001
0100
0010
1000
0100
0010
0100
1000
0010
0100
0001
,
0100
0010
1000
0100
0010
0100
1000
0001
0010
0100
0010
0001
1000
0100
0010
0001
,
1000
0100
0010
0001
0010
0100
1000
0001
0010
0100
1000
0001
0100
0010
1000
0001
,
0100
0010
1000
0100
0010
0100
1000
0100
1010
0001
0010
0100
0010
0001
0010
0100
,
1000
0100
0010
0100
1000
0100
0010
0001
0010
0100
0010
0001
0100
0010
1000
0010
,
0100
0001
0100
0010
1000
0100
0010
0001
1010
0100
1000
0010
0100
0001
1000
0010
,
0100
0001
0010
0100
0010
0001
1000
0100
0010
0100
1000
0100
0010
0001
1000
0001
,
0010
0100
1000
0001
1000
0100
0010
0001
0110
1000
0100
0010
0001
0100
0001
0010
,
0100
1000
0010
1000
0100
0010
0001
0010
0101
0010
0001
0010
0100
1000
0100
0010
,
0100
1000
0010
0100
0001
1000
0010
0100
1001
0010
0001
0100
0010
1000
0001
0100
,
0011
1000
0010
0100
0001
1000
0010
0100
1001
0000
0000
0000
0110
0000
1010
0000
,
0101
0000
0110
0000
1010
0000
1100
0000
0110
0001
0010
0100
0000
0100
0010
0001
,
1100
0110
0011
0101
0110
1010
1100
1001
,
0110
0011
1010
1010
0110
0011
1010
1100
,
0110
0101
1001
0110
1010
1100
0101
0011
,
1001
1100
0110
0110
0101
0011
1001
1100
,
0110
0101
0011
1001
1010
0110
0101
1010
,
0110
0011
1010
1010
0110
0101
0011
1001
,
1100
0110
0101
0011
0110
1010
1100
0101
,
0011
1100
0101
0101
0110
0011
1010
1100
,
0101
0011
1001
0110
1010
1100
0101
0011
,
0101
0110
1010
1010
1001
0011
1100
0110
,
1001
0011
0110
1100
1010
0101
0011
0110
,
1100
1010
0101
0101
0110
1010
1100
0110
,
0011
0110
1010
1100
0101
1001
0101
0011
,
0110
1010
0110
0110
1010
0110
0011
0101
,
1001
1010
1100
0110
1010
0101
0011
1001
,
0110
1010
0011
0011
0110
1010
1100
1001
,
0110
0011
1010
1100
0011
0110
0101
1010
,
0110
0011
1010
1010
1100
1010
0110
0101
,
0011
0110
1010
1001
0011
0110
1100
1010
,
0110
1010
0101
0101
1001
0110
1100
0011
,
0110
1100
1001
0110
0101
1010
0110
0101
,
0011
1100
0110
0110
0101
0011
1010
1100
,
1010
0101
0011
1001
1010
1100
0110
0101
,
0011
1001
1010
1010
0011
1100
0110
0101
,
0011
0101
1010
0110
1001
1100
0011
0110
,
0101
1010
0110
0110
1010
0101
0011
0110
,
1010
1100
0110
0101
1001
0000
0000
0000
,
0000
0000
0000
0000
0101
0110
1010
1100
,
0101
0011
1001
1100
0110
0101
0011
0110
,
1010
0101
0110
0110
1010
0101
1001
0110
,
1010
0101
0110
1010
1100
1001
0011
0110
,
1100
0110
0011
0011
0101
0110
1010
1100
,
1001
0011
1100
0110
0101
1010
0110
0000
,
0011
0000
0000
0000
0011
0100
1000
0100
0011
0000
0110
0000
1100
0000
0110
0000
,
0101
1010
1100
0101
0011
1001
0110
0000
,
0110
0000
0000
0000
1100
0010
0001
0010
1100
0000
0110
0000
0101
0000
0011
0000
,
1001
0110
1010
1100
0011
0110
1100
0101
,
0011
1001
1010
1010
0011
1100
1010
0101
,
0110
1100
0011
1001
1010
0110
0101
0011
,
0101
0000
1010
0000
1001
0000
0110
0000
0022
0033
0000
0000
0000
0000
0000
0000
;
