#TITLE:No Other Choice;
#SUBTITLE:;
#ARTIST:Kita Khyber;
#TITLETRANSLIT:;
#SUBTITLETRANSLIT:;
#ARTISTTRANSLIT:;
#CREDIT:;
#BANNER:../banner.png;
#BACKGROUND:../bg.png;
#LYRICSPATH:;
#CDTITLE:;
#MUSIC:No Other Choice.ogg;
#OFFSET:-0.016;
#SAMPLESTART:42.080;
#SAMPLELENGTH:20.000;
#SELECTABLE:YES;
#BPMS:0.000=194.000;
#STOPS:;
#BGCHANGES:;
// cache tags:
#FIRSTBEAT:32.000;
#LASTBEAT:329.000;
#SONGFILENAME:Songs/Cirque du Lykan/No Other Choice - [Zaia]/No Other Choice.sm;
#HASMUSIC:1;
#HASBANNER:1;
#MUSICLENGTH:105.195;
// end cache tags

//---------------dance-single - Zaia - 14(mid-high)----------------
#NOTES:
     dance-single:
     Zaia - 14(mid-high):
     Challenge:
     14:
     1.000,1.000,0.029,0.304,1.000,816.000,3.000,32.000,0.000,0.000:
0000
0000
0000
0000
,
0000
0000
0000
0000
,
0000
0000
0000
0000
,
0000
0000
0000
0000
,
0000
0000
0000
0000
,
0000
0000
0000
0000
,
0000
0000
0000
0000
,
0000
0000
0000
0000
,
0001
0000
0100
0000
0010
0000
0100
0001
,
1000
0001
0010
0000
0100
0000
1000
0001
,
0100
0000
0001
0000
1000
0000
0010
1000
,
0001
1000
0100
0000
0010
0000
0100
1000
,
0001
0000
1000
0000
0010
0000
0100
0001
,
0010
0100
1000
0000
0001
0000
0100
0010
,
1000
0000
0001
0000
0010
0000
0100
1000
,
0001
0100
0010
0000
1000
0000
0001
1000
,
0000
0000
0000
0000
,
0000
0000
0000
0000
,
1001
0001
0010
0100
1000
1000
0001
0100
,
0010
0100
0001
0010
0100
0100
1000
0010
,
0100
0001
1000
0010
1000
1000
0100
0010
,
0100
1000
0001
0100
0010
0010
0100
0001
,
0010
0100
1000
0001
0100
0100
0010
1000
,
0001
0010
0001
1000
0010
0010
0100
0010
,
1000
0100
0010
0001
1000
1000
0001
0010
,
0100
0000
1000
0000
0010
0000
0100
0000
0001
1000
0000
0100
0010
0000
0001
0000
,
1001
1000
0010
0100
0100
0001
0010
0100
,
1000
1000
0010
0010
0100
0100
0001
0001
,
2000
3010
0100
0002
0013
0100
2000
3010
,
0100
0100
0001
0001
1000
1000
0100
1000
,
0001
0001
0010
0100
0100
1000
0010
0100
,
0001
0001
0010
0010
0100
0100
1000
1000
,
0002
0103
0010
2000
3100
0010
0002
0103
,
0010
0000
0010
0000
1000
0000
1000
0000
0001
0100
0000
0010
1000
0000
0001
0000
,
1000
0100
1000
0010
0100
0001
0010
0001
1000
0100
1000
0010
0100
0001
0010
0001
,
1000
0010
1000
0001
0010
0001
0100
0010
1000
0100
1000
0001
0010
0001
0100
0001
,
1000
0100
1000
0010
0100
0001
0010
0001
1000
0100
1000
0010
0100
0001
0010
0001
,
1000
0010
1000
0001
0010
0001
0100
0010
1000
0100
1000
0001
0010
0001
0100
0010
,
1000
0001
0100
0001
1000
0100
0010
0100
1000
0001
1000
0010
0100
0001
1000
0001
,
0010
0100
0010
0001
1000
0010
0100
0001
1000
0100
1000
0001
0010
0001
1000
0010
,
0100
0010
1000
0001
0010
0100
1000
0001
0100
0010
1000
0001
0010
0001
1000
0001
,
1000
0010
0100
0001
1000
0100
1000
0001
0010
0100
1000
0001
1000
0010
0100
0001
,
1000
0001
0010
0100
1000
0010
1000
0001
0100
0001
0010
0100
1000
0010
1000
0001
,
0010
0001
1000
0010
1000
0100
0010
0001
0100
0001
1000
0010
1000
0100
0010
0001
,
0100
0001
0010
0100
1000
0010
1000
0001
0100
0001
0010
0100
1000
0010
1000
0001
,
0010
0001
1000
0010
1000
0100
0010
0001
0100
0001
1000
0010
1000
0100
0010
0001
,
1000
0010
1000
0001
0010
0100
0010
0001
1000
0001
0100
0010
1000
0001
1000
0100
,
0010
0100
1000
0001
0100
0010
1000
0001
0010
0001
1000
0100
1000
0001
0100
0010
,
0100
0001
1000
0100
0010
0001
1000
0010
0100
0001
1000
0100
1000
0001
1000
0001
,
0100
0010
1000
0001
0010
0001
1000
0100
0010
0001
1000
0001
0100
0010
1000
0001
,
0010
0100
1000
0001
1000
0010
0100
0001
1000
0010
1000
0001
0010
0100
0010
0001
,
1000
0001
0100
0001
0100
0010
1000
0001
0010
0100
1000
0001
1000
0100
1000
0001
,
0100
0010
0100
0001
1000
0100
1000
0001
0100
0001
1000
0001
0010
0100
1000
0001
,
1000
0010
0100
0010
0100
0001
1000
0100
1000
0001
0100
0010
1000
0001
0010
0100
,
1000
0001
1000
0010
1000
0100
1000
0001
0100
0001
1000
0100
0010
0100
1000
0001
,
1000
0010
0100
0001
1000
0001
0010
0100
1000
0100
0010
0001
1000
0001
1000
0010
,
0100
0001
1000
0100
1000
0010
1000
0001
0010
0001
1000
0010
0100
0010
1000
0001
,
1000
0100
0010
0001
1000
0001
0100
0010
1000
0010
0100
0001
1000
0001
1000
0100
,
0010
0100
1000
0001
1000
0010
0100
0001
1000
0100
1000
0001
0010
0100
1000
0001
,
1000
0010
0100
0010
1000
0001
1000
0100
1000
0001
0010
0001
1000
0010
0100
0001
,
1000
0100
1000
0001
0010
0001
1000
0010
0100
0001
1000
0001
0010
0001
1000
0100
,
0010
0001
1000
0010
1000
0001
0010
0100
0010
0001
1000
0100
1000
0001
0100
0010
,
1000
0001
1000
0100
0010
0100
1000
0001
1000
0100
1000
0001
1000
0001
0100
0010
,
0100
0001
1000
0010
0100
0001
1000
0001
0010
0100
1000
0100
0010
0001
1000
0001
,
0100
0010
0100
0001
1000
0100
1000
0001
0100
0010
0100
0001
1000
0001
0010
0100
,
1000
0001
0010
0001
0010
0100
1000
0001
1000
0010
0100
0010
1000
0001
0010
0001
,
2000
0010
3010
0200
0001
0301
2000
0100
,
3001
0010
0100
0010
0100
1000
0001
1000
,
0020
0100
0130
0002
1000
1003
0200
0010
,
1300
0001
1000
0010
0100
0001
1000
0001
,
2000
0100
3100
0020
0001
0031
2000
0010
,
3001
0100
0010
0100
0010
1000
0001
1000
,
0200
0010
0310
0002
1000
1003
0020
0100
,
1030
0001
1000
0100
0010
0001
1000
1000
,
0002
0100
0103
0020
1000
1030
0002
0010
,
1003
0100
0010
0100
0010
0001
1000
0001
,
0200
0010
0310
2000
0001
3001
0020
0100
,
0031
1000
0001
0100
0010
1000
0001
1000
,
0002
0010
0013
0200
1000
1300
0002
0100
,
1003
0010
0100
0010
0100
0001
1000
0001
,
0020
0100
0130
2000
0001
3001
0200
0010
,
0301
0000
1000
0000
0001
0000
0010
0000
0100
1000
0000
0001
1000
0000
0010
0000
,
2002
3003
0000
0000
;

//---------------dance-single - Zaia - 12(high)----------------
#NOTES:
     dance-single:
     Zaia - 12(high):
     Medium:
     12:
     0.982,1.000,0.029,0.304,0.637,688.000,3.000,32.000,0.000,0.000:
0000
0000
0000
0000
,
0000
0000
0000
0000
,
0000
0000
0000
0000
,
0000
0000
0000
0000
,
0000
0000
0000
0000
,
0000
0000
0000
0000
,
0000
0000
0000
0000
,
0000
0000
0000
0000
,
0001
0000
0100
0000
0010
0000
0100
0001
,
1000
0001
0010
0000
0100
0000
1000
0001
,
0100
0000
0001
0000
1000
0000
0010
1000
,
0001
1000
0100
0000
0010
0000
0100
1000
,
0001
0000
1000
0000
0010
0000
0100
0001
,
0010
0100
1000
0000
0001
0000
0100
0010
,
1000
0000
0001
0000
0010
0000
0100
1000
,
0001
0100
0010
0000
1000
0000
0001
1000
,
0000
0000
0000
0000
,
0000
0000
0000
0000
,
1001
0001
0010
0100
1000
1000
0001
0100
,
0010
0100
0001
0010
0100
0100
1000
0010
,
0100
0001
1000
0010
1000
1000
0100
0010
,
0100
1000
0001
0100
0010
0010
0100
0001
,
0010
0100
1000
0001
0100
0100
0010
1000
,
0001
0010
0001
1000
0010
0010
0100
0010
,
1000
0100
0010
0001
1000
1000
0001
0010
,
0100
0000
1000
0000
0010
0000
0100
0000
0001
1000
0000
0100
0010
0000
0001
0000
,
1001
1000
0010
0100
0100
0001
0010
0100
,
1000
1000
0010
0010
0100
0100
0001
0001
,
2000
3010
0100
0002
0013
0100
2000
3010
,
0100
0100
0001
0001
1000
1000
0100
1000
,
0001
0001
0010
0100
0100
1000
0010
0100
,
0001
0001
0010
0010
0100
0100
1000
1000
,
0002
0103
0010
2000
3100
0010
0002
0103
,
0010
0000
0010
0000
1000
0000
1000
0000
0001
0100
0000
0010
1000
0000
0001
0000
,
1000
0100
1000
0010
0100
0001
0010
0001
1000
0100
1000
0010
0100
0001
0010
0001
,
1000
0010
1000
0001
0010
0001
0100
0010
1000
0100
1000
0001
0010
0001
0100
0001
,
1000
0100
1000
0010
0100
0001
0010
0001
1000
0100
1000
0010
0100
0001
0010
0001
,
1000
0010
1000
0001
0010
0001
0100
0010
1000
0100
1000
0001
0010
0001
0100
0010
,
1000
0001
0010
0001
0100
0010
1000
0001
,
0010
0001
0100
0010
1000
0100
1000
0010
,
0100
0001
1000
0100
1000
0010
0100
0001
,
0010
0100
1000
0001
1000
0010
0100
0001
,
1000
0001
0010
0100
1000
0010
1000
0001
0100
0001
0010
0100
1000
0010
1000
0001
,
0010
0001
1000
0010
1000
0100
0010
0001
0100
0001
1000
0010
1000
0100
0010
0001
,
0100
0001
0010
0100
1000
0010
1000
0001
0100
0001
0010
0100
1000
0010
1000
0001
,
0010
0001
1000
0010
1000
0100
0010
0001
0100
0001
1000
0010
1000
0100
0010
0001
,
1000
0100
1000
0100
0010
0100
0010
0100
,
0010
0001
0010
0001
1000
0001
1000
0001
,
0100
0010
0100
0001
0010
0100
1000
0001
,
0100
0001
1000
0100
1000
0010
0100
0001
,
0010
0100
1000
0001
1000
0010
0100
0001
1000
0010
1000
0001
0010
0100
0010
0001
,
1000
0001
0100
0001
0100
0010
1000
0001
0010
0100
1000
0001
1000
0100
1000
0001
,
0100
0010
0100
0001
1000
0100
1000
0001
0100
0001
1000
0001
0010
0100
1000
0001
,
1000
0010
0100
0010
0100
0001
1000
0100
1000
0001
0100
0010
1000
0001
0010
0100
,
1000
0001
1000
0010
1000
0001
0010
0100
,
1000
0010
0100
0001
0010
0001
1000
0010
,
0100
0001
1000
0100
1000
0001
0100
0010
,
1000
0100
0010
0001
0100
0001
1000
0010
,
1000
0100
1000
0001
1000
0010
0100
0001
1000
0100
1000
0001
0010
0100
1000
0001
,
1000
0010
0100
0010
1000
0001
1000
0100
1000
0001
0010
0001
1000
0010
0100
0001
,
1000
0100
1000
0001
0010
0001
1000
0010
0100
0001
1000
0001
0010
0001
1000
0100
,
0010
0001
1000
0010
1000
0001
0010
0100
0010
0001
1000
0100
1000
0001
0100
0010
,
1000
0001
1000
0100
0010
0100
1000
0010
,
0100
0001
0010
0100
0010
0001
1000
0010
,
0100
0001
1000
0100
1000
0001
0100
0010
,
1000
0001
1000
0100
0010
0001
0100
0001
,
2000
0010
3010
0200
0001
0301
2000
0100
,
3001
0010
0100
0010
0100
1000
0001
1000
,
0020
0100
0130
0002
1000
1003
0200
0010
,
1300
0001
1000
0010
0100
0001
1000
0001
,
2000
0100
3100
0020
0001
0031
2000
0010
,
3001
0100
0010
0100
0010
1000
0001
1000
,
0200
0010
0310
0002
1000
1003
0020
0100
,
1030
0001
1000
0100
0010
0001
1000
1000
,
0002
0100
0103
0020
1000
1030
0002
0010
,
1003
0100
0010
0100
0010
0001
1000
0001
,
0200
0010
0310
2000
0001
3001
0020
0100
,
0031
1000
0001
0100
0010
1000
0001
1000
,
0002
0010
0013
0200
1000
1300
0002
0100
,
1003
0010
0100
0010
0100
0001
1000
0001
,
0020
0100
0130
2000
0001
3001
0200
0010
,
0301
0000
1000
0000
0001
0000
0010
0000
0100
1000
0000
0001
1000
0000
0010
0000
,
2002
3003
0000
0000
;

//---------------dance-single - Zaia - 13(mid-high)----------------
#NOTES:
     dance-single:
     Zaia - 13(mid-high):
     Hard:
     13:
     1.000,1.000,0.029,0.304,0.941,752.000,3.000,32.000,0.000,0.000:
0000
0000
0000
0000
,
0000
0000
0000
0000
,
0000
0000
0000
0000
,
0000
0000
0000
0000
,
0000
0000
0000
0000
,
0000
0000
0000
0000
,
0000
0000
0000
0000
,
0000
0000
0000
0000
,
0001
0000
0100
0000
0010
0000
0100
0001
,
1000
0001
0010
0000
0100
0000
1000
0001
,
0100
0000
0001
0000
1000
0000
0010
1000
,
0001
1000
0100
0000
0010
0000
0100
1000
,
0001
0000
1000
0000
0010
0000
0100
0001
,
0010
0100
1000
0000
0001
0000
0100
0010
,
1000
0000
0001
0000
0010
0000
0100
1000
,
0001
0100
0010
0000
1000
0000
0001
1000
,
0000
0000
0000
0000
,
0000
0000
0000
0000
,
1001
0001
0010
0100
1000
1000
0001
0100
,
0010
0100
0001
0010
0100
0100
1000
0010
,
0100
0001
1000
0010
1000
1000
0100
0010
,
0100
1000
0001
0100
0010
0010
0100
0001
,
0010
0100
1000
0001
0100
0100
0010
1000
,
0001
0010
0001
1000
0010
0010
0100
0010
,
1000
0100
0010
0001
1000
1000
0001
0010
,
0100
0000
1000
0000
0010
0000
0100
0000
0001
1000
0000
0100
0010
0000
0001
0000
,
1001
1000
0010
0100
0100
0001
0010
0100
,
1000
1000
0010
0010
0100
0100
0001
0001
,
2000
3010
0100
0002
0013
0100
2000
3010
,
0100
0100
0001
0001
1000
1000
0100
1000
,
0001
0001
0010
0100
0100
1000
0010
0100
,
0001
0001
0010
0010
0100
0100
1000
1000
,
0002
0103
0010
2000
3100
0010
0002
0103
,
0010
0000
0010
0000
1000
0000
1000
0000
0001
0100
0000
0010
1000
0000
0001
0000
,
1000
0100
1000
0010
0100
0001
0010
0001
1000
0100
1000
0010
0100
0001
0010
0001
,
1000
0010
1000
0001
0010
0001
0100
0010
1000
0100
1000
0001
0010
0001
0100
0001
,
1000
0100
1000
0010
0100
0001
0010
0001
1000
0100
1000
0010
0100
0001
0010
0001
,
1000
0010
1000
0001
0010
0001
0100
0010
1000
0100
1000
0001
0010
0001
0100
0010
,
1000
0001
0100
0001
1000
0100
0010
0100
1000
0001
1000
0010
0100
0001
1000
0001
,
0010
0100
0010
0001
1000
0010
0100
0001
1000
0100
1000
0001
0010
0001
1000
0010
,
0100
0010
1000
0001
0010
0100
1000
0001
0100
0010
1000
0001
0010
0001
1000
0001
,
1000
0010
0100
0001
1000
0100
1000
0001
0010
0100
1000
0001
1000
0010
0100
0001
,
1000
0010
1000
0010
0100
0001
0100
0010
,
1000
0100
0010
0100
1000
0001
0100
0010
,
0100
0001
1000
0100
1000
0001
0100
0001
,
1000
0100
0010
0001
1000
0010
0100
0001
,
1000
0010
1000
0001
0010
0100
0010
0001
1000
0001
0100
0010
1000
0001
1000
0100
,
0010
0100
1000
0001
0100
0010
1000
0001
0010
0001
1000
0100
1000
0001
0100
0010
,
0100
0001
1000
0100
0010
0001
1000
0010
0100
0001
1000
0100
1000
0001
1000
0001
,
0100
0010
1000
0001
0010
0001
1000
0100
0010
0001
1000
0001
0100
0010
1000
0001
,
0010
0100
1000
0001
1000
0010
0100
0001
1000
0010
1000
0001
0010
0100
0010
0001
,
1000
0001
0100
0001
0100
0010
1000
0001
0010
0100
1000
0001
1000
0100
1000
0001
,
0100
0010
0100
0001
1000
0100
1000
0001
0100
0001
1000
0001
0010
0100
1000
0001
,
1000
0010
0100
0010
0100
0001
1000
0100
1000
0001
0100
0010
1000
0001
0010
0100
,
1000
0001
1000
0010
1000
0001
0010
0100
,
1000
0010
0100
0001
0010
0001
1000
0010
,
0100
0001
1000
0100
1000
0001
0100
0010
,
1000
0100
0010
0001
0100
0001
1000
0010
,
1000
0100
1000
0001
1000
0010
0100
0001
1000
0100
1000
0001
0010
0100
1000
0001
,
1000
0010
0100
0010
1000
0001
1000
0100
1000
0001
0010
0001
1000
0010
0100
0001
,
1000
0100
1000
0001
0010
0001
1000
0010
0100
0001
1000
0001
0010
0001
1000
0100
,
0010
0001
1000
0010
1000
0001
0010
0100
0010
0001
1000
0100
1000
0001
0100
0010
,
1000
0001
1000
0100
0010
0100
1000
0001
1000
0100
1000
0001
1000
0001
0100
0010
,
0100
0001
1000
0010
0100
0001
1000
0001
0010
0100
1000
0100
0010
0001
1000
0001
,
0100
0010
0100
0001
1000
0100
1000
0001
0100
0010
0100
0001
1000
0001
0010
0100
,
1000
0001
0010
0001
0010
0100
1000
0001
1000
0010
0100
0010
1000
0001
0010
0001
,
2000
0010
3010
0200
0001
0301
2000
0100
,
3001
0010
0100
0010
0100
1000
0001
1000
,
0020
0100
0130
0002
1000
1003
0200
0010
,
1300
0001
1000
0010
0100
0001
1000
0001
,
2000
0100
3100
0020
0001
0031
2000
0010
,
3001
0100
0010
0100
0010
1000
0001
1000
,
0200
0010
0310
0002
1000
1003
0020
0100
,
1030
0001
1000
0100
0010
0001
1000
1000
,
0002
0100
0103
0020
1000
1030
0002
0010
,
1003
0100
0010
0100
0010
0001
1000
0001
,
0200
0010
0310
2000
0001
3001
0020
0100
,
0031
1000
0001
0100
0010
1000
0001
1000
,
0002
0010
0013
0200
1000
1300
0002
0100
,
1003
0010
0100
0010
0100
0001
1000
0001
,
0020
0100
0130
2000
0001
3001
0200
0010
,
0301
0000
1000
0000
0001
0000
0010
0000
0100
1000
0000
0001
1000
0000
0010
0000
,
2002
3003
0000
0000
;
