#TITLE:starmine;
#SUBTITLE:(pop'n mixxx);
#ARTIST:Ryu;
#TITLETRANSLIT:;
#SUBTITLETRANSLIT:;
#ARTISTTRANSLIT:;
#CREDIT:;
#BANNER:starmine_popn-bn.png;
#BACKGROUND:starmine_popn-bg.png;
#LYRICSPATH:;
#CDTITLE:!spec_cd.png;
#MUSIC:starmine_popn.mp3;
#OFFSET:-2.671;
#SAMPLESTART:37.152;
#SAMPLELENGTH:15.000;
#SELECTABLE:YES;
#BPMS:0.000=174.000;
#STOPS:;
#BGCHANGES:;
// cache tags:
#FIRSTBEAT:0.000;
#LASTBEAT:300.000;
#SONGFILENAME:Songs/Community Keyboard Megapack - Volume 2/(Spectere) Starmine (Pop'n Mixxx)/starmine_popn.sm;
#HASMUSIC:1;
#HASBANNER:1;
#MUSICLENGTH:110.477;
// end cache tags

//---------------dance-single - ----------------
#NOTES:
     dance-single:
     :
     Challenge:
     11:
     0.844,0.883,1.000,0.027,0.131,476.000,174.000,3.000,0.000,0.000:  // measure 1
1001
1100
1001
0011
,  // measure 2
0101
1010
0101
1001
,  // measure 3
1010
0100
0010
0001
0110
0001
1000
0100
,  // measure 4
1001
1000
0110
0001
1010
0100
0101
0010
,  // measure 5
1100
0010
0101
1000
0101
1000
0011
0010
,  // measure 6
0101
0010
1100
0001
0110
1000
0101
0010
,  // measure 7
1010
0100
0101
0010
1010
0001
1001
0001
,  // measure 8
0110
1000
0000
0100
0010
0001
0100
0010
,  // measure 9
1001
0000
0100
0000
0010
0000
0010
0001
,  // measure 10
0000
0001
0000
0001
0100
0000
0100
0000
,  // measure 11
0100
0000
0001
0000
0100
0000
0001
0010
,  // measure 12
0000
0010
0000
0010
0010
0100
1000
0000
,  // measure 13
1000
0000
1000
0000
0010
0000
0010
0100
,  // measure 14
0000
0100
0000
0100
0001
0000
0001
0000
,  // measure 15
1001
0000
1001
0000
1100
0000
0000
0011
,  // measure 16
0000
0011
0000
0011
0011
0101
0101
1001
,  // measure 17
2010
0000
0100
0000
0010
0000
0001
3000
,  // measure 18
0101
0000
0101
0000
0110
0000
1010
0001
,  // measure 19
0100
0001
0010
0001
1100
0000
0110
0000
,  // measure 20
1001
0000
0110
0000
1001
0000
0110
1000
,  // measure 21
0100
1000
0100
1000
1010
0100
0011
0000
,  // measure 22
1100
0000
0011
0000
0110
0000
1010
0001
,  // measure 23
0010
0001
0100
0010
0101
0000
1100
0000
,  // measure 24
1001
0000
0110
0000
1001
0000
0000
0100
,  // measure 25
0000
0100
0000
0100
0100
0010
1000
0100
,  // measure 26
0110
0000
1010
0000
0011
0000
0011
1000
,  // measure 27
0100
1000
0001
1000
0011
0000
0110
0000
,  // measure 28
1100
0000
1010
0000
1100
0000
1010
0100
,  // measure 29
0001
0100
0001
0100
1100
0010
0011
0000
,  // measure 30
1001
0000
1010
0000
0011
0000
1010
0100
,  // measure 31
0010
0100
1000
0100
0011
0000
0101
0000
,  // measure 32
0011
0000
0110
0000
1001
0000
0100
0010
,  // measure 33
0001
0010
0001
0010
0110
0001
1100
1000
,  // measure 34
0101
0010
1010
0100
0101
0010
0011
0100
,  // measure 35
0110
1000
0101
0010
1100
0001
0110
0010
,  // measure 36
1100
1000
0101
0010
0011
0001
0110
0001
,  // measure 37
1100
0010
1100
1000
0101
0010
0110
0010
,  // measure 38
1001
0100
1100
0001
0110
0001
1010
0001
,  // measure 39
0101
0010
1100
1000
0101
0010
1001
0010
,  // measure 40
0110
0000
0011
0000
1100
0000
0000
0100
,  // measure 41
0000
0100
0000
0100
0001
0010
0100
1000
,  // measure 42
0101
0000
0000
0000
0100
0000
0000
0000
1000
0010
0100
0001
0010
0100
1000
0100
,  // measure 43
1000
0000
1000
0000
0100
0000
0100
0000
1000
0000
0100
1000
0000
1000
0100
0010
,  // measure 44
0001
0000
0001
0000
0010
0000
0010
0000
0100
0000
0100
0010
0000
0010
0100
0010
,  // measure 45
0001
0000
0001
0000
1000
0000
1000
0000
0001
0000
1000
0001
0000
0001
1000
0100
,  // measure 46
0010
0000
0010
0000
0001
0000
0001
0000
0100
0000
0001
0100
0000
0100
0001
0010
,  // measure 47
0100
0000
0100
0000
1000
0000
1000
0000
0100
0000
1000
0100
0000
0100
1000
0100
,  // measure 48
0001
0000
0100
0000
0010
0000
0100
0000
1000
0000
1000
0100
0000
0100
1000
0100
,  // measure 49
0010
0001
1000
0100
0010
0100
1000
0001
0010
0100
1000
0100
1000
0001
0010
0000
,  // measure 50
0000
0110
0000
1001
0010
0100
1000
0010
,  // measure 51
0100
0000
0100
0000
0001
0000
0001
0010
,  // measure 52
0000
0010
0000
0010
0100
0000
0100
0000
,  // measure 53
0010
0000
0100
0000
0010
0000
0100
0010
,  // measure 54
0000
0010
0000
0010
0010
0100
1000
0000
,  // measure 55
0001
0000
0001
0000
0010
0000
0010
0100
,  // measure 56
0000
0100
0000
0100
0010
0000
0010
0000
,  // measure 57
0101
0000
0110
0000
1010
0000
0000
1100
,  // measure 58
0000
1100
0000
1100
1100
0110
0011
0101
,  // measure 59
1010
0010
0110
0001
1100
0001
0110
0010
,  // measure 60
1100
0100
1001
0010
1010
0100
0110
0001
,  // measure 61
1001
0010
1100
0010
0101
0010
1010
0100
,  // measure 62
0011
0100
1010
0100
0101
0010
1100
0001
,  // measure 63
1010
0000
1100
0000
0011
0000
0110
0001
,  // measure 64
0010
0001
0100
0001
0110
0000
1100
0000
,  // measure 65
0011
0000
0110
0000
1100
0000
0001
0010
,  // measure 66
0100
0010
0001
0010
0110
0100
1001
0010
,  // measure 67
1100
0000
1100
0000
0011
0000
0101
0010
,  // measure 68
0001
0010
0100
0010
0011
0000
1001
0000
,  // measure 69
0110
0000
0110
0000
0101
0000
1010
0100
,  // measure 70
0010
0100
0001
0010
0110
1000
0011
0000
,  // measure 71
1001
0000
0101
0000
1010
0000
0101
0010
,  // measure 72
0001
0100
0001
0010
1100
0000
0110
0000
,  // measure 73
0011
0000
0110
0000
1100
0000
0000
0010
,  // measure 74
0000
0010
0000
0010
0101
0010
1010
0100
,  // measure 75
2002
0000
0000
0000
,  // measure 76
3003
0000
0000
0000
;
