#TITLE:DIGI-ORDER;
#SUBTITLE:;
#ARTIST:Kitcaliber;
#TITLETRANSLIT:;
#SUBTITLETRANSLIT:;
#ARTISTTRANSLIT:;
#CREDIT:;
#BANNER:Bn-DIGI.png;
#BACKGROUND:Bg-DIGI.png;
#LYRICSPATH:;
#CDTITLE:;
#MUSIC:Digi-Order.ogg;
#OFFSET:-0.151;
#SAMPLESTART:48.170;
#SAMPLELENGTH:16.000;
#SELECTABLE:YES;
#BPMS:0.000=240.000;
#STOPS:;
#BGCHANGES:;
// cache tags:
#FIRSTBEAT:32.000;
#LASTBEAT:544.000;
#SONGFILENAME:Songs/SPEEEDCOOOORE 3/Digi-Order - [Aoreo]/Digi-Order.sm;
#HASMUSIC:1;
#HASBANNER:1;
#MUSICLENGTH:137.130;
// end cache tags

//---------------dance-single - J. Nero----------------
#NOTES:
     dance-single:
     J. Nero:
     Challenge:
     17:
     1.000,1.000,0.109,0.277,1.000,1164.000,15.000,38.000,0.000,0.000:
0000
0000
0000
0000
,
0000
0000
0000
0000
,
0000
0000
0000
0000
,
0000
0000
0000
0000
,
0000
0000
0000
0000
,
0000
0000
0000
0000
,
0000
0000
0000
0000
,
0000
0000
0000
0000
,
0001
0100
0001
0010
0100
1000
0010
0100
,
0001
1000
0100
0010
0001
1000
0010
0100
,
0001
1000
0001
0010
0100
1000
0010
0100
,
0001
1000
0100
0010
0001
0100
0010
1000
,
0001
0100
0001
1000
0100
0010
0001
0100
,
0010
1000
0001
0100
0001
0010
0100
1000
,
0010
0100
0001
1000
0100
0010
0001
0100
,
0001
1000
0100
1000
0001
0010
0001
1000
0100
0010
0001
1000
0100
1000
0001
0100
,
0001
0100
0010
1000
0100
0010
0001
0100
,
0010
0100
0001
0010
0100
1000
0001
0100
,
0101
0000
0001
1000
0100
0010
0001
1000
,
0001
0100
0010
0100
0001
1000
0100
0010
,
0011
0000
0001
0100
0001
0010
0100
1000
,
0001
0100
0010
0100
0001
1000
0100
1000
,
1001
0000
0001
0100
0010
0100
0001
0010
,
0100
1000
0001
0010
0100
1000
0010
0100
,
0110
0000
0010
1000
0100
0010
0001
0100
,
0010
0100
0001
0010
0100
1000
0001
1000
,
1100
0000
0100
1000
0010
0100
0001
1000
,
0100
0010
0001
0100
0010
0100
0001
1000
,
1010
0000
0010
0100
0001
0010
0100
1000
,
0010
0100
0001
1000
0100
0010
0001
0100
,
0101
0000
0001
0010
0100
1000
0010
0100
,
0001
0100
0001
1000
0100
0010
0001
1000
0010
0100
0001
1000
0001
0000
0000
0000
,
1000
0000
0010
0000
0100
0001
0010
0100
,
1000
0000
0100
1000
0000
0001
1000
1000
,
0010
0000
0100
0000
0001
0010
0100
1000
,
0001
0000
1000
0001
0100
0000
0010
0000
0100
0000
0001
0000
1000
0000
0100
0000
,
1000
0000
0001
0000
0100
0000
0010
0100
,
0001
0000
1000
0100
0000
1000
0001
0001
,
0100
0000
0001
0000
0010
0100
1000
0001
,
0100
0000
0001
0100
0001
0000
1000
0000
0010
0000
0100
0000
0001
0000
1000
0000
,
0100
0000
1000
0100
1000
0000
0001
0010
0100
0000
1000
0001
1000
0000
0001
0100
,
0001
0000
0100
0010
0100
0000
0010
1000
0010
0000
0100
0001
1000
0000
0001
0000
,
0100
0000
0001
1000
0001
0000
1000
0100
1000
0000
0100
0010
0001
0000
1000
0001
,
1000
0000
0001
0100
0001
0000
1000
0000
0010
0000
0100
0000
0001
0000
1000
0100
,
1000
0000
0001
0100
0001
0000
1000
0100
1000
0000
0100
0010
0001
0000
1000
0001
,
1000
0000
0001
0100
0001
0000
1000
0010
1000
0000
0001
0010
0100
0000
1000
0000
,
0001
0000
0100
0001
0100
0000
0001
0010
0100
0000
1000
0001
1000
0000
0001
0100
,
0002
2003
3200
2300
3002
0023
0230
0000
,
1300
0001
1000
0010
0100
0010
1000
0001
0010
0100
1000
0001
0010
0001
1000
0001
,
0100
0010
0100
0001
1000
0100
0010
0001
1000
0001
0100
0001
1000
0010
0100
0010
,
1000
0001
0100
0001
1000
0100
0010
0001
1000
0100
1000
0001
0100
0001
1000
0010
,
0100
0010
1000
0001
0100
0001
1000
0100
0010
0100
1000
0001
0010
0100
1000
0001
,
0100
0010
0100
0001
1000
0001
0100
0010
0100
0001
1000
0100
1000
0001
0010
0100
,
1000
0001
0100
0001
1000
0001
0100
0010
0100
0001
1000
0100
1000
0001
0010
0100
,
1000
0001
0100
0001
1000
0010
0100
0010
1000
0001
0100
0001
1000
0100
0010
0001
,
1000
0100
1000
0001
0010
0001
1000
0001
0100
0010
0100
0001
1000
0001
0100
0010
,
0100
0001
1000
0100
1000
0001
0010
0100
1000
0001
0100
0001
1000
0010
0100
0010
,
1000
0001
0100
0001
1000
0100
0010
0100
1000
0001
0010
0100
1000
0001
0100
0001
,
1000
0010
0100
0010
1000
0001
0010
0100
1000
0001
0010
0001
1000
0001
0100
0010
,
0100
0001
1000
0100
1000
0001
0100
0010
0100
0001
1000
0001
0010
0100
1000
0001
,
1000
0010
0100
0010
1000
0001
0010
0100
1000
0001
0010
0001
1000
0010
0100
0001
,
1000
0100
1000
0001
0100
0001
1000
0010
0100
0010
1000
0001
0010
0100
1000
0001
,
0010
0001
1000
0100
0010
0001
1000
0001
0100
0010
0100
0001
1000
0100
0010
0001
,
1000
0100
1000
0001
0100
0010
0100
0001
1000
0001
0010
0100
1000
0001
0100
0001
,
2000
3000
0000
0000
0000
0000
0000
0000
0000
0000
0000
0000
0000
0000
0000
0000
,
0000
0000
0000
0000
,
0000
0000
0000
0000
,
0000
0000
0000
0000
,
0000
0000
0000
0000
,
0000
0000
0000
0000
,
0000
0000
0000
0000
,
0001
0100
0001
1000
0100
0010
0001
1000
0001
0100
0010
0100
0001
1000
0100
1000
,
0001
0100
0010
0100
0001
1000
0100
1000
,
0001
0100
0001
1000
0100
0010
0001
0100
,
0101
0000
0001
1000
0100
1000
0001
0100
,
0010
0100
0001
1000
0100
0010
0001
1000
,
1100
0000
0100
1000
0010
0100
0001
1000
,
0100
0010
0001
0100
0010
0100
0001
1000
,
1010
0000
0010
0100
0001
1000
0100
0010
,
0001
0100
0010
0100
0001
0010
0100
1000
,
1001
0000
0001
0100
0010
0100
0001
1000
,
0100
0010
0001
0100
0010
1000
0100
1000
,
1100
0000
0100
1000
0010
0100
0001
0010
,
0100
1000
0001
0010
0100
0010
0001
0100
,
0110
0000
0010
1000
0100
0010
0001
0100
,
0001
1000
0100
0010
0100
1000
0001
0100
,
0101
0000
0001
0010
0100
1000
0010
0100
,
0001
0100
0001
1000
0100
0010
0001
1000
0010
0100
0001
1000
0001
0000
0000
0000
,
1001
1000
0100
0010
0001
1000
0001
1000
,
0100
0100
0001
0100
0100
1000
0100
0100
,
0001
0010
0001
1000
0010
0100
0001
1000
,
0100
0100
0001
0100
0100
1000
0100
0100
,
0001
1000
0100
1000
0001
0010
0100
1000
,
0100
0100
0001
0100
0100
1000
0100
0100
,
0001
0010
0001
1000
0010
0100
0001
1000
,
0000
0000
0000
0000
0000
0000
0000
0000
0000
0000
0000
0000
0001
0010
0100
1000
,
0001
0000
1000
0001
1000
0000
0001
0010
0001
0000
1000
0100
1000
0000
0001
0100
,
0001
0000
1000
0010
1000
0000
0010
0100
0010
0000
1000
0001
0010
0000
0001
0000
,
1000
0000
0001
0100
0001
0000
0100
0010
0100
0000
0001
1000
0001
0000
1000
0100
,
1000
0000
0001
1000
0010
0000
0100
0000
0001
0000
1000
0010
1000
0000
0001
0010
,
0001
0000
1000
0100
1000
0000
0001
1000
0001
0000
0100
0010
0100
0000
0001
1000
,
0001
0000
1000
0100
1000
0000
0001
0100
0001
0000
1000
0010
0100
0000
0001
0000
,
1000
0000
0001
0010
0001
0000
1000
0100
1000
0000
0001
0100
0001
0000
0100
0010
,
2000
3002
0023
0032
2003
3020
0230
0000
,
0301
1000
0001
0010
0100
0010
0001
1000
0010
0100
0001
1000
0010
1000
0001
1000
,
0100
0010
0100
1000
0001
0100
0010
1000
0001
1000
0100
1000
0001
0010
0100
0010
,
0001
1000
0100
1000
0001
0100
0010
1000
0001
0100
0001
1000
0100
1000
0001
0010
,
0100
0010
0001
1000
0100
1000
0001
0100
0010
0100
0001
1000
0010
0100
0001
1000
,
0100
0010
0100
1000
0001
1000
0100
0010
0100
1000
0001
0100
0001
1000
0010
0100
,
0001
1000
0100
1000
0001
1000
0100
0010
0100
1000
0001
0100
0001
1000
0010
0100
,
0001
1000
0100
1000
0001
0010
0100
0010
0001
1000
0100
1000
0001
0100
0010
1000
,
0001
0100
0001
1000
0010
1000
0001
1000
0100
0010
0100
1000
0001
1000
0100
0010
,
0100
1000
0001
0100
0001
1000
0010
0100
0001
1000
0100
1000
0001
0010
0100
0010
,
0001
1000
0100
1000
0001
0100
0010
0100
0001
1000
0010
0100
0001
1000
0100
1000
,
0001
0010
0100
0010
0001
1000
0010
0100
0001
1000
0010
1000
0001
1000
0100
0010
,
0100
1000
0001
0100
0001
1000
0100
0010
0100
1000
0001
1000
0010
0100
0001
1000
,
0001
0010
0100
0010
0001
1000
0010
0100
0001
1000
0010
1000
0001
0010
0100
1000
,
0001
0100
0001
1000
0100
1000
0001
0010
0100
0010
0001
1000
0010
0100
0001
1000
,
0010
1000
0001
0100
0010
1000
0001
1000
0100
0010
0100
1000
0001
0100
0010
1000
,
0001
0100
0001
1000
0100
0010
0100
1000
0001
1000
0010
0100
0001
1000
0100
1000
,
0002
0000
0000
0000
,
0023
0000
0000
0000
,
0230
0000
0000
2300
,
3002
0000
0000
0003
,
0200
0000
0000
0000
,
0320
0000
2030
0000
,
3200
0000
0000
0320
,
0032
0000
0000
0003
,
2000
0000
0000
0000
,
3200
0000
0320
0000
,
0230
0000
2300
3020
,
0230
0000
0000
0300
,
0002
0000
0000
0000
,
2003
0000
3002
0000
,
0203
0000
0000
0000
0000
0000
0000
0000
0000
0000
0000
0000
0000
0000
0000
0300
,
0200
0000
0000
0000
,
0300
0000
0000
0000
;
