#TITLE:Malicious Fingers;
#SUBTITLE:Sonic the Hedgehog 3;
#ARTIST:Snappleman;
#TITLETRANSLIT:;
#SUBTITLETRANSLIT:;
#ARTISTTRANSLIT:;
#CREDIT:;
#BANNER:bn.png;
#BACKGROUND:bg.png;
#LYRICSPATH:;
#CDTITLE:cdtitle.png;
#MUSIC:209 - SnappleMan - Malicious Fingers (Final Boss).mp3;
#OFFSET:0.780;
#SAMPLESTART:100.000;
#SAMPLELENGTH:12.000;
#SELECTABLE:YES;
#BPMS:0.000=200.001,4.000=151.000,60.000=148.200,69.000=151.020,72.000=150.000,80.500=150.020,96.000=149.840,102.000=150.001,108.000=100.130,113.000=99.910,118.000=100.710,120.000=200.661,128.000=100.730,132.000=201.461,136.000=199.981;
#STOPS:129.750=0.020
;
#BGCHANGES:;
// cache tags:
#FIRSTBEAT:4.000;
#LASTBEAT:824.000;
#SONGFILENAME:Songs/Astronomic Metal Collection 2/(Scylaax + N.T.M.) Malicious Fingers/209 - SnappleMan - Malicious Fingers (Final Boss).sm;
#HASMUSIC:1;
#HASBANNER:1;
#MUSICLENGTH:277.133;
// end cache tags

//---------------dance-single - ----------------
#NOTES:
     dance-single:
     :
     Hard:
     12:
     1.000,1.000,1.000,1.000,0.859,1612.000,351.000,428.000,0.000,156.000:
0000
0000
0000
0000
,
0110
0000
0000
0000
0110
0000
0000
0000
1010
0000
0000
0000
0001
0100
0010
0001
,
1100
0000
0000
0000
0000
0000
0000
0000
0010
0000
0000
0000
0000
0000
0000
0000
0001
0000
0000
0000
0000
0000
0000
0000
0010
0000
0000
0000
0100
0000
0000
0000
0000
0000
0000
0000
0000
0000
0000
0000
1000
0000
0000
0000
0000
0000
0000
0000
0010
0000
0000
0000
0001
0000
0000
0000
0200
0300
0000
0000
0001
0000
0000
0000
,
1010
0000
0000
0000
0011
0000
1000
0001
0110
0000
0000
0000
1000
0100
0001
0100
,
1010
0100
0010
0001
0100
0010
1000
0010
,
0100
0000
0100
0000
0010
0100
0010
0010
0001
0010
1000
1000
0100
0010
0100
0100
,
0001
0000
0001
0000
0001
0010
0001
0010
0001
0000
1001
0000
0001
0000
0101
0000
,
0001
0000
0001
0000
0001
1000
0010
0010
0100
0001
1000
1000
0001
0010
0100
0100
,
1000
0000
0000
0000
0010
0000
0000
0000
0100
0000
0000
0000
0000
0000
0000
0000
0100
0000
0000
0000
0001
0000
0000
0000
0010
0000
0000
0000
0000
0000
0000
0000
0010
0000
0000
0000
0100
0000
0000
0000
1000
0000
0000
0000
0000
0000
0000
0000
1000
0000
0000
0000
0001
0000
0000
0000
0010
0000
0000
0000
0000
1110
0000
0000
,
0000
0000
0000
0000
0000
0000
0000
0000
1011
0000
0000
0000
,
0000
0000
0000
0000
0000
0000
0000
0000
0000
0000
0000
0000
0000
0000
0000
0000
0000
1101
0000
0000
0000
0000
0000
0000
0000
0000
0000
0000
0000
0000
0000
0000
0000
0000
0000
0000
0000
0000
0000
0000
0000
0000
0000
0000
0000
0000
0000
0000
,
0000
0000
0000
0000
0000
0000
0000
0000
0000
0100
0000
0000
0000
0000
0000
0000
0000
0000
0000
0000
0000
0000
0000
0000
0000
0000
0000
0000
0000
0000
0000
0000
0000
0000
0000
0000
0000
0000
0000
0000
0000
0000
0000
0000
0100
0000
0000
0000
0000
0000
0000
0000
0000
0000
0000
0000
0000
0000
0000
0000
0000
0000
0000
0000
0000
0000
0000
0000
0000
0000
0000
0000
0000
0000
0000
0000
0000
0000
0100
0000
0000
0000
0000
0000
0000
0000
0000
0000
0000
0000
0000
0000
0000
0000
0000
0000
0000
0000
0000
0000
0000
0000
0000
0000
0000
0000
0000
0000
0000
0000
0000
0100
0000
0000
0000
0000
0000
0000
0000
0000
0000
0000
0000
0000
0000
0000
0000
0000
0000
0000
0000
0000
0000
0000
0000
0000
0000
0000
0000
0000
0000
0100
0000
0000
0000
0000
0000
0000
0000
0000
0000
0000
0000
0000
0000
0000
0000
0000
0000
0000
0000
0000
0000
0000
0000
0000
0000
0000
0100
0000
0000
0000
0000
0000
0000
0000
0000
0000
0000
0000
0000
0000
0000
0000
0000
0000
0000
0000
0000
0000
0000
0000
,
0000
0000
0000
0100
0000
0000
0000
0000
0000
0000
0000
0000
0000
0000
0000
0000
0000
0000
0000
0000
0000
0000
0000
0000
0000
0000
0000
0100
0000
0000
0000
0000
0000
0000
0000
0000
0000
0000
0000
0000
0000
0000
0000
0000
0000
0000
0000
0000
0100
0000
0000
0000
0000
0000
0000
0000
0000
0000
0000
0000
0000
0000
0000
0000
0000
0000
0000
0000
0100
0000
0000
0000
0000
0000
0000
0000
0000
0000
0000
0000
0000
0000
0000
0000
0100
0000
0000
0000
0000
0000
0000
0000
0000
0000
0000
0000
0000
0000
0000
0000
2022
0000
0000
0000
0000
0000
0000
0000
0000
0000
0000
0000
0000
0000
0000
0000
0000
0000
0000
0000
0000
0000
0000
0000
0000
0000
0000
0000
0000
0000
0000
0000
0000
0000
0000
0000
0000
0000
0000
0000
0000
0000
0000
0000
0000
0000
0000
0000
0000
0000
0000
0000
0000
0000
0000
0000
0000
0000
0000
0000
0000
0000
0000
0000
0000
0000
0000
0000
0000
0000
0000
0000
0000
0000
0000
0000
0000
0000
0000
0000
0000
0000
0000
0000
0000
0000
0000
0000
0000
0000
0000
0000
,
0000
0000
0000
0000
0000
0000
0000
0000
0000
0000
0000
0000
0000
0000
0000
0000
0000
0000
3000
0030
0000
0003
0000
0000
0000
0000
0000
0000
0000
0000
0000
0000
0000
0000
0000
0000
0000
0000
0000
0000
0000
0000
0000
0000
0000
0000
0000
0000
,
0000
0000
0000
0000
0000
0000
0000
0000
0000
0000
0000
0000
0000
0000
0000
0100
,
2011
0000
0000
0000
,
0000
0000
3121
0000
,
0000
1231
0000
0000
0000
0000
0000
0000
0000
0000
0000
0000
0000
0000
0000
0000
,
2311
0000
0000
0000
,
0000
0000
3121
0000
,
0000
1231
0000
0000
0000
0000
0000
0000
0000
0000
0000
0000
0000
0000
0000
0000
,
2311
0000
0000
0000
0000
0000
0100
0000
0000
0100
0000
0000
0011
0000
0000
0001
,
0000
0000
0000
0000
0010
0000
0000
0000
0000
0000
0001
0000
0000
0000
0000
0000
3121
0000
0000
0000
0000
0000
0000
0000
0000
0100
0000
0000
0000
0000
0000
0000
,
0000
0000
1231
0000
0000
0000
0000
0000
0000
0000
0000
0000
0000
0000
0001
0000
0000
0000
0000
0000
1000
0000
0000
0000
0000
0000
1000
0000
0000
0010
0000
0000
,
2311
0000
0000
0000
0000
0000
0100
0000
0000
0100
0000
0000
0011
0000
0000
0000
,
0000
0000
0000
0000
0000
0000
0000
0000
0010
0000
0000
0000
0000
0000
0000
0000
0000
0000
0000
0000
0010
0000
0000
0000
0000
0000
0000
0000
0000
0000
0000
0000
3111
0000
0000
1000
0000
0000
0100
0000
0000
0010
0000
0000
1000
0000
0000
0010
0000
0000
0001
0000
0000
0100
0000
0000
0010
0000
0000
0001
0000
0000
1000
0000
,
0000
0100
0000
0000
0001
0000
0000
1000
0000
0000
0010
0000
0000
0001
0000
0000
1000
0000
0000
0100
0000
0000
0010
0000
0000
0100
0000
0000
1000
0000
0000
0100
0000
0000
0010
0000
0000
0001
0000
0000
0010
0000
0000
0100
0000
0000
0001
0000
0000
1000
0000
0000
0001
0000
0000
0100
0000
0000
0010
0000
0000
0001
0000
0000
,
1120
0000
0000
0000
0000
0000
0000
0000
0000
0000
0000
0000
0000
0000
0000
0000
0000
0000
0000
0000
0000
0000
0000
0000
0000
0000
0000
0000
0000
0000
0000
0000
0000
0000
0000
0000
0000
0000
0000
0000
0000
0000
0000
0000
0000
0000
0000
0000
0100
0000
0000
0000
0000
0000
0000
0000
0000
0000
0000
0000
0000
0000
0000
0000
0000
0000
0000
0000
0000
0000
0000
0000
0100
0000
0000
0000
0000
0000
0000
0000
0000
0000
0000
0000
0000
0000
0000
0000
0000
0000
0000
0000
0000
0000
0000
0000
0001
1000
0000
0000
0000
0000
0000
0000
0000
0000
0000
0000
0000
0000
0000
0000
0000
0000
0000
0000
0000
0000
0000
0000
0100
0000
0000
0000
0000
0000
0000
0000
0000
0000
0000
0000
0000
0000
0000
0000
0000
0000
0000
0000
0000
0000
0000
0000
1001
0000
0000
0000
0000
0000
0000
0000
0000
0000
0000
0000
0000
0000
0000
0000
0000
0000
0000
0000
0000
0000
0000
0000
0100
0000
0000
0000
0000
0000
0000
0000
0000
0000
0000
0000
1000
0000
0000
0000
0000
0000
0100
0000
0000
0000
0000
0000
,
1132
0000
0000
0000
0000
0000
0000
0000
1000
0000
0000
0000
1123
0000
0000
0000
0100
0000
0000
0000
0000
0000
0000
0000
0101
0000
0000
0000
1000
0000
0001
1000
,
2131
0000
0000
0000
0000
0000
0000
0000
0000
0000
0000
0000
0000
0000
0000
0000
0000
0000
0000
0000
0000
0000
0000
0000
0000
0000
0000
0000
0000
0000
3100
0010
,
1000
0100
0010
1000
0010
0001
1000
0100
0001
1000
0010
0001
1000
0100
0010
0001
,
1000
0000
0000
0000
0010
0000
0000
0000
0100
0000
0000
0000
0001
0000
0000
0000
1000
0000
0000
0000
0001
0000
0000
0000
0100
0000
0000
0000
0010
0000
0000
0000
0001
0000
0000
0000
0010
0000
0000
0000
1000
0000
0000
0000
0001
0000
0000
0000
0100
0000
0000
0000
0010
0000
0000
0000
1000
0000
0000
0000
0100
0000
0000
0010
,
0000
0000
0100
0002
0000
0000
0000
0000
0000
0000
0000
0000
0000
0000
0000
0000
0000
0000
0000
0000
0000
0000
0000
0000
0000
0000
0000
0000
0000
0000
0000
0000
1013
0000
0000
0000
0000
0000
0000
0000
1010
0000
0000
0000
0000
0000
0000
0000
1010
0000
0000
0000
0000
0000
0000
0000
1010
0000
0000
0000
0000
0000
0000
0000
,
1100
1100
0001
0010
0100
0010
1100
1100
0001
0100
0010
0001
1100
1100
0010
0100
,
1012
0100
2013
0000
3002
0010
1203
0000
,
0321
0000
0001
0000
1230
0000
0001
0000
2300
0000
0001
0001
3120
0000
0000
0000
,
0231
0001
2310
0001
3200
0010
1302
0000
,
2013
0000
0010
0001
3120
0000
0000
0000
2031
0100
0010
0100
3012
0000
0000
0000
,
0213
0000
1320
0000
0230
1000
0321
0000
,
2031
0000
3120
0000
2130
0100
3012
0100
,
0123
0000
0100
0000
2031
0000
0000
0000
3021
0000
0001
1000
0231
0000
1000
0001
,
2310
0010
3102
0000
1023
1000
0231
0000
,
1321
0000
2031
0100
3002
0100
0213
0000
,
1320
0000
0231
0000
2310
0010
3021
1000
,
1230
0000
0321
0100
2030
0100
3012
0000
,
2103
0000
0100
0000
3201
0000
0000
0000
0321
1000
0001
1000
0231
0000
0010
1000
,
0312
0000
0000
0000
2103
0000
0001
0000
3020
0000
0001
0001
2130
0000
0000
0000
,
3201
0000
1000
0001
1320
0000
0000
0000
1032
0100
0010
1000
0213
0000
0000
0000
,
1302
0000
1000
0000
0123
0000
0000
0000
1032
0000
1000
0010
2103
0000
0001
0100
,
3001
0100
0001
1000
0001
1000
0001
0100
0010
0100
0010
1000
0001
1000
0001
0100
,
2001
3000
0000
0200
0300
0000
0021
0030
0000
2001
3000
0000
0002
0003
0000
1020
0030
0000
0201
0300
0000
2000
3000
0000
,
0100
0100
0011
0100
0000
0100
0011
0011
,
2001
3000
0000
0201
0300
0000
1020
0030
0000
0201
0300
0000
0002
0003
0000
0201
0300
0000
1020
0030
0000
2000
3000
0000
,
0100
0000
0100
0100
0011
0000
0000
0000
0100
0000
0100
0100
0011
0000
0100
0000
,
2101
3000
0000
0020
0030
0000
1002
0003
0000
0200
0300
0000
0002
0003
0000
1020
0030
0000
0201
0300
0000
0020
0030
0000
,
2001
3000
0000
0200
0300
0000
1002
0003
0000
0200
0300
0000
2001
3000
0000
0021
0030
0000
1002
0003
0000
1020
0030
0000
,
2001
3000
0000
0201
0300
0000
0120
0030
0000
2000
3000
0000
1002
0003
0000
1020
0030
0000
0201
0300
0000
1020
0030
0000
,
1200
0000
0300
0000
0000
0000
1020
0000
0030
0000
0000
0000
1102
0000
0003
0000
0000
0000
0020
0000
0030
0000
0000
0000
2001
0000
3000
0000
0000
0000
0201
0000
0300
0000
0000
0000
1021
0000
0030
0000
0000
0000
0201
0000
0300
0010
0000
0000
,
1001
1000
0011
1000
1000
1000
0011
1000
,
1000
0000
1000
0000
0011
0000
1000
0000
1000
0000
1000
0000
0001
0010
0001
0010
,
1001
0100
0010
1000
0102
0000
0000
0000
1003
0100
0010
1000
0102
0000
0000
0000
,
0013
0000
0010
0000
1101
0000
1101
0000
0010
0001
1000
0100
0021
0000
0000
0000
,
0130
0001
1000
0100
0021
0000
0000
0000
1030
0000
1000
0000
0111
0000
0111
0000
,
1000
0001
0100
0010
1002
0000
0000
0000
1003
0001
0100
0010
1002
0000
0000
0000
,
0103
0000
0100
0000
1011
0000
1011
0000
0100
0001
1000
0001
0120
0000
0000
0000
,
0130
0001
1000
0001
0120
0000
0000
0000
2131
0000
0010
0000
0010
0000
0001
0000
,
0001
0000
0000
0000
0100
0000
0000
0000
0100
0000
0000
0000
0000
0000
0000
0000
0000
0000
0000
0000
3100
0000
0010
0000
0100
0000
0000
0000
0020
0030
0000
0000
,
2001
0000
0001
0000
0100
0000
3020
0000
0000
0000
0001
1000
0231
0000
1000
0000
,
0302
1000
0100
0023
1000
1000
0231
0000
,
1320
0000
0001
2030
0100
0100
3012
0100
,
0023
0000
0000
0100
0000
0000
2001
3000
0000
0000
0000
0000
1230
0000
0000
1000
0000
0000
0001
0000
0000
0000
0000
0000
,
2311
0000
0001
3200
1000
1000
0321
0001
,
1032
0100
1000
1203
0010
0001
1320
0001
,
1031
0010
0100
0010
0000
0100
1000
0100
,
0000
0000
0000
1000
0100
0010
0100
0010
,
0002
0000
0000
0023
0000
0000
0230
0320
,
0000
0000
0000
1030
0100
0010
0100
0010
,
0002
0000
0000
0023
0000
0000
0230
2300
,
0000
0000
0000
3000
1000
0100
0010
0001
,
0020
0000
0000
0000
1030
0100
0010
0001
,
0020
0000
0000
0000
1030
0100
0010
1000
,
0001
0010
0100
0020
0000
0130
1000
0100
,
0011
1000
0001
1000
0001
0010
0100
0001
0100
1000
0001
0010
0001
0010
0100
1000
,
0210
0000
2301
0100
3020
0100
0231
0000
,
1302
0000
0123
0000
2031
0001
3120
0000
,
1230
0000
2301
0100
3002
0100
0213
0000
,
0321
0001
1230
0000
2301
0001
3120
0001
,
1032
0000
0000
0000
0010
0000
1000
0000
0000
0000
1000
0100
0010
0000
0000
0000
,
1000
0000
1000
0100
0010
0000
0000
0000
1000
0100
1000
0100
0010
0100
1000
0100
,
1023
0000
1030
0000
1001
0000
0000
0000
1010
0000
0100
0010
1001
0000
0001
1000
,
0011
0100
1000
0010
0101
0010
1000
0100
0011
1000
0100
0010
0101
0010
0100
1000
,
0101
1000
0010
0100
0001
0010
0100
1000
0001
0100
0010
1000
,
0001
0000
0000
0000
0000
0000
0000
0000
0000
0000
0000
0000
0000
0000
0000
0000
1000
0000
0000
0000
0000
0000
0000
0000
0000
0000
0000
0000
0000
0000
0000
0000
0010
0000
0000
0000
0000
0000
0000
0000
0000
0000
0000
0000
0000
0000
0000
0000
0100
0000
0000
0000
0000
0000
0000
0000
0000
0000
0000
0000
0000
0000
0000
0000
0001
0000
0000
0000
0000
0000
0000
0000
0000
0000
0000
0000
0000
0000
0000
0000
0010
0000
0000
0000
0000
0000
0000
0000
0000
0000
0000
0000
0000
0000
0000
0000
1000
0000
0000
0000
0000
0000
0000
0000
0000
0000
0000
0000
0100
0000
0000
0000
0000
0000
0000
0000
0000
0000
0000
0000
0001
0000
0000
0000
0000
0000
0000
0000
0000
0000
0000
0000
0100
0000
0000
0000
0000
0000
0000
0000
0000
0000
0000
0000
0001
0000
0000
0000
0000
0000
0000
0000
0000
0000
0000
0000
0000
0000
0000
0000
0100
0000
0000
0000
0000
0000
0000
0000
0000
0000
0000
0000
1000
0000
0000
0000
0000
0000
0000
0000
0000
0000
0000
0100
0000
0000
0000
0000
0000
0000
0000
0000
,
0010
1000
0100
0010
0001
1000
0001
0100
0010
1000
0010
0100
0001
1000
0100
0010
,
0002
0000
0000
0000
0000
0000
0000
0000
0000
0000
0000
0000
0000
0000
0000
0000
0000
0000
0000
0000
0000
0000
0000
0000
0000
0000
0000
0000
0013
0100
1000
0001
,
0020
0000
0000
0032
0203
0000
0320
0230
0000
0302
0203
0000
0310
1000
0100
0010
,
0001
0010
0100
0010
0100
1000
0001
0100
2000
0000
3010
1000
0001
0010
1000
0100
,
0010
1000
0010
0100
0001
1000
0010
0001
0100
0001
0200
0000
2300
0000
3200
0000
,
0320
0000
0032
0003
0020
0030
0200
0000
0000
0000
0000
0000
0000
0000
0000
0000
,
1301
0101
1010
1100
1001
0011
0110
0110
,
1010
0000
1100
0000
0110
0000
1001
0000
1100
0000
0011
0000
1010
0001
1100
0001
,
1100
0010
0001
0100
2010
0000
0000
0000
3100
0010
0001
0100
2010
0000
0000
0000
,
3001
0000
0001
0000
1110
0000
1110
0000
0001
1000
0100
0010
1002
0000
0000
0000
,
0013
1000
0100
0010
1002
0000
0000
0000
0103
0000
0100
0000
1011
0000
1011
0000
,
0100
1000
0010
0001
2100
0000
0000
0000
3100
1000
0010
0001
2100
0000
0000
0000
,
3010
0000
0010
0000
1101
0000
1101
0000
0010
1000
0100
1000
0012
0000
0000
0000
,
0013
1000
0100
1000
0012
0000
0000
0000
1213
0000
0010
0000
0010
0000
0010
0000
,
0010
0010
1311
0000
0000
0000
0000
0000
,
2011
0000
0001
3200
0010
0010
2301
0010
,
3002
0010
1000
0023
1000
1000
0231
0000
,
1320
0000
0001
0230
1000
1000
0312
1000
,
0023
0000
1000
0000
0001
0000
0000
0000
1230
0000
1000
0010
0001
0000
0000
0000
,
2311
0001
0001
3201
0001
0001
2301
0001
,
3201
0001
0001
0321
0001
0001
1032
1000
,
1223
0000
0300
0000
0000
0000
1000
0000
0000
0000
0000
0000
1002
0000
0000
0003
0000
0000
1230
0000
0000
0000
0000
0000
1000
0000
0000
0000
0000
0000
1000
0000
0000
0000
0000
0000
1322
0000
0000
0003
0000
0000
1000
0000
0000
0000
0000
0000
,
1032
0000
1000
0000
1200
0300
2013
0000
0012
0003
0010
0000
0012
0003
0010
0000
,
3000
2112
0000
0000
,
0000
0000
0000
0000
0000
3003
0000
0000
,
1000
0000
1000
0001
0000
1000
1000
0001
,
1000
0000
1000
0001
0000
1000
1000
0001
,
1000
0000
0000
0000
1000
0000
0001
0000
0000
0000
1000
0100
1000
0100
0001
0000
,
1000
0000
1000
0001
0100
0001
0010
0001
,
1000
0000
1000
0001
0000
1000
1000
0001
,
1000
0000
1000
0001
0000
1000
1000
0001
,
1000
0000
1000
0001
0000
1000
1000
0001
,
1210
0000
0300
0000
0000
0000
1000
0000
0000
0010
0000
0000
1000
0000
0000
0100
0000
0000
0020
0000
0000
0000
0000
0000
,
1132
0000
0003
0020
0000
0030
0200
0000
0300
2000
0000
3000
0200
0000
0300
2000
0000
3000
0002
0000
0003
2000
0000
3000
,
0200
0000
0300
0020
0000
0030
0002
0000
0003
0200
0000
0300
0002
0000
0003
0020
0000
0030
0200
0000
0300
2000
0000
3000
,
0020
0000
0000
0000
,
0032
0000
0000
0000
,
0203
0000
0000
0000
1300
0100
0020
0000
0130
0010
0002
0000
0103
0010
2000
0000
,
3001
1000
0200
0000
1300
0010
0002
0000
1003
0001
0010
0001
0010
0100
1000
0100
,
1000
0100
0010
0001
1000
0010
0100
0001
1000
0001
0010
0001
,
2000
3200
0320
0032
2003
3002
0203
0320
,
2030
0000
0000
0000
0000
0000
3000
0000
0000
0000
1000
0100
0001
0100
0010
0001
,
0010
0100
1000
0100
1000
0001
0010
0100
1000
0100
0010
0001
0100
0001
0010
0100
,
0001
0010
0100
1000
0001
1000
0010
0100
1000
0100
0001
0010
0100
1000
0100
0010
,
0100
1000
0001
1000
0100
0010
0001
0010
0100
0010
0100
1000
0001
0010
1000
0100
,
1000
0100
0010
1000
0010
0001
1000
0100
0001
0100
0010
0001
1000
0100
0010
0001
,
1000
0100
0001
1000
0010
0001
0100
0010
0001
1000
0100
0010
1000
0100
0001
1000
,
0010
0001
0100
0010
0001
1000
0010
0001
1000
0100
0001
1000
0100
0010
1000
0100
,
0001
0100
0010
0001
1000
0001
0100
0010
1000
0100
0010
0001
0010
0100
1000
0100
,
0020
0000
0032
0000
,
2003
0000
0000
0000
3200
0000
0310
1000
,
0002
0000
0000
0000
,
0000
0000
0000
0003
,
0001
0010
0100
1000
0001
0010
0100
1000
0001
0010
0100
1000
0001
0010
0100
1000
,
0001
0010
0100
1000
0001
0010
0100
1000
0001
0010
0100
1000
0001
0010
0100
1000
,
0001
1000
0010
0100
0001
1000
0010
0100
0001
1000
0010
0100
0001
1000
0010
0100
,
0001
0100
1000
0010
0001
0100
1000
0010
0001
0100
1000
0010
0001
0100
1000
0010
,
0002
0000
0000
0000
,
0023
0230
0302
0023
0230
0320
2030
3200
,
2300
0000
3100
0010
0001
1000
0100
0001
0100
1000
0001
0100
0010
0100
1000
0010
,
0001
0000
0000
0000
0010
0000
0000
0000
0100
0000
0000
0000
1000
0000
0000
0000
0100
0000
0000
0000
1000
0000
0000
0000
0200
0000
0000
0000
0000
0320
0000
0000
0000
0000
0032
0000
0000
0000
0000
0003
0002
0000
0000
0000
0000
0000
0000
0000
0000
0000
0000
0000
0000
0000
0000
0000
0000
0000
0000
0000
0000
0000
0000
0000
,
1223
0000
0000
0000
,
0000
0000
0000
0000
,
0030
0000
0000
0000
,
0300
0000
0000
0000
0000
0010
0011
0000
,
2011
0000
0000
0000
0000
0000
3002
0000
0000
0000
0023
0000
0000
0000
0130
0010
,
0002
0000
0000
0000
0013
0100
0020
0000
0000
0000
0130
1000
0010
0100
1000
0100
,
0020
0000
0031
1000
0001
0100
0010
1000
,
0100
0000
0010
0000
0100
0000
0010
0000
0000
0000
0010
0001
2000
0000
0000
0000
,
3100
0000
0000
0000
0000
0000
0000
0000
0000
0000
0000
0000
0000
0000
0000
0000
0000
0000
0000
0000
0000
0000
0000
0000
0010
0000
0000
0000
0000
0000
0000
0000
0000
0000
0000
0000
0000
0000
0000
0001
0000
0000
0000
0000
0000
0000
0000
0000
0000
0000
0000
0000
0000
0000
0000
0000
0000
0000
0000
0000
0000
0000
0000
0000
0100
0000
0000
0000
0000
0000
0000
0000
0000
0000
0000
0010
0000
0000
0000
0000
0000
0000
0000
0000
0000
0000
0000
0000
0000
0000
0000
0000
0000
0000
0000
0000
0000
0000
0000
0001
0000
0000
0000
0000
0000
0000
0000
0000
0000
0000
0000
0000
0000
0000
0000
0000
0000
0100
0000
0000
0000
0000
0000
0000
0000
0000
0000
0000
0000
0000
0000
0000
0000
0000
0000
0010
0000
0000
0000
0000
0000
0000
0000
0000
0002
0000
0000
0000
0000
0000
0000
0000
0000
0000
0000
0000
0000
0000
0000
0000
0000
0000
0000
0000
0000
0000
0000
0000
0000
0000
0000
0000
0000
0000
0000
0000
0000
0000
0000
0000
0000
0000
0000
0000
0000
0000
0000
0000
0000
0000
0000
0000
,
1003
0000
0000
0000
0000
0000
0100
0000
0000
0000
0000
0000
0000
0010
0000
0000
0000
0000
0000
1000
0000
0000
0000
0000
0100
0000
0000
0000
0000
0000
0000
0010
0000
0000
0000
0000
0000
0000
0000
1000
0000
0000
0000
0100
0000
0000
0000
0000
0000
0010
0000
0000
0000
0000
0000
0000
0001
0000
0000
0000
0000
0000
0000
0000
,
0200
0000
0000
0000
0000
0000
0000
0000
0320
0000
0000
0000
0230
0000
0000
0000
0000
0000
0000
0000
0302
0000
0000
0000
0203
0000
0000
0000
0000
0000
0000
0000
2300
0000
0000
0000
3200
0000
0000
0000
0000
0000
0000
0000
0320
0000
0000
0000
0230
0000
0000
0000
0000
0000
0000
0000
0302
0000
0000
0000
0000
0000
0000
0003
,
0001
0010
0100
0010
0100
1000
0001
0100
1000
0001
0010
0100
0010
0001
0010
0100
,
2000
3000
0200
0300
0020
0030
0002
0003
0200
0000
0000
0000
0000
0000
0000
0000
2300
3000
0200
0300
0020
0030
0002
0003
0200
0000
0000
0000
0000
0000
0000
0000
,
2300
3000
0200
0300
0020
0030
0002
0003
2000
3000
0200
0300
0020
0030
0002
0003
2000
3000
0200
0300
0020
0030
0002
0003
0200
0300
0002
0003
2000
3000
0020
0030
,
0200
0320
0230
0302
2003
3020
2030
3002
,
0023
0230
0320
2030
3020
0230
0302
2003
,
3001
0010
0100
1000
0001
1000
0010
0100
0001
0100
0010
1000
0001
0010
0100
0010
,
1000
0100
0010
1000
0010
0100
0001
0010
0100
0010
0100
1000
0001
0100
0010
1000
,
0001
0010
0100
1000
0001
1000
0010
0100
0001
0100
0010
1000
0001
0010
0100
0010
,
1000
0100
0010
1000
0010
0100
0001
0010
0200
0000
0000
0000
0000
0000
0000
0000
,
1310
1001
0101
1010
0011
0110
1010
1100
,
1010
0000
0110
0000
0101
0000
1010
0000
1001
0000
0011
0000
0110
1000
0011
1000
,
0110
0001
1010
0001
0110
0000
1000
0000
0011
1000
0110
1000
0101
0000
1000
0000
,
0000
0000
1000
0000
0011
0000
0101
0000
0010
0001
1100
0001
1010
0000
0100
0000
,
0011
1000
0110
1000
0101
0000
1000
0000
0000
0000
1000
0000
0011
0000
0101
0000
,
0001
0010
1100
0001
1010
0000
0100
0000
1001
0100
1010
0001
1100
0000
1000
0000
,
0000
0000
1000
0000
0011
0000
0101
0000
0010
0100
1001
0100
0011
0000
0100
0000
,
1001
0100
0011
0100
1001
0000
0001
0000
1011
0000
0100
0000
0011
0000
0100
0000
,
1001
0000
0101
0000
2001
3000
0000
0000
0000
0000
0000
0000
0000
0000
0000
0000
,
0111
0000
0000
0000
0000
0000
0102
0000
0000
0000
0000
0003
1020
0000
0030
1002
0000
0000
0100
0000
0003
1020
0000
0000
,
0000
0000
0030
1200
0000
0000
0001
0000
0300
2000
0000
3000
0021
0000
0030
0201
0000
0300
2010
0000
3000
0200
0000
0000
,
1000
0000
0000
1000
0000
0300
0012
0000
0000
0000
0000
0003
0120
0000
0030
0102
0000
0000
0010
0000
0003
2100
0000
0000
,
0000
0000
0000
0000
3000
0000
0102
0000
0000
0000
0000
0000
0010
0000
0000
0000
0003
0000
1020
0000
0000
0000
0030
0000
1002
0000
0000
0000
0003
0000
1020
0000
0000
0001
0030
0000
1200
0000
0000
0000
0300
0000
2001
0000
0000
0000
3000
0000
,
1200
0000
0300
1020
0000
0030
1002
0000
0003
1020
0000
0000
1000
0000
0030
1200
0000
0000
1000
0000
0300
1020
0000
0030
,
2001
0000
3000
0201
0000
0300
0021
0000
0030
0201
0000
0000
0001
0000
0300
2001
0000
0000
0001
0000
3000
0201
0000
0300
,
0021
0000
0030
2001
0000
3000
0201
0000
0300
0021
0000
0000
0001
0000
0030
0102
0000
0000
0100
0000
0003
0120
0000
0030
,
2100
0000
3000
0201
0000
0300
0021
0000
0030
1002
0000
0003
2100
0000
3000
0021
0000
0030
1200
0000
0300
0021
0000
0030
,
2101
0000
0000
3200
0000
0000
2300
0000
,
3020
0000
0000
0230
0000
0000
2300
0000
,
3200
0000
0000
0320
0000
0000
0032
0000
,
0023
0000
0000
0230
0000
0000
0000
0000
,
2300
0000
0000
3020
0000
0000
0230
0000
,
0320
0000
0000
0230
0000
0000
0320
0000
,
1032
0100
0010
1000
0010
0100
2003
0100
0010
0001
0100
0010
3002
0100
0010
1000
,
0023
0100
0001
1000
0001
1000
0230
0010
0001
0010
1000
0001
0010
0001
1000
0010
,
1300
2121
0000
0000
,
0000
0000
0000
0000
0000
0000
0000
0000
0000
0000
0000
0000
0000
0030
0000
0000
,
0000
0000
0000
0000
,
0000
0000
0000
0000
,
0000
0000
0000
0000
,
3121
0000
0000
0000
,
0030
0000
0000
0000
;

//---------------dance-single - Copied from----------------
#NOTES:
     dance-single:
     Copied from:
     Challenge:
     12:
     1.000,1.000,1.000,0.873,0.862,1650.000,352.000,242.000,0.000,117.000:
0000
0000
0000
0000
,
1000
0000
0011
0000
0110
0000
0001
0001
,
1100
0000
0000
0000
0000
0000
0000
0000
0110
0000
0000
0000
0000
0000
0000
0000
0001
0000
0000
0000
0100
0000
0000
0000
1010
0000
0000
0000
0001
0000
0000
0000
0100
0000
0000
0000
0000
0000
0000
0000
1100
0000
0000
0000
0000
0000
0000
0000
0010
0000
0000
0000
0000
0000
0000
0000
0200
0300
0000
0000
0000
0000
0000
0000
,
1010
0000
0000
0000
0011
0000
0000
0000
0110
0000
0000
0000
0001
0010
0001
0010
,
1100
0110
0001
1010
0100
1100
0001
1001
,
0100
0000
0000
0000
1000
0100
1000
1000
0010
0001
0010
0010
1000
0100
1000
1000
,
0010
0000
0001
0000
0010
1100
0001
1001
,
0010
0000
0000
0000
1000
0100
1000
1000
0010
0001
0010
0010
1000
0100
1000
1000
,
0001
0000
0000
0000
0010
0000
0000
0000
1000
0000
0000
0000
0000
0000
0000
0000
0001
0000
0000
0000
0100
0000
0000
0000
1000
0000
0000
0000
0000
0000
0000
0000
0001
0000
0000
0000
0010
0000
0000
0000
0100
0000
0000
0000
0000
0000
0000
0000
0010
0000
0000
0000
0100
0000
0000
0000
1000
0000
0000
0000
0000
1101
0000
0000
,
0000
0000
0000
0000
0000
0000
0000
0000
1101
0000
0000
0000
,
0000
0000
0000
0000
0000
0000
0000
0000
0000
0000
0000
1101
0000
0000
0000
0000
0000
0000
0000
0000
0000
0000
0000
0000
0000
0000
0000
0000
0000
0000
0000
0000
,
0000
0000
0000
0000
0000
0000
0000
0000
0000
0100
0000
0000
0000
0000
0000
0000
0000
0000
0000
0000
0000
0000
0000
0000
0000
0000
0000
0000
0000
0000
0000
0000
0000
0000
0000
0000
0000
0000
0000
0000
0100
0000
0000
0000
0000
0000
0000
0000
0000
0000
0000
0000
0000
0000
0000
0000
0000
0000
0000
0000
0000
0000
0000
0000
0000
0000
0000
0000
0000
0000
0000
0000
0000
0000
0000
0100
0000
0000
0000
0000
0000
0000
0000
0000
0000
0000
0000
0000
0000
0000
0000
0000
0000
0000
0000
0000
0000
0000
0000
0000
0000
0000
0000
0000
0000
0000
0000
0000
0100
0000
0000
0000
0000
0000
0000
0000
0000
0000
0000
0000
0000
0000
0000
0000
0000
0000
0000
0000
0000
0000
0000
0000
0000
0000
0000
0000
0000
0000
0000
0000
0100
0000
0000
0000
0000
0000
0000
0000
0000
0000
0000
0000
0000
0000
0000
0000
0000
0000
0000
0000
0000
0000
0000
0000
0000
0000
0000
0000
0100
0000
0000
0000
0000
0000
0000
0000
0000
0000
0000
0000
0000
0000
0000
0000
0000
0000
0000
0000
0000
0000
0000
0000
,
0100
0000
0000
0000
0000
0000
0100
0000
0000
0000
0000
0000
0100
0000
0000
0000
0000
0100
0000
0000
0000
0100
0000
0000
0000
2210
0000
0000
0000
0000
0000
0000
0000
0000
0000
0000
0000
0000
0000
0000
0000
0000
0000
0000
0000
0000
0000
0000
,
0000
0000
0000
0000
0000
0000
0000
0000
3300
0000
0000
0000
1001
0000
0000
0000
0000
0000
0000
0000
0000
0000
0000
0000
0000
1000
0000
0000
0000
0000
0000
0000
,
0000
0000
0000
0000
0000
0000
0000
0000
0000
0000
0000
0000
0000
0000
0000
0000
0000
0000
0000
0000
0000
0000
0000
0000
0000
0000
0000
0000
0000
0000
0000
0000
0000
1000
0000
0000
0000
0000
0000
0000
0000
0000
0000
0000
0000
0000
0000
0000
0000
0000
0000
0000
0000
0000
0000
0000
0000
0000
0000
0000
0000
0000
0000
0000
0000
0000
0000
0000
0000
0000
0000
0000
0000
0000
0000
0000
0000
0000
0000
0000
0000
0000
0000
0000
0000
0000
0000
0000
0000
0000
0000
0000
0000
0000
0000
0000
0000
0000
0000
0000
0000
0000
0000
0000
0000
0000
0000
0000
0000
0000
0000
1000
0000
0000
0000
0000
0000
0000
0000
0000
0000
0000
0000
0000
0000
0000
0000
0000
0000
0000
0000
0000
0000
0000
0000
0000
0000
0000
0000
0000
0000
0000
0000
0000
0000
0000
0000
0000
0000
0000
0000
0000
0000
0000
0000
0000
0000
0000
0000
0000
0000
0000
0000
0000
0000
0000
0000
0000
0000
0000
0000
0000
0000
0000
0000
0000
0000
0000
0000
0000
0000
0000
0000
0000
0100
0000
0000
0000
0000
0000
0000
0000
,
2011
0000
0000
0000
,
0000
0000
3121
0000
,
0000
1231
0000
0000
0000
0000
0000
0000
0000
0000
0000
0000
0000
0000
0000
0000
,
2311
0000
0000
0000
,
0000
0000
3121
0000
,
0000
1231
0000
0000
0000
0000
0000
0000
0000
0000
0000
0000
0000
0000
0000
0000
,
2311
0000
0000
0000
0000
0000
0010
0000
0000
0010
0000
0000
0101
0000
0000
0001
,
0000
0000
0000
0000
0010
0000
0000
0000
0000
0000
0001
0000
0000
0000
0000
0000
3121
0000
0000
0000
0000
0000
0000
0000
0000
1000
0000
0000
0000
0000
0000
0000
,
0000
0000
1231
0000
0000
0000
0000
0000
0000
0000
0000
0000
0000
0000
1000
0000
0000
0000
0000
0000
1001
0000
0000
0000
0000
0000
0010
0000
0000
0010
0000
0000
,
2311
0000
0000
0000
0000
0000
0010
0000
0000
0010
0000
0000
0101
0000
0000
0000
,
0000
0000
0000
0000
0000
0000
0000
0000
0010
0000
0000
0000
0000
0000
0000
0000
0000
0000
0000
0000
0010
0000
0000
0000
0000
0000
0000
0000
0000
0000
0000
0000
3111
0000
0000
1000
0000
0000
0100
0000
0000
0010
0000
0000
1000
0000
0000
0010
0000
0000
0001
0000
0000
0100
0000
0000
0010
0000
0000
1000
0000
0000
0100
0000
,
0000
0010
0000
0000
0001
0000
0000
1000
0000
0000
0100
0000
0000
0010
0000
0000
0100
0000
0000
1000
0000
0000
0010
0000
0000
0100
0000
0000
0001
0000
0000
1000
0000
0000
0100
0000
0000
0001
0000
0000
0010
0000
0000
1000
0000
0000
0100
0000
0000
0010
0000
0000
0001
0000
0000
1000
0000
0000
0100
0000
0000
0010
0000
0000
,
2101
0000
0000
0000
0010
0000
0010
0000
0101
0000
0010
0000
0101
0000
0100
3100
,
0021
0000
0000
0000
1030
0000
0210
0000
1001
0000
0000
0000
0011
0000
0010
0010
,
2311
0000
0000
0000
0000
0000
0000
0000
0000
0000
0000
0000
0000
0000
0000
0000
0000
0000
0000
0000
0000
0000
0000
0000
0000
0000
0000
0000
0000
0000
3010
0001
,
0100
0010
0001
1000
0100
0001
0100
0010
0001
1000
0010
0001
0100
0010
0001
1000
,
0100
0000
0000
0000
0010
0000
0000
0000
0001
0000
0000
0000
1000
0000
0000
0000
0100
0000
0000
0000
0010
0000
0000
0000
1000
0000
0000
0000
0100
0000
0000
0000
0001
0000
0000
0000
1000
0000
0000
0000
0100
0000
0000
0000
0000
0000
0000
0000
0010
0000
0000
0000
0100
0000
0000
0000
1000
0000
0000
0000
0100
0000
0000
0010
,
0000
0000
0000
0002
0000
0000
0000
0000
0000
0000
0000
0000
0000
0000
0000
0000
0000
0000
0000
0000
0000
0000
0000
0000
0000
0000
0000
0000
0000
0000
0000
0000
1103
0000
0000
0000
0000
0000
0000
0000
1100
0000
0000
0000
0000
0000
0000
0000
1100
0000
0000
0000
0000
0000
0000
0000
1100
0000
0000
0000
0000
0000
0000
0000
,
1001
1001
0010
0001
0010
0100
1001
1001
0010
0001
0010
0100
1001
1001
0010
0100
,
0011
0001
1100
0000
1001
0001
1010
0000
,
0110
0000
0001
0000
1010
0000
0001
0000
1100
0000
0001
0010
0101
0000
0000
0000
,
0011
0100
1100
0100
1001
0100
1010
0000
,
0110
0000
0010
0001
1010
0000
0000
0000
1100
0010
1000
0010
0101
0000
0000
0000
,
0011
0000
1100
0000
1001
0010
1010
0000
,
0110
0000
1010
0000
1100
0010
0101
0100
,
0011
0000
0100
0000
1100
0000
0000
0000
1001
0000
0100
0001
1010
0000
0100
0001
,
0110
0010
1010
0000
1100
0100
0101
0000
,
0011
0000
1100
0001
1001
0001
1010
0000
,
0110
0000
1010
0000
1100
0001
0101
0100
,
0011
0000
1100
0100
1001
0100
1010
0000
,
0110
0000
0100
0000
1010
0000
0000
0000
1100
0010
0100
0010
0101
0000
1000
0100
,
0011
0000
0000
0000
1100
0000
0010
0000
1001
0000
0010
0100
1010
0000
0000
0000
,
0110
0000
0010
0100
1010
0000
0000
0000
1100
0010
1000
0010
0101
0000
0000
0000
,
0011
0000
0100
0000
1100
0000
0000
0000
1001
0000
0100
0001
1010
0000
0100
0001
,
0110
0001
0010
0001
1010
0001
1000
0001
1100
0010
0100
0010
0101
0010
0001
0010
,
0201
0300
0000
0000
2000
3000
0000
0000
0201
0300
0000
0000
0120
0030
0000
0000
0002
0003
0000
0000
0120
0030
0000
0000
0201
0300
0000
0000
2000
3000
0000
0000
,
0110
0100
1001
1100
0000
0100
1001
1001
,
0201
0300
0000
0000
2010
3000
0000
0000
0201
0300
0000
0000
0020
0030
0000
0000
0002
0003
0000
0000
1020
0030
0000
0000
1200
0300
0000
0000
2000
3000
0000
0000
,
0110
0000
0010
0100
1001
0000
1100
0000
0100
0000
0010
0100
1001
0000
0100
0000
,
0210
0300
0000
0000
2000
3000
0000
0000
0201
0300
0000
0000
0020
0030
0000
0000
0002
0003
0000
0000
1020
0030
0000
0000
0201
0300
0000
0000
2000
3000
0000
0000
,
1120
0030
0000
0000
0200
0300
0000
0000
1002
0003
0000
0000
1200
0300
0000
0000
0010
0000
0000
0000
2100
3000
0000
0000
0021
0030
0000
0000
2100
3000
0000
0000
,
0210
0300
0000
0000
2010
3000
0000
0000
0201
0300
0000
0000
0020
0030
0000
0000
1002
0003
0000
0000
1020
0030
0000
0000
0201
0300
0000
0000
2100
3000
0000
0000
,
1120
0030
0000
0000
1200
0300
0000
0000
0112
0003
0000
0000
1200
0300
0000
0000
1000
0000
0000
0000
1200
0300
0000
0000
0121
0030
0000
0000
1200
0300
0010
0000
,
0101
0100
1001
0100
0100
0100
1001
0100
,
0100
0000
0100
0000
1001
0000
0100
0000
0100
0000
0100
0000
0001
0010
0001
0010
,
0100
1000
0010
0001
1020
0000
0000
0000
0130
1000
0010
0001
1200
0000
0000
0000
,
1310
0000
1010
0000
1101
0000
1101
0000
0010
0100
1000
0010
1002
0000
0000
0000
,
0013
0100
1000
0010
1200
0000
0000
0000
1310
0000
1010
0000
1101
0000
1101
0000
,
1000
0100
0010
0001
1020
0000
0000
0000
1030
0100
0010
0001
1200
0000
0000
0000
,
1310
0000
1010
0000
1011
0000
1011
0000
0100
0010
1000
0001
1020
0000
0000
0000
,
0130
0010
1000
0001
1200
0000
0000
0000
2311
0000
0010
0000
0001
0000
0100
0000
,
0001
0000
0010
0000
0100
0000
0000
0000
0000
0000
3001
0010
0100
0000
0000
0000
,
2010
0000
0000
0000
0001
0000
3020
0000
0000
0000
0001
1000
0231
0000
1000
0000
,
0302
1000
0100
0023
0100
0100
2130
0100
,
3210
0000
0001
0320
0100
0100
1032
0100
,
1023
0100
0001
0000
1230
1000
0001
0000
,
2310
0000
0001
3020
1000
1000
0231
0001
,
2310
0001
0010
3210
0001
1000
0321
1000
,
0131
0000
0010
0000
0100
0000
0002
0000
0000
0003
0010
0000
0100
0000
2000
0000
,
0000
0000
0000
3100
1000
0100
0010
0001
,
0120
0000
0000
0230
0000
0000
2300
3200
,
0000
0000
0300
0100
0010
1000
0100
0010
,
0002
0000
0000
0023
0000
0000
0230
2300
,
0000
0000
0000
3000
1000
0100
0010
0001
,
0120
0000
0000
0000
1030
0100
0010
0001
,
0020
0000
0000
0000
1030
0100
0010
0001
,
0110
0100
1000
0020
0000
0031
0100
1000
,
0001
1000
0001
1000
0001
0010
0100
1000
0010
0100
1000
0010
0001
0010
0100
1000
,
0011
0000
1100
0010
1001
0010
1010
0000
,
0110
0000
1010
0000
1100
0010
0101
0000
,
0011
0000
1100
0100
1001
0100
1010
0000
,
0110
0100
1010
0000
1100
0100
0101
0100
,
1002
0000
0000
0000
0010
0000
1000
0000
0000
0000
1000
0100
0010
0000
0000
0000
,
1000
0000
1000
0100
0010
0000
0000
0000
1000
0100
1000
0100
0010
0100
1003
0100
,
0011
0000
0010
0000
1100
0000
0000
0000
1001
0000
0010
0100
1010
0000
0100
0001
,
0110
1000
0100
0010
1001
0010
0100
1000
0110
1000
0100
1000
0101
0010
0100
0010
,
1001
0010
0100
1000
0010
0001
0010
0100
1000
0001
0100
0001
,
1000
0000
0000
0000
0001
0000
0000
0000
0100
0000
0000
0000
0001
0000
0000
0000
0010
0000
0000
0000
0001
0000
0000
0000
1000
0000
0000
0100
0000
0000
0001
0000
0000
0100
0000
0000
0001
0000
0000
0100
0000
0000
0010
0000
0000
1000
0000
0000
,
0100
0010
0001
1000
0010
0001
0100
1000
0100
0001
0010
0100
0001
1000
0100
0010
,
0002
0000
0000
0000
0000
0000
0000
0000
0000
0000
0000
0000
0000
0000
0000
0000
0000
0000
0000
0000
0000
0000
0000
0000
0000
0000
0000
0000
0013
0100
1000
0001
,
0010
0100
0000
0001
0100
0000
0010
1000
0000
0001
1000
0000
0100
0010
0100
0010
,
0001
0010
0100
1000
0010
0001
0010
0100
2000
0000
3010
0100
0010
0100
1000
0100
,
0001
1000
0010
1000
0100
0010
1000
0001
0100
0001
0100
0000
1000
0000
0100
0000
,
0010
0001
0100
2000
0000
0000
0000
0000
,
3010
0010
0101
0010
0010
0010
0101
0010
,
0010
0000
0010
0000
0101
0000
0010
0000
0010
0000
0010
0000
0001
1000
0001
1000
,
0100
0010
1000
0001
1020
0000
0000
0000
0130
0010
1000
0001
1200
0000
0000
0000
,
1310
0000
1010
0000
0011
0000
0011
0000
0100
0001
1000
0010
1002
0000
0000
0000
,
0103
0001
1000
0010
1200
0000
0000
0000
1310
0000
1010
0000
0101
0000
0101
0000
,
1000
0010
0100
0001
1020
0000
0000
0000
1030
0010
0100
0001
1210
0000
0000
0000
,
1310
0000
1010
0000
0011
0000
0011
0000
1000
0100
0010
0001
1020
0000
0000
0000
,
1030
0100
0010
0001
1200
0000
0000
0000
2311
0000
0010
0000
0100
0000
0010
0000
,
0001
0010
0101
0000
0000
3000
0000
0000
,
2010
0000
0100
3021
1000
0001
1230
1000
,
0302
1000
0100
0023
1000
1000
0231
0000
,
2310
0000
0001
3020
0100
0100
1032
0100
,
1023
0000
0100
0000
0001
0000
0000
0000
1230
0000
1000
0010
0001
0000
0000
0000
,
2310
0010
0001
3120
1000
1000
0231
0010
,
2301
0010
0001
3210
1000
1000
0321
0100
,
1032
1000
0213
0321
1000
1000
0231
1000
,
0312
0100
0010
2103
0010
0100
0010
0100
,
3000
2012
0000
0000
,
0000
0000
0000
3003
,
0000
0000
0000
0100
1000
1000
1000
0010
,
1000
1000
1000
0010
1000
1000
1000
0100
,
0010
0000
0000
0000
0100
0000
1001
0000
0100
0000
0001
1000
0001
1000
0101
0000
,
0010
0000
1000
0011
1000
0110
1000
0101
,
0010
0000
0010
1100
0001
0010
0100
1010
,
0001
0000
0010
1100
0001
0010
0100
1001
,
0010
0000
0001
0110
0001
0010
0100
1010
,
1101
0000
1000
0100
0010
0001
0010
0100
,
1001
0010
0100
1000
0100
0001
0010
0100
,
0010
1000
0100
1000
0001
0010
0100
1000
,
0120
0000
0000
0000
0000
0000
0000
0030
,
0102
0000
0000
0000
0000
0000
0000
0003
,
0010
0000
0000
0000
1000
0100
0010
0000
1000
0100
0001
0000
1000
0010
0001
0000
,
0100
0010
0001
0000
0010
0001
0100
0000
0010
0100
1000
0001
0010
0100
1000
0100
,
0010
0001
0010
0100
1000
0010
1000
0100
1000
0010
1000
0001
,
0010
0001
0010
0100
0001
0010
0100
1000
,
0010
0100
1000
0001
0010
0100
1000
0001
0010
0000
0000
0000
0000
0000
0000
0000
0010
0000
0100
0000
1000
0000
0010
0000
0001
0000
0100
0000
1000
0000
0100
0000
,
0010
0001
0100
1000
0001
0010
0100
1000
0100
0010
0001
0100
0010
0100
0001
1000
,
0001
0010
0100
1000
0001
0010
0100
1000
0010
0100
0001
0010
0100
1000
0001
0010
,
0100
1000
0100
0010
0100
0010
0001
1000
0100
0010
0001
1000
0010
0100
1000
0010
,
0001
0010
0100
1000
0010
0100
1000
0001
0100
0010
0001
0100
1000
0100
0001
0010
,
1000
0100
1000
0100
0010
0001
1000
0100
0001
0010
0100
0010
0001
0100
1000
0100
,
0010
0001
0100
1000
0010
0001
1000
0100
0010
0001
0010
1000
0010
1000
0100
0010
,
0001
0100
0001
0100
0010
0001
0100
1000
0010
1000
0001
1000
0010
0001
0010
0100
,
2010
0000
3201
0000
,
0302
0000
0000
0000
0213
0000
0310
0100
,
2001
0000
0000
0000
,
0000
0000
0000
3001
,
0010
0001
0100
1000
0010
0001
0100
1000
0010
0001
0100
1000
0010
0001
0100
1000
,
0010
0001
0100
1000
0010
0100
0001
1000
0010
0001
0100
1000
0010
0100
0001
1000
,
0001
0100
0010
1000
0001
0100
0010
1000
0001
0100
0010
1000
0001
0100
0010
1000
,
0001
0010
0100
1000
0001
0010
0100
1000
0010
0001
0100
1000
0001
0010
0100
1000
,
0021
0000
0000
0000
0000
0000
0000
0030
,
0001
0010
0100
1000
0001
0100
0010
0100
,
0010
0001
0010
0100
1000
0100
0010
0001
0010
0001
0100
1000
0001
0010
0100
1000
,
0010
0000
0000
0001
0000
0000
0010
0000
0000
0100
0000
0000
1000
0000
0000
0000
0100
0000
0000
0000
0010
0000
0000
0000
0002
0000
0000
0000
0000
0000
0000
0000
0000
0000
0000
0000
0000
0000
0000
0000
0000
0000
0000
0000
0000
0000
0000
0000
,
2113
0000
0000
0000
,
0000
0000
0000
0000
,
3010
1000
0100
1000
0001
1000
0010
1000
,
0100
1000
0001
1000
0100
1010
0101
0000
,
0200
0000
0000
0300
0100
0000
0020
0000
0000
0000
2030
0000
0000
0000
3001
0010
,
0200
0000
0000
0000
0301
0010
2000
0000
0000
0000
3010
0100
1000
0100
0001
0010
,
2000
0000
3010
1000
0010
1000
0100
0010
,
1000
0100
0010
0001
0000
0010
0200
0000
,
1300
0000
0000
0000
0000
0000
0000
0000
0000
0000
0000
0000
0000
0000
0000
0000
0000
0000
0100
0000
0000
0000
0000
0000
0000
0000
0000
0000
0000
0000
0000
0000
0000
0000
0000
0000
0000
0000
0000
0000
0001
0000
0000
0000
0000
0000
0000
0000
0000
0000
0000
0000
0000
0000
0000
0000
0000
0000
0000
0000
1000
0000
0000
0000
0000
0000
0000
0000
0000
0000
0000
0000
0100
0000
0000
0000
0000
0000
0000
0000
0000
0000
0000
0000
0000
0000
0000
0000
0000
0000
0000
0000
0000
0000
0000
0000
0000
0000
0000
0001
0000
0000
0000
0000
0000
0000
0000
0000
0000
0000
0000
0000
0000
0000
0000
0000
0000
0000
0000
0000
1000
0000
0000
0000
0000
0000
0000
0000
0000
0000
0000
0000
0100
0000
0000
0000
0000
0000
0000
0000
0000
0000
0000
0000
0000
0000
0000
0000
0000
0000
0001
0000
0000
0000
0000
0000
0000
0000
0000
0000
0000
0000
0000
0000
0000
0000
0000
0000
0000
0000
0000
0000
0000
0000
0000
0000
0000
0000
0000
0000
0000
0000
0000
0000
0000
0000
0000
0000
0000
0000
0000
0000
,
1000
0000
0000
0000
0000
0000
0000
0000
0000
0000
0000
0000
0000
0000
0000
0000
0000
0000
0100
0000
0000
0000
0000
0000
0000
0000
0000
0000
0000
0000
0000
0000
0000
0000
0000
0000
0000
0000
0000
0000
0001
0000
0000
0000
0000
0000
0000
0000
0000
0000
0000
0000
0000
0000
0000
0000
0000
0000
0000
0000
1000
0000
0000
0000
0000
0000
0000
0000
0000
0000
0000
0000
0100
0000
0000
0000
0000
0000
0000
0000
0000
0000
0000
0000
0000
0000
0000
0000
0000
0000
0000
0000
0001
0000
0000
0000
0000
0000
0000
0000
0000
0000
0000
0000
0000
0000
0000
0000
0000
0000
0000
0000
0000
0000
0000
0000
0000
0000
0000
0000
1000
0000
0000
0000
0000
0000
0000
0000
0000
0000
0000
0000
0100
0000
0000
0000
0000
0000
0000
0000
0000
0000
0000
0000
0000
0000
0000
0000
0000
0000
0001
0000
0000
0000
0000
0000
0000
0000
0000
0000
0000
0000
0000
0000
0000
0000
0000
0000
0100
0000
0000
0000
0000
0000
0000
0000
0000
0000
0000
0000
0000
0000
0000
0000
0000
0000
0000
0000
0000
0000
0000
0000
,
1000
0000
0001
1000
0000
0100
1000
0000
0010
1000
0000
0100
1000
0000
0001
0001
,
0010
0100
1000
0100
0001
0010
1000
0010
0100
0010
0100
1000
0001
0010
0100
1000
,
0101
0010
0100
1000
0200
0000
0000
0300
0001
0010
0100
1000
0200
0000
0000
0300
,
0001
0010
0100
1000
0001
0010
0100
1000
0001
0010
0100
1000
0100
0010
0100
1000
,
0100
1000
0100
0010
0100
1000
0100
0001
,
0100
1000
0100
0010
0100
1000
0100
0001
,
0010
0001
0100
1000
0001
0010
0100
1000
0100
0010
0100
1000
0010
0001
0010
0100
,
0001
0100
1000
0001
0010
0100
1000
0010
0001
0010
0100
1000
0100
0010
0100
1000
,
0010
0001
0100
1000
0001
0010
0100
1000
0100
0010
0100
1000
0010
0001
0010
0100
,
0001
0100
1000
0001
0010
0100
1000
0010
0200
0000
0000
0000
0000
0000
0000
0300
,
1000
1000
0011
1000
1000
1000
0011
1000
,
1000
0000
1000
0000
0011
0000
1000
0000
1000
0000
1000
0000
0100
0001
0100
0001
,
1000
0100
0001
0010
1002
0000
0000
0000
1003
0100
0001
0010
1200
0000
0000
0000
,
1310
0000
1010
0000
1001
0000
1001
0000
0010
0001
1000
0100
1002
0000
0000
0000
,
0013
0001
1000
0100
1020
0000
0000
0000
1130
0000
1100
0000
0110
0000
0110
0000
,
1000
0100
0010
0100
1021
0000
0000
0000
1030
0100
0001
0010
1201
0000
0000
0000
,
1310
0000
1010
0000
0101
0000
0101
0000
1000
0001
0010
0100
1021
0000
0000
0000
,
1030
0001
0100
0010
1201
0000
0000
0000
2311
0000
0010
0000
0001
0000
0100
0000
,
0001
0010
0101
0000
0000
3000
0000
0000
,
1001
0000
0000
0000
0020
0000
0000
0000
0230
0300
0020
0000
0000
0000
0230
0000
,
0000
0000
2300
0000
0000
0000
3020
0030
0002
0003
0020
0030
0200
0300
2000
0000
,
0000
0000
0000
0000
3020
0000
0000
0000
0230
0300
0020
0000
0000
0000
0032
0000
,
0000
0000
2003
0000
0000
0000
3200
0300
0002
0003
0020
0030
0201
0300
2000
3000
,
0201
0300
0020
0030
0002
0003
0020
0000
0000
0000
0230
0000
0000
0000
0320
0030
,
2000
3000
0200
0300
0020
0030
0200
0000
0000
0000
2300
0000
0000
0000
3020
0030
,
0201
0300
2000
3000
0200
0300
0020
0000
0000
0000
0032
0000
0000
0000
0023
0030
,
0200
0300
2000
3000
0200
0300
0020
0030
2000
3000
0200
0300
0020
0030
0002
0003
,
2010
0000
0100
3021
1000
0001
1230
1000
,
0302
1000
0100
0023
1000
1000
0231
0000
,
2310
0000
0001
3200
0010
0010
1302
0100
,
1023
0100
0001
0000
1230
1000
0001
0000
,
2310
0010
0001
3120
1000
1000
0231
0010
,
2301
0010
0001
3210
1000
1000
0321
1000
,
0132
1000
0100
1000
0113
0000
1020
0000
0100
1000
0100
1000
0231
0000
1000
0000
,
0312
0100
0010
0100
0010
0100
2013
0100
0010
0001
0010
0001
0100
0001
0100
0001
,
3110
2012
0000
0000
,
0000
0000
0000
0000
0000
0000
0000
0000
0000
0000
0000
0000
0000
0000
0000
0000
0000
0000
0000
0000
0000
0000
0000
0000
0000
0000
0000
0000
0000
0000
0000
0000
0000
0000
0000
0000
0000
0000
0000
0000
0000
0000
0000
0000
0000
0000
0000
0000
0000
0000
0000
0000
0000
0000
0000
0000
0000
0000
0000
0000
0000
0000
0000
0000
0000
0000
0000
0000
0000
0000
0000
0000
0000
0000
0000
0000
0000
0000
0000
0000
0000
0000
0000
0000
0000
0000
0000
0000
0000
0000
0000
0000
0000
0000
0000
0000
0000
0000
0000
0000
0000
0000
0000
0000
0000
0000
0010
0000
0000
0000
0000
0000
0000
0000
0000
0000
0000
0000
0000
0000
0000
0000
0000
0000
0000
0000
0000
0000
0000
0000
0000
0000
0000
0000
0000
0000
0000
0000
0000
0000
0000
0000
0000
0000
0000
0000
0000
0000
0000
0000
0000
0000
0000
0000
0000
0000
0000
0010
0000
0000
0000
0000
0000
0000
0000
0000
0000
0000
0000
0000
0000
0000
0000
0000
0000
0000
0000
0000
0000
0000
0010
0000
0000
0000
0000
0000
0000
0000
0000
0000
0000
0000
,
0003
0000
0000
0000
0000
0000
0000
0000
0000
0000
0000
0000
0000
0000
0000
0000
0000
0000
0000
0000
0010
0000
0000
0000
0000
0000
0000
0000
0000
0000
0000
0000
0000
0000
0000
0000
0000
0000
0000
0000
0000
0000
0000
0000
0000
0000
0000
0000
0000
0000
0000
0000
0000
0000
0000
0000
0010
0000
0000
0000
0000
0000
0000
0000
0000
0000
0000
0000
0000
0000
0000
0000
0000
0000
0000
0000
0000
0000
0000
0000
0000
0000
0000
0000
0000
0000
0000
0000
0000
0000
0000
0000
0010
0000
0000
0000
0000
0000
0000
0000
0000
0000
0000
0000
0000
0000
0000
0000
0000
0000
0000
0000
0000
0000
0000
0000
0000
0000
0000
0000
0000
0000
0000
0000
0000
0000
0000
0000
0000
0000
0000
0000
0000
0000
0000
0000
0000
0000
0000
0000
0010
0000
0000
0000
0000
0000
0000
0000
0000
0000
0000
0000
0000
0000
0000
0000
0000
0000
0000
0000
0000
0000
0000
0000
0000
0000
0000
0000
0000
0000
0000
0000
0000
0000
0000
0000
0000
0000
0000
0000
0000
0000
0000
0000
0000
0000
0010
0000
0000
0000
0000
0000
,
0000
0000
0000
0000
0000
0000
0000
0000
0000
0000
0000
0000
0000
0000
0000
0000
0000
0000
0000
0000
0000
0000
0000
0000
0000
0000
0000
0000
0000
0000
0000
0000
0000
0000
0000
0000
0000
0000
0000
0000
0000
0000
0000
0010
0000
0000
0000
0000
0000
0000
0000
0000
0000
0000
0000
0000
0000
0000
0000
0000
0000
0000
0000
0000
0000
0000
0000
0000
0000
0000
0000
0000
0000
0000
0000
0000
0000
0000
0000
0000
0000
0000
0000
0000
0000
0000
0000
0000
0000
0000
0001
0000
0000
0000
0000
0000
0000
0000
0000
0000
0000
0000
0000
0000
0000
0010
0000
0000
0000
0000
0000
0000
0000
0000
0000
0000
0000
0000
0000
0000
0000
0000
0000
0000
0000
0000
0000
0000
0000
0000
0000
0000
0000
0000
0000
0000
0000
0000
0000
0000
0000
0000
0000
0000
0000
0000
0000
0000
0000
0000
0000
0000
0000
0000
0000
0000
0000
0000
0000
0000
0000
0000
0000
0000
0000
0000
0000
0000
0000
0000
0000
0000
0000
0000
0000
0000
0000
0000
0000
0000
0000
0000
0000
0000
0000
0000
0000
0000
0000
0000
0000
0000
,
0000
0000
0011
0000
0110
0000
0011
3000
,
2201
0000
0000
0000
,
0000
0000
0000
0000
,
3300
0000
0000
0000
;
