#TITLE:Smiting Down The Weak;
#SUBTITLE:;
#ARTIST:X Kirby;
#TITLETRANSLIT:;
#SUBTITLETRANSLIT:;
#ARTISTTRANSLIT:;
#CREDIT:Zaia;
#BANNER:../Banner.png;
#BACKGROUND:../bg.png;
#LYRICSPATH:;
#CDTITLE:;
#MUSIC:Smiting Down The Weak.ogg;
#OFFSET:0.582;
#SAMPLESTART:95.272;
#SAMPLELENGTH:15.920;
#SELECTABLE:YES;
#BPMS:0.000=247.458;
#STOPS:;
#BGCHANGES:;
// cache tags:
#FIRSTBEAT:4.000;
#LASTBEAT:533.000;
#SONGFILENAME:Songs/Tachyon Epsilon/Smiting Down the Weak - [Zeph + Zaia]/Smiting Down The Weak.sm;
#HASMUSIC:1;
#HASBANNER:1;
#MUSICLENGTH:130.376;
// end cache tags

//---------------dance-single - Zaia----------------
#NOTES:
     dance-single:
     Zaia:
     Challenge:
     20:
     1.000,1.000,0.077,0.522,1.000,1306.000,10.000,68.000,0.000,0.000:



0000
0000
0000
0000
,
1000
0000
1001
0000
,
0001
0000
1010
0000
,
0001
0000
1100
0011
,
0000
1000
1100
0000
,
0001
0000
0110
0000
,
1000
0000
1100
0000
,
0001
0000
1001
1010
,
0000
0100
0101
0000
,
0001
0000
0010
0000
0100
0000
1000
0100
,
2000
0000
3002
0000
,
2003
0000
3020
0000
,
0230
0000
0302
0000
,
0013
0010
0100
1000
0000
1000
0100
0010
,
0001
0001
1000
0001
0000
0001
0010
0100
,
1000
0001
1000
0001
0010
0100
0010
0100
,
1000
0010
1000
0001
0100
0001
1000
0001
,
1000
0100
0010
0001
1000
0001
0100
0010
1000
0100
0010
0001
1000
0001
0010
0001
,
1000
0010
0100
0001
1000
0100
0010
0001
1000
0001
0100
0010
1000
0001
0010
0001
,
1000
0000
0100
0000
0010
0000
0001
0000
1000
0000
0010
0000
0100
0000
0002
0003
,
2000
0000
0000
0000
3002
0003
0020
0030
0000
0000
0200
0300
2000
3000
0000
0000
,
0002
0000
0003
1000
0010
0000
0100
0001
,
0000
1000
0100
0000
0010
0000
0001
0000
,
1000
0000
0100
0000
0010
0000
0001
0000
1000
0000
0010
0000
0100
0000
0002
0003
,
2000
0000
0000
0000
3002
0003
0020
0030
0000
0000
0200
0300
2000
3000
0000
0000
,
0002
0000
0003
1000
0010
0000
0100
0001
,
0000
1000
0100
0000
0010
0000
0001
0000
,
1000
0000
0100
0000
0010
0000
0001
0000
1000
0000
0010
0000
0100
0000
0002
0003
,
2000
0000
0000
0000
3002
0003
0020
0030
0000
0000
0200
0300
2000
3000
0000
0000
,
0002
0000
0003
1000
0010
0000
0100
0001
,
0000
1000
0100
0000
0010
0000
0001
0000
,
1000
0010
0100
0001
1000
0100
1000
0001
0100
0010
1000
0001
1000
0100
0010
0001
,
2000
0000
0000
0000
,
3001
0001
0010
0010
0100
0100
1000
1000
,
0001
0000
0001
0000
1000
0010
0100
0001
2000
0000
0000
0000
3001
0000
0000
0000
,
1000
0100
0010
0001
1000
0010
0100
0001
1000
0100
0010
0001
,
2000
3002
0203
0320
,
2030
0000
0000
3002
0000
0000
2003
0000
,
3200
0000
0000
0000
,
0310
0001
1000
0001
0100
0010
1000
0010
0100
0001
1000
0100
,
0020
0032
2003
3020
,
0130
0001
0100
0001
1000
0010
0100
0010
,
2000
0000
0000
3000
,
0001
1000
0010
0100
0001
0010
0100
1000
0001
1000
0100
0010
0001
1000
0010
0100
,
0002
0000
0013
0001
0000
1000
0001
0000
,
1000
0100
0010
0001
0100
0010
1000
0010
0100
0001
1000
0100
0010
0001
1000
0001
,
0200
0000
0310
1000
0000
0001
1000
0000
,
0002
0000
0000
0000
0000
0000
0000
0000
0000
0000
0000
0000
0000
0000
0000
0000
0010
0000
0000
0000
0000
0000
0000
0000
0000
0000
0000
0000
0000
0000
0000
0003
0002
0000
0000
0000
0000
0000
0000
0000
0000
0000
0000
0000
0000
0000
0000
0000
1000
0000
0000
0000
0000
0000
0000
0000
0000
0000
0000
0000
0000
0000
0000
0003
,
0002
0000
0000
0000
0000
0000
0000
0000
0000
0000
0000
0000
0000
0000
0000
0000
0100
0000
0000
0000
0000
0000
0000
0000
0000
0000
0000
0000
0000
0000
0000
0003
0002
0000
0000
0000
0000
0000
0000
0000
0000
0000
0000
0000
0000
0000
0000
0000
1000
0000
0000
0000
0003
0000
0000
0000
0000
0000
0000
0000
0000
0000
0000
0000
,
0001
0100
0010
1000
0001
0010
0001
1000
0100
0010
0001
1000
0010
0100
0001
1000
,
0001
0010
0100
1000
0001
1000
0010
0100
,
0001
1000
0100
0010
0001
1000
0001
0100
,
0002
0000
1003
0010
0000
1000
0100
0000
,
0020
0000
0030
0001
1000
0000
0100
0010
,
0000
0001
1000
0000
0001
0000
0100
0000
,
0001
1000
0100
0010
0001
1000
0001
0100
,
0002
0000
1003
0010
0000
1000
0100
0000
,
0020
0000
0030
0001
1000
0000
0100
0010
,
0000
0001
1000
0000
0001
0000
0100
0000
,
0001
1000
0100
0010
0001
1000
0001
0100
,
0002
0000
1003
0010
0000
1000
0100
0000
,
0020
0000
0030
0001
1000
0000
0100
0010
,
0000
0001
1000
0000
0001
0000
0100
0000
,
0001
0100
0001
1000
0100
1000
0001
0100
0001
1000
0100
0010
0001
1000
0010
0100
,
0002
0000
0000
0000
,
1003
1000
0100
0100
0010
0010
0001
0001
,
1000
0000
1000
0000
0001
0100
0001
1000
0002
0000
0000
0000
1003
0000
0000
0000
,
0001
0100
0001
0100
0001
0100
0001
0100
,
0010
0100
0010
0100
0010
1000
0010
1000
,
0001
1000
0001
1000
0100
1000
0100
0010
,
0001
0010
0001
0100
0001
0100
0001
0100
,
0001
0100
0010
1000
0001
0010
0100
0010
0001
1000
0010
0100
0001
1000
0100
0010
,
0100
1000
0001
0010
0001
1000
0001
0100
0010
1000
0001
1000
0100
0010
0001
1000
,
0010
0100
0001
1000
0001
0100
0010
1000
0001
1000
0100
1000
0001
0010
0001
1000
,
0001
0100
0010
1000
0001
1000
0100
1000
0001
0010
0100
1000
0001
0100
0001
1000
,
0001
0010
0100
1000
0001
1000
0001
0010
0001
1000
0001
0100
0010
0100
0001
1000
,
0001
0010
0001
1000
0100
1000
0001
1000
0010
0100
0001
1000
0001
0100
0010
1000
,
0001
1000
0100
0010
0100
1000
0001
0010
0100
1000
0001
1000
0001
0100
0010
1000
,
0001
1000
0100
0010
0100
1000
0001
1000
0010
0100
0001
1000
0001
0100
0001
1000
,
0100
0010
0000
0010
0001
0100
0001
1000
,
0001
0100
0000
0100
0010
1000
0010
0100
,
0001
0010
0100
1000
0001
1000
0010
0100
0001
1000
0100
0010
0001
1000
0001
0100
,
0010
1000
0010
0100
0001
1000
0001
0010
0100
1000
0001
0100
0001
1000
0100
1000
,
0001
0100
0010
1000
0001
0010
0001
1000
0100
1000
0001
0100
0010
0100
0001
1000
,
0100
0010
0001
1000
0010
1000
0001
0010
0001
1000
0010
0100
0001
1000
0100
0010
,
0100
1000
0001
0010
0001
1000
0010
0100
0001
1000
0100
0010
0001
1000
0001
0100
,
0010
0100
0001
1000
0100
1000
0001
0100
0001
1000
0100
0010
0001
1000
0001
0010
,
0001
1000
0010
0100
0001
1000
0100
1000
0001
0100
0010
1000
0001
0010
0100
0010
,
0001
1000
0010
1000
0001
0100
0010
0100
0001
1000
0100
1000
0001
0010
0100
1000
,
0001
1000
0010
0100
0001
1000
0100
1000
0001
0100
0010
0100
0001
1000
0100
0010
,
0001
1000
0001
0100
0010
0100
0001
1000
0100
1000
0001
0100
0010
1000
0001
0010
,
0100
1000
0010
1000
0001
0010
0001
1000
0010
1000
0001
0010
0100
0010
0001
1000
,
0010
0100
0001
1000
0100
1000
0001
0100
0001
1000
0100
0010
0001
1000
0010
0100
,
0010
1000
0001
0100
0001
1000
0100
0010
0001
1000
0010
0100
0001
1000
0001
0010
,
0100
0010
0001
1000
0010
1000
0001
0010
0001
1000
0010
0100
0001
1000
0001
0100
,
0001
1000
0100
0010
0001
1000
0010
1000
0001
0010
0100
1000
0001
0100
0010
0100
,
0001
1000
0100
1000
0001
0010
0100
0010
0001
1000
0010
1000
0001
0100
0010
1000
,
0001
1000
0100
0010
0001
1000
0010
1000
0001
0010
0100
0010
0001
1000
0010
0100
,
0001
1000
0001
0010
0100
0010
0001
1000
0010
1000
0001
0010
0100
1000
0001
0100
,
0010
1000
0100
0010
0001
0100
0010
1000
0001
0100
0001
1000
0001
0010
0100
1000
,
0010
0100
0001
0010
0100
1000
0001
0100
0001
1000
0100
0010
0001
1000
0001
0100
,
0010
1000
0100
0010
0001
0010
0100
1000
0010
0100
0001
0100
0010
1000
0001
1000
,
0100
0010
0001
0100
0010
1000
0010
0100
0001
1000
0001
0010
0100
1000
0010
0100
,
0001
0010
0100
1000
0010
0100
0001
0010
0001
0100
0010
1000
0100
0010
0001
0100
,
0010
0100
0001
0010
0100
1000
0010
1000
0100
0010
0001
0100
0010
1000
0010
0100
,
0001
0010
0100
1000
0001
1000
0010
0100
0001
1000
0100
1000
0001
0100
0001
1000
,
0002
0023
0230
2300
,
3001
0001
0100
0100
0020
0030
1000
0002
,
0000
0003
1000
1000
0010
0010
0100
0001
,
1000
1000
0100
0100
0020
0030
0001
2000
,
0000
3000
0010
0010
0100
0100
0001
1000
,
0001
0010
0100
1000
0001
1000
0010
1000
0001
0010
0100
1000
0001
0100
0001
1000
,
0001
0100
0010
1000
0100
0010
0001
0100
0001
0010
0100
1000
0010
0100
0001
0010
,
0100
0010
0001
1000
0010
0100
0010
1000
0001
0010
0100
1000
0002
0000
0000
0000
,
1003
0001
0010
0100
0010
0001
1000
0010
0100
0001
1000
0001
0020
0000
0000
0000
,
0031
0010
0100
1000
0001
0000
0001
0010
,
0100
1000
0001
0000
2000
3000
0000
0001
,
0100
0010
1000
0000
0010
0000
1000
0100
,
0010
0000
0001
0000
1000
0010
0100
0001
,
1000
0000
0001
0000
1000
0100
1000
0000
0001
0000
0100
0000
0010
1000
0010
0000
,
1000
0000
0100
0000
0010
0001
0010
0000
0100
0000
1000
0000
0001
0000
1000
0000
,
0001
0100
0010
1000
0001
1000
0100
0010
0100
1000
0001
1000
0010
0100
0001
1000
,
0001
0010
0100
1000
0001
0100
0010
0100
0001
1000
0100
0010
0001
1000
0001
0100
,
0010
1000
0001
1000
0100
1000
0001
0100
0010
1000
0001
0010
0100
1000
0001
0010
,
0001
1000
0010
1000
0001
0100
0010
0100
0001
1000
0001
0010
0100
1000
0001
1000
,
0010
0100
0001
1000
0100
1000
0001
0100
0010
1000
0001
1000
0100
1000
0001
0100
,
0001
1000
0100
0010
0001
1000
0100
1000
0001
0100
0010
0100
0001
1000
0001
0010
,
0100
1000
0001
1000
0010
0100
0010
1000
0001
1000
0100
0010
0001
1000
0001
0100
,
0010
0100
0001
1000
0001
0010
0100
1000
0100
0010
0001
1000
0010
1000
0001
0010
,
0001
1000
0010
0100
0001
1000
0100
1000
0001
0010
0100
1000
0001
0100
0010
0100
,
0001
1000
0001
0010
0100
1000
0001
1000
0010
0100
0001
0100
0010
1000
0001
1000
,
0001
0100
0001
1000
0100
1000
0001
0100
0010
1000
0001
0010
0100
0010
0001
1000
,
0010
1000
0001
0010
0001
1000
0100
0010
0001
1000
0010
1000
0001
0010
0100
1000
,
0002
0003
0000
0000
;

//---------------dance-single - Zeph----------------
#NOTES:
     dance-single:
     Zeph:
     Hard:
     19:
     1.000,1.000,0.077,0.522,1.000,1304.000,10.000,68.000,0.000,0.000:






0000
0000
0000
0000
,
1000
0000
1001
0000
,
0001
0000
1010
0000
,
0001
0000
1100
0011
,
0000
1000
1100
0000
,
0001
0000
0110
0000
,
1000
0000
1100
0000
,
0001
0000
1001
1010
,
0000
0100
0101
0000
,
0001
0000
0010
0000
0100
0000
1000
0100
,
2000
0000
3002
0000
,
2003
0000
3020
0000
,
0230
0000
0302
0000
,
0013
0010
0100
1000
0000
1000
0100
0010
,
0001
0001
1000
0001
0000
0001
0010
0100
,
1000
0001
1000
0001
0010
0100
0010
0100
,
1000
0010
1000
0001
0100
0001
1000
0001
,
1000
0010
0100
0001
1000
0010
1000
0001
0100
0001
0100
0010
1000
0001
0100
0001
,
1000
0010
0100
0001
1000
0100
0010
0001
1000
0100
1000
0001
0010
0001
1000
0100
,
1000
0000
0100
0000
0010
0000
0001
0000
1000
0000
0010
0000
0100
0000
0002
0003
,
2000
0000
0000
0000
3002
0003
0020
0030
0000
0000
0200
0300
2000
3000
0000
0000
,
0002
0000
0003
1000
0010
0000
0100
0001
,
0000
1000
0100
0000
0010
0000
0001
0000
,
1000
0000
0100
0000
0010
0000
0001
0000
1000
0000
0010
0000
0100
0000
0002
0003
,
2000
0000
0000
0000
3002
0003
0020
0030
0000
0000
0200
0300
2000
3000
0000
0000
,
0002
0000
0003
1000
0010
0000
0100
0001
,
0000
1000
0100
0000
0010
0000
0001
0000
,
1000
0000
0100
0000
0010
0000
0001
0000
1000
0000
0010
0000
0100
0000
0002
0003
,
2000
0000
0000
0000
3002
0003
0020
0030
0000
0000
0200
0300
2000
3000
0000
0000
,
0002
0000
0003
1000
0010
0000
0100
0001
,
0000
1000
0100
0000
0010
0000
0001
0000
,
1000
0010
1000
0001
1000
0100
1000
0001
0010
0100
1000
0001
1000
0100
0010
0001
,
2000
0000
0000
0000
,
3001
0001
0010
0010
0100
0100
1000
1000
,
0001
0000
0001
0000
1000
0010
0100
0001
2000
0000
0000
0000
3001
0000
0000
0000
,
1000
0100
0010
0001
1000
0010
0100
0001
1000
0100
0010
0001
,
2000
3002
0203
0320
,
2030
0000
0000
3002
0000
0000
2003
0000
,
3200
0000
0000
0000
,
0310
0001
1000
0001
0100
0010
1000
0010
0100
0001
1000
0100
,
0020
0032
2003
3020
,
0130
0001
0100
0001
1000
0010
0100
0010
,
2000
0000
0000
3000
,
0001
1000
0010
0100
0001
0100
0010
1000
0001
1000
0100
0010
0001
1000
0100
0010
,
0002
0000
0013
0001
0000
1000
0001
0000
,
1000
0100
0010
0001
0010
0100
1000
0001
0100
0010
1000
0010
0100
0001
1000
0001
,
0200
0000
0310
1000
0000
0001
1000
0000
,
0002
0000
0000
0000
0000
0000
0000
0000
0000
0000
0000
0000
0000
0000
0000
0000
0010
0000
0000
0000
0000
0000
0000
0000
0000
0000
0000
0000
0000
0000
0000
0003
0002
0000
0000
0000
0000
0000
0000
0000
0000
0000
0000
0000
0000
0000
0000
0000
1000
0000
0000
0000
0000
0000
0000
0000
0000
0000
0000
0000
0000
0000
0000
0003
,
0002
0000
0000
0000
0000
0000
0000
0000
0000
0000
0000
0000
0000
0000
0000
0000
0100
0000
0000
0000
0000
0000
0000
0000
0000
0000
0000
0000
0000
0000
0000
0003
0002
0000
0000
0000
0000
0000
0000
0000
0000
0000
0000
0000
0000
0000
0000
0000
1000
0000
0000
0000
0000
0000
0000
0000
0003
0000
0000
0000
0000
0000
0000
0000
,
1000
0010
0100
0001
0100
0010
1000
0001
1000
0100
1000
0001
0010
0100
1000
0001
,
1000
0100
0010
0001
1000
0001
0100
0010
,
1000
0001
0010
0100
1000
0001
1000
0010
,
2000
0000
3001
0100
0000
0001
0010
0000
,
0200
0000
0300
1000
0001
0000
0010
0100
,
0000
1000
0001
0000
1000
0000
0010
0000
,
1000
0001
0010
0100
1000
0001
1000
0010
,
2000
0000
3001
0100
0000
0001
0010
0000
,
0200
0000
0300
1000
0001
0000
0010
0100
,
0000
1000
0001
0000
1000
0000
0010
0000
,
1000
0001
0010
0100
1000
0001
1000
0010
,
2000
0000
3001
0100
0000
0001
0010
0000
,
0200
0000
0300
1000
0001
0000
0010
0100
,
0000
1000
0001
0000
1000
0000
0010
0000
,
1000
0010
1000
0001
0100
0001
1000
0001
1000
0100
0010
0001
1000
0100
1000
0001
,
2000
0000
0000
0000
,
3001
0001
0010
0010
0100
0100
1000
1000
,
0001
0000
0001
0000
1000
0010
1000
0001
2000
0000
0000
0000
3001
0000
0000
0000
,
1000
0010
1000
0010
1000
0010
1000
0010
,
0100
0010
0100
0010
0100
0001
0100
0001
,
1000
0001
1000
0001
0010
0001
0010
0100
,
1000
0100
1000
0001
1000
0001
1000
0001
,
1000
0010
1000
0001
0100
0001
1000
0010
1000
0001
0100
0010
1000
0001
1000
0010
,
0100
0001
1000
0001
0010
0100
0010
0001
1000
0100
0010
0001
1000
0100
0010
0100
,
1000
0001
0100
0010
0100
0001
1000
0010
1000
0001
1000
0100
1000
0001
0010
0100
,
1000
0001
1000
0010
0100
0001
0100
0010
1000
0001
0100
0001
1000
0000
0001
0000
,
1000
0010
1000
0001
0100
0001
1000
0010
0100
0001
1000
0100
1000
0001
0010
0001
,
1000
0010
0100
0001
0100
0010
1000
0001
1000
0100
0010
0100
1000
0001
0010
0100
,
1000
0001
1000
0010
0100
0001
1000
0010
1000
0001
0100
0001
1000
0001
0010
0100
,
1000
0001
1000
0010
0100
0001
1000
0100
1000
0001
0010
0100
1000
0001
1000
0001
,
0010
0100
0000
0100
1000
0010
1000
0001
,
1000
0010
0000
0010
0100
0001
0100
0010
,
1000
0100
0010
0001
1000
0100
1000
0001
1000
0010
0100
0001
1000
0001
0100
0010
,
1000
0001
1000
0100
0010
0100
1000
0001
1000
0100
0010
0001
1000
0001
1000
0001
,
0100
0010
1000
0010
0100
0001
1000
0010
1000
0001
0100
0001
1000
0010
0100
0001
,
1000
0001
0100
0010
1000
0001
0100
0010
0100
0001
1000
0100
1000
0001
1000
0010
,
0100
0001
1000
0001
0010
0100
1000
0001
0010
0100
1000
0001
1000
0100
0010
0100
,
1000
0001
0010
0100
1000
0001
1000
0100
0010
0001
1000
0100
0010
0001
1000
0100
,
1000
0001
1000
0010
0100
0001
1000
0001
0100
0010
1000
0010
0100
0001
1000
0001
,
0100
0010
0100
0001
1000
0010
0100
0010
1000
0001
0100
0010
1000
0001
1000
0100
,
1000
0001
0010
0100
1000
0001
0010
0100
0010
0001
1000
0100
0010
0100
1000
0001
,
1000
0010
0100
0001
1000
0001
0100
0010
0100
0001
1000
0010
0100
0001
1000
0100
,
1000
0001
0010
0100
1000
0001
1000
0100
1000
0001
0010
0001
1000
0100
0010
0001
,
1000
0001
0100
0001
1000
0100
1000
0001
0010
0001
1000
0100
0010
0100
1000
0001
,
1000
0010
0100
0001
1000
0010
0100
0010
1000
0001
0100
0001
1000
0010
1000
0001
,
0100
0010
1000
0001
0100
0001
1000
0100
1000
0001
0100
0010
1000
0001
0100
0001
,
1000
0100
1000
0001
0010
0100
1000
0001
1000
0100
1000
0001
0010
0001
1000
0010
,
1000
0001
1000
0100
1000
0001
0010
0100
1000
0001
0010
0001
1000
0100
0010
0001
,
1000
0001
0100
0010
0100
0001
1000
0010
0100
0010
1000
0001
1000
0100
1000
0001
,
0010
0100
1000
0100
0010
0001
1000
0100
0010
0100
1000
0001
0010
0100
1000
0001
,
1000
0010
0100
0001
1000
0001
0100
0001
1000
0100
0010
0100
1000
0001
1000
0001
,
0100
0010
1000
0001
1000
0001
0100
0010
1000
0001
1000
0100
0010
0100
1000
0001
,
1000
0010
0100
0010
1000
0001
1000
0100
0010
0100
1000
0001
0010
0100
1000
0001
,
1000
0010
0100
0010
1000
0001
1000
0100
0010
0001
1000
0100
0010
0001
1000
0001
,
0010
0100
1000
0001
0010
0100
0010
0001
1000
0100
0010
0001
1000
0001
0100
0010
,
0100
0001
1000
0010
0100
0010
1000
0001
0100
0001
1000
0001
1000
0100
0010
0001
,
1000
0010
1000
0010
0100
0001
1000
0001
1000
0010
0100
0001
0100
0010
1000
0001
,
2000
3200
0320
0032
,
1003
1000
0010
0010
0200
0300
0001
2000
,
0000
3000
0001
0001
0100
0100
0010
1000
,
0001
0001
0010
0010
0200
0300
1000
0002
,
0000
0003
0100
0100
0010
0010
1000
0001
,
1000
0100
0010
0001
0010
0001
1000
0001
1000
0100
0010
0100
1000
0001
1000
0001
,
0100
0010
1000
0010
0100
0001
1000
0010
0100
0001
0100
0001
1000
0010
1000
0001
,
1000
0100
0010
0100
1000
0001
0010
0100
1000
0100
0010
0001
2000
0000
0000
0000
,
3001
0100
0001
1000
0010
0100
0001
1000
0010
0100
0010
1000
0002
0000
0000
0000
,
1003
0100
0010
0001
1000
0000
1000
0100
,
0010
0001
1000
0000
0002
0003
0000
1000
,
0010
0100
0001
0000
0100
0000
0001
0010
,
0100
0000
1000
0000
0001
0100
0010
1000
,
0001
0000
1000
0000
0001
0010
0001
0000
1000
0000
0010
0000
0100
0001
0100
0000
,
0001
0000
0010
0000
0100
1000
0100
0000
0010
0000
0001
0000
1000
0000
0001
0000
,
0100
0001
0100
0010
1000
0010
1000
0001
0100
0001
1000
0001
0100
0010
1000
0001
,
1000
0100
0010
0100
0010
0001
1000
0100
1000
0100
0010
0001
0010
0100
1000
0001
,
1000
0010
0100
0010
1000
0001
1000
0010
1000
0001
0100
0001
1000
0010
0100
0001
,
1000
0001
0100
0010
1000
0001
0100
0010
0100
0001
1000
0100
1000
0001
1000
0010
,
0100
0001
1000
0001
0010
0100
1000
0001
0010
0100
1000
0001
1000
0100
0010
0100
,
1000
0001
0010
0100
1000
0001
1000
0100
0010
0001
1000
0100
0010
0001
1000
0100
,
1000
0001
1000
0010
0100
0001
1000
0001
0100
0010
1000
0010
0100
0001
1000
0001
,
0100
0010
0100
0001
1000
0010
0100
0010
1000
0001
0100
0010
1000
0001
1000
0100
,
1000
0001
0010
0100
1000
0001
0010
0100
0010
0001
1000
0100
0010
0100
1000
0001
,
1000
0010
0100
0001
1000
0001
0100
0010
0100
0001
1000
0010
0100
0001
1000
0100
,
1000
0001
0010
0100
1000
0001
1000
0100
1000
0001
0010
0001
1000
0100
0010
0001
,
1000
0001
0100
0001
1000
0100
1000
0001
0010
0001
1000
0100
0010
0100
1000
0001
,
2000
3000
0000
0000
;

//---------------dance-single - Mad Matt----------------
#NOTES:
     dance-single:
     Mad Matt:
     Easy:
     17:
     1.000,1.000,0.077,0.522,1.000,1124.000,10.000,68.000,0.000,0.000:




0000
0000
0000
0000
,
1000
0000
1001
0000
,
0001
0000
1010
0000
,
0001
0000
1100
0011
,
0000
1000
1100
0000
,
0001
0000
0110
0000
,
1000
0000
1100
0000
,
0001
0000
1001
1010
,
0000
0100
0101
0000
,
0001
0000
0010
0000
0100
0000
1000
0100
,
2000
0000
3002
0000
,
2003
0000
3020
0000
,
0230
0000
0302
0000
,
0013
0010
0100
1000
0000
1000
0100
0010
,
0001
0001
1000
0001
0000
0001
0010
0100
,
1000
0001
1000
0001
0010
0100
0010
0100
,
1000
0010
1000
0001
0100
0001
1000
0001
,
1000
0010
0100
0001
1000
0010
1000
0001
0100
0001
0100
0010
1000
0001
0100
0001
,
1000
0010
0100
0001
1000
0100
0010
0001
1000
0100
1000
0001
0010
0001
1000
0100
,
1000
0000
0100
0000
0010
0000
0001
0000
1000
0000
0010
0000
0100
0000
0002
0003
,
2000
0000
0000
0000
3002
0003
0020
0030
0000
0000
0200
0300
2000
3000
0000
0000
,
0002
0000
0003
1000
0010
0000
0100
0001
,
0000
1000
0100
0000
0010
0000
0001
0000
,
1000
0000
0100
0000
0010
0000
0001
0000
1000
0000
0010
0000
0100
0000
0002
0003
,
2000
0000
0000
0000
3002
0003
0020
0030
0000
0000
0200
0300
2000
3000
0000
0000
,
0002
0000
0003
1000
0010
0000
0100
0001
,
0000
1000
0100
0000
0010
0000
0001
0000
,
1000
0000
0100
0000
0010
0000
0001
0000
1000
0000
0010
0000
0100
0000
0002
0003
,
2000
0000
0000
0000
3002
0003
0020
0030
0000
0000
0200
0300
2000
3000
0000
0000
,
0002
0000
0003
1000
0010
0000
0100
0001
,
0000
1000
0100
0000
0010
0000
0001
0000
,
1000
0010
1000
0001
1000
0100
1000
0001
0010
0100
1000
0001
1000
0100
0010
0001
,
2000
0000
0000
0000
,
3001
0001
0010
0010
0100
0100
1000
1000
,
0001
0000
0001
0000
1000
0010
0100
0001
2000
0000
0000
0000
3001
0000
0000
0000
,
1000
0100
0010
0001
1000
0010
0100
0001
1000
0100
0010
0001
,
2000
3002
0203
0320
,
2030
0000
0000
3002
0000
0000
2003
0000
,
3200
0000
0000
0000
,
0310
0001
1000
0001
0100
0010
1000
0010
0100
0001
1000
0100
,
0020
0032
2003
3020
,
0130
0001
0100
0001
1000
0010
0100
0010
,
2000
0000
0000
3000
,
0001
1000
0010
0100
0001
0100
0010
1000
0001
1000
0010
0100
0001
1000
0010
0100
,
0002
0000
0013
0001
0000
1000
0001
0000
,
1000
0100
0010
0001
0010
0100
1000
0001
0010
0100
1000
0100
0010
0001
1000
0001
,
0020
0000
0130
1000
0000
0001
1000
0000
,
0002
0000
0000
0000
0000
0000
0000
0000
0000
0000
0000
0000
0000
0000
0000
0000
0010
0000
0000
0000
0000
0000
0000
0000
0000
0000
0000
0000
0000
0000
0000
0003
0002
0000
0000
0000
0000
0000
0000
0000
0000
0000
0000
0000
0000
0000
0000
0000
1000
0000
0000
0000
0000
0000
0000
0000
0000
0000
0000
0000
0000
0000
0000
0003
,
0002
0000
0000
0000
0000
0000
0000
0000
0000
0000
0000
0000
0000
0000
0000
0000
0100
0000
0000
0000
0000
0000
0000
0000
0000
0000
0000
0000
0000
0000
0000
0003
0002
0000
0000
0000
0000
0000
0000
0000
0000
0000
0000
0000
0000
0000
0000
0000
1000
0000
0000
0000
0000
0000
0000
0000
0003
0000
0000
0000
0000
0000
0000
0000
,
1000
0010
0100
0001
0100
0010
1000
0001
1000
0100
1000
0001
0010
0100
1000
0001
,
1000
0100
0010
0001
1000
0001
0100
0010
,
1000
0001
0010
0100
1000
0001
1000
0010
,
2000
0000
3001
0100
0000
0001
0010
0000
,
0200
0000
0300
1000
0001
0000
0010
0100
,
0000
1000
0001
0000
1000
0000
0010
0000
,
1000
0001
0010
0100
1000
0001
1000
0010
,
2000
0000
3001
0100
0000
0001
0010
0000
,
0200
0000
0300
1000
0001
0000
0010
0100
,
0000
1000
0001
0000
1000
0000
0010
0000
,
1000
0001
0010
0100
1000
0001
1000
0010
,
2000
0000
3001
0100
0000
0001
0010
0000
,
0200
0000
0300
1000
0001
0000
0010
0100
,
0000
1000
0001
0000
1000
0000
0010
0000
,
1000
0010
1000
0001
0100
0001
1000
0001
1000
0100
0010
0001
1000
0100
1000
0001
,
2000
0000
0000
0000
,
3001
0001
0010
0010
0100
0100
1000
1000
,
0001
0000
0001
0000
1000
0010
1000
0001
2000
0000
0000
0000
3001
0000
0000
0000
,
1000
0010
1000
0010
1000
0010
1000
0010
,
0100
0010
0100
0010
0100
0001
0100
0001
,
1000
0001
1000
0001
0010
0001
0010
0100
,
1000
0100
1000
0001
1000
0001
1000
0001
,
1000
0010
1000
0001
0100
0001
1000
0010
1000
0001
0100
0010
1000
0001
1000
0010
,
0100
0001
1000
0001
0010
0100
0010
0001
1000
0100
0010
0001
1000
0100
0010
0100
,
1000
0001
0100
0010
0100
0001
1000
0010
1000
0001
1000
0100
1000
0001
0010
0100
,
1000
0001
1000
0010
0100
0001
0100
0010
1000
0001
0100
0001
1000
0000
0001
0000
,
1000
0010
1000
0001
0100
0001
1000
0010
0100
0001
1000
0100
1000
0001
0010
0001
,
1000
0010
0100
0001
0100
0010
1000
0001
1000
0100
0010
0100
1000
0001
0010
0100
,
1000
0001
1000
0010
0100
0001
1000
0010
1000
0001
0100
0001
1000
0001
0010
0100
,
1000
0001
1000
0010
0100
0001
1000
0100
1000
0001
0010
0100
1000
0001
1000
0001
,
0010
0100
0000
0100
1000
0010
1000
0001
,
1000
0010
0000
0010
0100
0001
0100
0010
,
1000
0100
0010
0001
1000
0100
1000
0001
1000
0010
0100
0001
1000
0001
0100
0010
,
1000
0001
1000
0100
1000
0001
0010
0100
1000
0001
1000
0001
1000
0001
1000
0001
,
1000
0010
1000
0100
,
1000
0000
0010
1000
0000
1000
0100
0000
,
0010
0000
0001
0100
0000
0100
0001
0000
,
1000
0000
0010
0100
0000
0100
0010
0000
,
1000
0001
0100
0001
,
0010
0000
0001
0100
0000
0100
0010
0000
,
1000
0000
0001
0010
0000
0010
0001
0000
,
1000
0000
0100
0010
0000
0010
0100
0000
,
1000
0001
0010
0100
,
1000
0000
0001
0100
0000
0100
0010
0000
,
1000
0000
0001
0010
0000
0010
0001
0000
,
1000
0000
0010
0100
0000
0100
0010
0000
,
1000
0001
0100
0001
,
0010
0000
0001
0100
0000
0100
0010
0000
,
1000
0000
0001
0010
0000
0010
0001
0000
,
1000
0000
0100
0010
0000
0010
0100
0000
,
1000
0010
0100
0001
1000
0001
0100
0001
1000
0100
0010
0100
1000
0001
1000
0001
,
0100
0010
1000
0001
1000
0001
0100
0010
1000
0001
1000
0100
0010
0100
1000
0001
,
1000
0010
0100
0010
1000
0001
1000
0100
1000
0001
0010
0100
1000
0100
0010
0001
,
1000
0001
0100
0010
0100
0001
1000
0010
1000
0001
1000
0010
0100
0001
1000
0001
,
0010
0001
1000
0100
0010
0001
1000
0001
0010
0100
1000
0001
1000
0010
0100
0001
,
0100
0010
1000
0001
1000
0100
1000
0001
0010
0100
1000
0001
1000
0100
0010
0001
,
1000
0010
1000
0010
0100
0001
1000
0001
1000
0010
0100
0001
0100
0010
1000
0001
,
2000
3200
0320
0032
,
1003
1000
0010
0010
0200
0300
0001
2000
,
0000
3000
0001
0001
0100
0100
0010
1000
,
0001
0001
0010
0010
0200
0300
1000
0002
,
0000
0003
0100
0100
0010
0010
1000
0001
,
1000
0100
0010
0001
0010
0001
1000
0001
1000
0100
0010
0100
1000
0001
1000
0001
,
0100
0010
1000
0010
0100
0001
1000
0010
0100
0001
0100
0001
1000
0010
1000
0001
,
1000
0100
0010
0100
1000
0001
0010
0100
1000
0100
0010
0001
2000
0000
0000
0000
,
3001
0100
0001
1000
0010
0100
0001
1000
0010
0100
0010
1000
0002
0000
0000
0000
,
1003
0100
0010
0001
1000
0000
1000
0100
,
0010
0001
1000
0000
2000
3000
0000
0001
,
0100
0010
1000
0000
0010
0000
1000
0100
,
0010
0000
0001
0000
1000
0010
0100
0001
,
1000
0000
0001
0000
1000
0100
1000
0000
0001
0000
0100
0000
0010
1000
0010
0000
,
1000
0000
0100
0000
0010
0001
0010
0000
0100
0000
1000
0000
0001
0000
1000
0000
,
0010
1000
0010
0100
0001
0100
0001
1000
0010
1000
0001
1000
0010
0100
0001
1000
,
0001
0010
0100
0010
0100
1000
0001
0010
0001
0010
0100
1000
0100
0010
0001
1000
,
0001
0100
0010
0100
0001
1000
0001
0100
0001
1000
0010
1000
0001
0100
0010
1000
,
0001
1000
0010
0100
0001
1000
0010
0100
0010
1000
0001
0010
0001
1000
0001
0100
,
0010
1000
0001
1000
0100
0010
0001
1000
0100
0010
0001
1000
0001
0010
0100
0010
,
0001
1000
0100
0010
0001
1000
0001
0010
0100
1000
0001
0010
0100
1000
0001
0010
,
0001
1000
0001
0100
0010
1000
0001
1000
0010
0100
0001
0100
0010
1000
0001
1000
,
0010
0100
0010
1000
0001
0100
0010
0100
0001
1000
0010
0100
0001
1000
0001
0010
,
0001
1000
0100
0010
0001
1000
0100
0010
0100
1000
0001
0010
0100
0010
0001
1000
,
0001
0100
0010
1000
0001
1000
0010
0100
0010
1000
0001
0100
0010
1000
0001
0010
,
0001
1000
0100
0010
0001
1000
0001
0010
0001
1000
0100
1000
0001
0010
0100
1000
,
0001
1000
0010
1000
0001
0010
0001
1000
0100
1000
0001
0010
0100
0010
0001
1000
,
0002
0003
0000
0000
;

//---------------dance-single - Mad Matt----------------
#NOTES:
     dance-single:
     Mad Matt:
     Beginner:
     16:
     1.000,1.000,0.169,0.522,0.986,986.000,22.000,68.000,0.000,0.000:



0000
0000
0000
0000
,
1000
0000
1001
0000
,
0001
0000
1010
0000
,
0001
0000
1100
0011
,
0000
1000
1100
0000
,
0001
0000
0110
0000
,
1000
0000
1100
0000
,
0001
0000
1001
1010
,
0000
0100
0101
0000
,
0001
0000
0010
0000
0100
0000
1000
0100
,
2000
0000
3002
0000
,
2003
0000
3020
0000
,
0230
0000
0302
0000
,
0013
0010
0100
1000
0000
1000
0100
0010
,
0001
0001
1000
0001
0000
0001
0010
0100
,
1000
0001
1000
0001
0010
0100
0010
0100
,
1000
0010
1000
0001
0100
0001
1000
0001
,
1000
0010
0100
0001
1000
0010
1000
0001
0100
0001
0100
0010
1000
0001
0100
0001
,
1000
0010
0100
0001
1000
0100
0010
0001
1000
0100
1000
0001
0010
0001
1000
0100
,
1000
0000
0100
0000
0010
0000
0001
0000
1000
0000
0010
0000
0100
0000
0002
0003
,
2000
0000
0000
0000
3002
0003
0020
0030
0000
0000
0200
0300
2000
3000
0000
0000
,
0002
0000
0003
1000
0010
0000
0100
0001
,
0000
1000
0100
0000
0010
0000
0001
0000
,
1000
0000
0100
0000
0010
0000
0001
0000
1000
0000
0010
0000
0100
0000
0002
0003
,
2000
0000
0000
0000
3002
0003
0020
0030
0000
0000
0200
0300
2000
3000
0000
0000
,
0002
0000
0003
1000
0010
0000
0100
0001
,
0000
1000
0100
0000
0010
0000
0001
0000
,
1000
0000
0100
0000
0010
0000
0001
0000
1000
0000
0010
0000
0100
0000
0002
0003
,
2000
0000
0000
0000
3002
0003
0020
0030
0000
0000
0200
0300
2000
3000
0000
0000
,
0002
0000
0003
1000
0010
0000
0100
0001
,
0000
1000
0100
0000
0010
0000
0001
0000
,
1000
0010
1000
0001
1000
0100
1000
0001
0010
0100
1000
0001
1000
0100
0010
0001
,
2000
0000
0000
0000
,
3001
0001
0010
0010
0100
0100
1000
1000
,
0001
0000
0001
0000
1000
0010
0100
0001
2000
0000
0000
0000
3001
0000
0000
0000
,
1000
0100
0010
0001
1000
0010
0100
0001
1000
0100
0010
0001
,
2000
3002
0203
0320
,
2030
0000
0000
3002
0000
0000
2003
0000
,
3200
0000
0000
0000
,
0310
0001
1000
0001
0100
0010
1000
0010
0100
0001
1000
0100
,
0020
0032
2003
3020
,
0130
0001
0100
0001
1000
0010
0100
0010
,
2000
0000
0000
3000
,
0001
1000
0010
0100
0001
0100
0010
1000
0001
1000
0010
0100
0001
1000
0010
0100
,
0002
0000
0013
0001
0000
1000
0001
0000
,
1000
0100
0010
0001
0010
0100
1000
0001
0010
0100
1000
0100
0010
0001
1000
0001
,
0020
0000
0130
1000
0000
0001
1000
0000
,
0002
0000
0000
0000
0000
0000
0000
0000
0000
0000
0000
0000
0000
0000
0000
0000
0010
0000
0000
0000
0000
0000
0000
0000
0000
0000
0000
0000
0000
0000
0000
0003
0002
0000
0000
0000
0000
0000
0000
0000
0000
0000
0000
0000
0000
0000
0000
0000
1000
0000
0000
0000
0000
0000
0000
0000
0000
0000
0000
0000
0000
0000
0000
0003
,
0002
0000
0000
0000
0000
0000
0000
0000
0000
0000
0000
0000
0000
0000
0000
0000
0100
0000
0000
0000
0000
0000
0000
0000
0000
0000
0000
0000
0000
0000
0000
0003
0002
0000
0000
0000
0000
0000
0000
0000
0000
0000
0000
0000
0000
0000
0000
0000
1000
0000
0000
0000
0000
0000
0000
0000
0003
0000
0000
0000
0000
0000
0000
0000
,
1000
0010
0100
0001
0100
0010
1000
0001
1000
0100
1000
0001
0010
0100
1000
0001
,
1000
0100
0010
0001
1000
0001
0100
0010
,
1000
0001
0010
0100
1000
0001
1000
0010
,
2000
0000
3001
0100
0000
0001
0010
0000
,
0200
0000
0300
1000
0001
0000
0010
0100
,
0000
1000
0001
0000
1000
0000
0010
0000
,
1000
0001
0010
0100
1000
0001
1000
0010
,
2000
0000
3001
0100
0000
0001
0010
0000
,
0200
0000
0300
1000
0001
0000
0010
0100
,
0000
1000
0001
0000
1000
0000
0010
0000
,
1000
0001
0010
0100
1000
0001
1000
0010
,
2000
0000
3001
0100
0000
0001
0010
0000
,
0200
0000
0300
1000
0001
0000
0010
0100
,
0000
1000
0001
0000
1000
0000
0010
0000
,
1000
0010
1000
0001
0100
0001
1000
0001
1000
0100
0010
0001
1000
0100
1000
0001
,
2000
0000
0000
0000
,
3001
0001
0010
0010
0100
0100
1000
1000
,
0001
0000
0001
0000
1000
0010
1000
0001
2000
0000
0000
0000
3001
0000
0000
0000
,
1000
0010
1000
0010
1000
0010
1000
0010
,
0100
0010
0100
0010
0100
0001
0100
0001
,
1000
0001
1000
0001
0010
0001
0010
0100
,
1000
0100
1000
0001
1000
0001
1000
0001
,
1000
0010
1000
0001
0100
0001
1000
0010
1000
0001
0100
0010
1000
0001
1000
0010
,
0100
0001
1000
0001
0010
0100
0010
0001
1000
0100
0010
0001
1000
0100
0010
0100
,
1000
0001
0100
0010
0100
0001
1000
0010
1000
0001
1000
0100
1000
0001
0010
0100
,
1000
0001
1000
0010
0100
0001
0100
0010
1000
0001
0100
0001
1000
0000
0001
0000
,
1000
0010
1000
0001
0100
0001
1000
0010
0100
0001
1000
0100
1000
0001
0010
0001
,
1000
0010
0100
0001
0100
0010
1000
0001
1000
0100
0010
0100
1000
0001
0010
0100
,
1000
0001
1000
0010
0100
0001
1000
0010
1000
0001
0100
0001
1000
0001
0010
0100
,
1000
0001
1000
0010
0100
0001
1000
0100
1000
0001
0010
0100
1000
0001
1000
0001
,
0010
0100
0000
0100
1000
0010
1000
0001
,
1000
0010
0000
0010
0100
0001
0100
0010
,
1000
0100
0010
0001
1000
0100
1000
0001
1000
0010
0100
0001
1000
0001
0100
0010
,
1000
0001
1000
0100
1000
0001
0010
0100
1000
0001
1000
0001
1000
0001
1000
0001
,
1000
0010
1000
0100
,
1000
0000
0010
1000
0000
1000
0100
0000
,
0010
0000
0001
0100
0000
0100
0001
0000
,
1000
0000
0010
0100
0000
0100
0010
0000
,
1000
0001
0100
0001
,
0010
0000
0001
0100
0000
0100
0010
0000
,
1000
0000
0001
0010
0000
0010
0001
0000
,
1000
0000
0100
0010
0000
0010
0100
0000
,
1000
0001
0010
0100
,
1000
0000
0001
0100
0000
0100
0010
0000
,
1000
0000
0001
0010
0000
0010
0001
0000
,
1000
0000
0010
0100
0000
0100
0010
0000
,
1000
0001
0100
0001
,
0010
0000
0001
0100
0000
0100
0010
0000
,
1000
0000
0001
0010
0000
0010
0001
0000
,
1000
0000
0100
0010
0000
0010
0100
0000
,
1000
0010
0100
0001
1000
0001
0100
0001
1000
0010
0100
0010
1000
0001
1000
0001
,
0010
0100
1000
0001
1000
0001
0010
0100
1000
0001
1000
0100
0010
0100
1000
0001
,
1000
0010
0100
0001
1000
0001
0100
0010
1000
0010
0100
0001
1000
0010
0100
0001
,
1000
0001
0010
0100
0010
0001
1000
0100
1000
0001
1000
0010
0100
0001
0100
0010
,
1000
0001
1000
0010
0100
0001
1000
0001
0100
0010
1000
0001
1000
0100
1000
0001
,
0010
0100
0010
0001
1000
0100
0010
0001
1000
0001
0010
0100
1000
0001
1000
0010
,
0100
0010
1000
0001
0100
0010
1000
0001
1000
0010
0100
0001
0100
0010
1000
0001
,
2000
3200
0320
0032
,
1003
1000
0010
0010
0200
0300
0001
2000
,
0000
3000
0001
0001
0100
0100
0010
1000
,
0001
0001
0010
0010
0200
0300
1000
0002
,
0000
0003
0100
0100
0010
0010
1000
0001
,
1000
0100
0010
0001
0010
0001
1000
0001
1000
0100
0010
0100
1000
0001
1000
0001
,
0100
0010
1000
0010
0100
0001
1000
0010
0100
0001
0100
0001
1000
0010
1000
0001
,
1000
0100
0010
0100
1000
0001
0010
0100
1000
0100
0010
0001
2000
0000
0000
0000
,
3001
0100
0001
1000
0010
0100
0001
1000
0010
0100
0010
1000
0002
0000
0000
0000
,
1003
0100
0010
0001
1000
0000
1000
0100
,
0010
0001
1000
0000
2000
3000
0000
0001
,
0100
0010
1000
0000
0010
0000
1000
0100
,
0010
0000
0001
0000
1000
0010
0100
0001
,
1000
0000
0001
0000
1000
0100
1000
0000
0001
0000
0100
0000
0010
1000
0010
0000
,
1000
0000
0100
0000
0010
0001
0010
0000
0100
0000
1000
0000
0001
0000
1000
0000
,
0010
1000
0010
0100
0001
0100
0001
1000
0010
1000
0001
1000
0010
0100
0001
1000
,
0001
0010
0100
0010
0100
1000
0001
0010
0001
0010
0100
1000
0100
0010
0001
1000
,
0001
0000
1001
0000
,
1000
0000
0101
0000
,
1000
0000
0011
1100
,
0000
0001
0011
0000
,
1000
0000
0110
0000
,
0001
0000
0011
0000
,
1000
0000
1001
0101
,
0000
0010
1010
0000
,
0001
0000
1001
0000
,
1000
0000
0101
0000
,
0002
0003
0000
0000
;

//---------------dance-single - Mad Matt----------------
#NOTES:
     dance-single:
     Mad Matt:
     Medium:
     18:
     1.000,1.000,0.077,0.522,1.000,1126.000,10.000,68.000,0.000,0.000:

0000
0000
0000
0000
,
1000
0000
1001
0000
,
0001
0000
1010
0000
,
0001
0000
1100
0011
,
0000
1000
1100
0000
,
0001
0000
0110
0000
,
1000
0000
1100
0000
,
0001
0000
1001
1010
,
0000
0100
0101
0000
,
0001
0000
0010
0000
0100
0000
1000
0100
,
2000
0000
3002
0000
,
2003
0000
3020
0000
,
0230
0000
0302
0000
,
0013
0010
0100
1000
0000
1000
0100
0010
,
0001
0001
1000
0001
0000
0001
0010
0100
,
1000
0001
1000
0001
0010
0100
0010
0100
,
1000
0010
1000
0001
0100
0001
1000
0001
,
1000
0100
0010
0001
1000
0001
0100
0010
1000
0100
0010
0001
1000
0001
0010
0001
,
1000
0010
0100
0001
1000
0100
0010
0001
1000
0001
0100
0010
1000
0001
0010
0001
,
1000
0000
0100
0000
0010
0000
0001
0000
1000
0000
0010
0000
0100
0000
0002
0003
,
2000
0000
0000
0000
3002
0003
0020
0030
0000
0000
0200
0300
2000
3000
0000
0000
,
0002
0000
0003
1000
0010
0000
0100
0001
,
0000
1000
0100
0000
0010
0000
0001
0000
,
1000
0000
0100
0000
0010
0000
0001
0000
1000
0000
0010
0000
0100
0000
0002
0003
,
2000
0000
0000
0000
3002
0003
0020
0030
0000
0000
0200
0300
2000
3000
0000
0000
,
0002
0000
0003
1000
0010
0000
0100
0001
,
0000
1000
0100
0000
0010
0000
0001
0000
,
1000
0000
0100
0000
0010
0000
0001
0000
1000
0000
0010
0000
0100
0000
0002
0003
,
2000
0000
0000
0000
3002
0003
0020
0030
0000
0000
0200
0300
2000
3000
0000
0000
,
0002
0000
0003
1000
0010
0000
0100
0001
,
0000
1000
0100
0000
0010
0000
0001
0000
,
1000
0010
0100
0001
1000
0100
1000
0001
0100
0010
1000
0001
1000
0100
0010
0001
,
2000
0000
0000
0000
,
3001
0001
0010
0010
0100
0100
1000
1000
,
0001
0000
0001
0000
1000
0010
0100
0001
2000
0000
0000
0000
3001
0000
0000
0000
,
1000
0100
0010
0001
1000
0010
0100
0001
1000
0100
0010
0001
,
2000
3002
0203
0320
,
2030
0000
0000
3002
0000
0000
2003
0000
,
3200
0000
0000
0000
,
0310
0001
1000
0001
0100
0010
1000
0010
0100
0001
1000
0100
,
0020
0032
2003
3020
,
0130
0001
0100
0001
1000
0010
0100
0010
,
2000
0000
0000
3000
,
0001
1000
0010
0100
0001
0010
0100
1000
0001
1000
0100
0010
0001
1000
0010
0100
,
0002
0000
0013
0001
0000
1000
0001
0000
,
1000
0100
0010
0001
0100
0010
1000
0010
0100
0001
1000
0100
0010
0001
1000
0001
,
0200
0000
0310
1000
0000
0001
1000
0000
,
0002
0000
0000
0000
0000
0000
0000
0000
0000
0000
0000
0000
0000
0000
0000
0000
0010
0000
0000
0000
0000
0000
0000
0000
0000
0000
0000
0000
0000
0000
0000
0003
0002
0000
0000
0000
0000
0000
0000
0000
0000
0000
0000
0000
0000
0000
0000
0000
1000
0000
0000
0000
0000
0000
0000
0000
0000
0000
0000
0000
0000
0000
0000
0003
,
0002
0000
0000
0000
0000
0000
0000
0000
0000
0000
0000
0000
0000
0000
0000
0000
0100
0000
0000
0000
0000
0000
0000
0000
0000
0000
0000
0000
0000
0000
0000
0003
0002
0000
0000
0000
0000
0000
0000
0000
0000
0000
0000
0000
0000
0000
0000
0000
1000
0000
0000
0000
0003
0000
0000
0000
0000
0000
0000
0000
0000
0000
0000
0000
,
0001
0100
0010
1000
0001
0010
0001
1000
0100
0010
0001
1000
0010
0100
0001
1000
,
0001
0010
0100
1000
0001
1000
0010
0100
,
0001
1000
0100
0010
0001
1000
0001
0100
,
0002
0000
1003
0010
0000
1000
0100
0000
,
0020
0000
0030
0001
1000
0000
0100
0010
,
0000
0001
1000
0000
0001
0000
0100
0000
,
0001
1000
0100
0010
0001
1000
0001
0100
,
0002
0000
1003
0010
0000
1000
0100
0000
,
0020
0000
0030
0001
1000
0000
0100
0010
,
0000
0001
1000
0000
0001
0000
0100
0000
,
0001
1000
0100
0010
0001
1000
0001
0100
,
0002
0000
1003
0010
0000
1000
0100
0000
,
0020
0000
0030
0001
1000
0000
0100
0010
,
0000
0001
1000
0000
0001
0000
0100
0000
,
0001
0100
0001
1000
0100
1000
0001
0100
0001
1000
0100
0010
0001
1000
0010
0100
,
0002
0000
0000
0000
,
1003
1000
0100
0100
0010
0010
0001
0001
,
1000
0000
1000
0000
0001
0100
0001
1000
0002
0000
0000
0000
1003
0000
0000
0000
,
0001
0100
0001
0100
0001
0100
0001
0100
,
0010
0100
0010
0100
0010
1000
0010
1000
,
0001
1000
0001
1000
0100
1000
0100
0010
,
0001
0010
0001
0100
0001
0100
0001
0100
,
0001
0100
0010
1000
0001
0010
0100
0010
0001
1000
0010
0100
0001
1000
0100
0010
,
0100
1000
0001
0010
0001
1000
0001
0100
0010
1000
0001
1000
0100
0010
0001
1000
,
0010
0100
0001
1000
0001
0100
0010
1000
0001
1000
0100
1000
0001
0010
0001
1000
,
0001
0100
0010
1000
0001
1000
0100
1000
0001
0010
0100
1000
0001
0100
0001
1000
,
0001
0010
0100
1000
0001
1000
0001
0010
0001
1000
0001
0100
0010
0100
0001
1000
,
0001
0010
0001
1000
0100
1000
0001
1000
0010
0100
0001
1000
0001
0100
0010
1000
,
0001
1000
0100
0010
0100
1000
0001
0010
0100
1000
0001
1000
0001
0100
0010
1000
,
0001
1000
0100
0010
0100
1000
0001
1000
0010
0100
0001
1000
0001
0100
0001
1000
,
0100
0010
0000
0010
0001
0100
0001
1000
,
0001
0100
0000
0100
0010
1000
0010
0100
,
0001
0010
0100
1000
0001
1000
0010
0100
0001
1000
0100
0010
0001
1000
0001
0100
,
0010
1000
0010
0100
0001
1000
0001
0010
0100
1000
0001
0100
0001
1000
0100
1000
,
0001
0010
0001
0100
,
0001
0000
0010
0001
0000
0001
0100
0000
,
0010
0000
1000
0100
0000
0100
1000
0000
,
0001
0000
0010
0100
0000
0100
0010
0000
,
0001
1000
0100
1000
,
0010
0000
1000
0100
0000
0100
0010
0000
,
0001
0000
1000
0010
0000
0010
1000
0000
,
0001
0000
0100
0010
0000
0010
0100
0000
,
0001
1000
0010
0100
,
0001
0000
1000
0100
0000
0100
0010
0000
,
0001
0000
1000
0010
0000
0010
1000
0000
,
0001
0000
0010
0100
0000
0100
0010
0000
,
0001
1000
0100
1000
,
0010
0000
1000
0100
0000
0100
0010
0000
,
0001
0000
1000
0010
0000
0010
1000
0000
,
0001
0000
0100
0010
0000
0010
0100
0000
,
0001
1000
0100
0010
0001
0100
0010
1000
0001
0100
0001
1000
0001
0010
0100
1000
,
0010
0100
0001
0010
0100
1000
0001
0100
0001
1000
0100
0010
0001
1000
0001
0100
,
0010
1000
0100
0010
0001
0010
0100
1000
0010
0100
0001
0100
0010
1000
0001
1000
,
0100
0010
0001
0100
0010
1000
0010
0100
0001
1000
0001
0010
0100
1000
0010
0100
,
0001
0010
0100
1000
0010
0100
0001
0010
0001
0100
0010
1000
0100
0010
0001
0100
,
0010
0100
0001
0010
0100
1000
0010
1000
0100
0010
0001
0100
0010
1000
0010
0100
,
0001
0010
0100
1000
0001
1000
0010
0100
0001
1000
0100
1000
0001
0100
0001
1000
,
0002
0023
0230
2300
,
3001
0001
0100
0100
0020
0030
1000
0002
,
0000
0003
1000
1000
0010
0010
0100
0001
,
1000
1000
0100
0100
0020
0030
0001
2000
,
0000
3000
0010
0010
0100
0100
0001
1000
,
0001
0010
0100
1000
0001
1000
0010
1000
0001
0010
0100
1000
0001
0100
0001
1000
,
0001
0100
0010
1000
0100
0010
0001
0100
0001
0010
0100
1000
0010
0100
0001
0010
,
0100
0010
0001
1000
0010
0100
0010
1000
0001
0010
0100
1000
0002
0000
0000
0000
,
1003
0001
0010
0100
0010
0001
1000
0010
0100
0001
1000
0001
0020
0000
0000
0000
,
0031
0010
0100
1000
0001
0000
0001
0010
,
0100
1000
0001
0000
2000
3000
0000
0001
,
0100
0010
1000
0000
0010
0000
1000
0100
,
0010
0000
0001
0000
1000
0010
0100
0001
,
1000
0000
0001
0000
1000
0100
1000
0000
0001
0000
0100
0000
0010
1000
0010
0000
,
1000
0000
0100
0000
0010
0001
0010
0000
0100
0000
1000
0000
0001
0000
1000
0000
,
0001
0100
0010
1000
0001
1000
0100
0010
0100
1000
0001
1000
0010
0100
0001
1000
,
0001
0010
0100
1000
0001
0100
0010
0100
0001
1000
0100
0010
0001
1000
0001
0100
,
0010
1000
0001
1000
0100
1000
0001
0100
0010
1000
0001
0010
0100
1000
0001
0010
,
0001
1000
0010
1000
0001
0100
0010
0100
0001
1000
0001
0010
0100
1000
0001
1000
,
0010
0100
0001
1000
0100
1000
0001
0100
0010
1000
0001
1000
0100
1000
0001
0100
,
0001
1000
0100
0010
0001
1000
0100
1000
0001
0100
0010
0100
0001
1000
0001
0010
,
0100
1000
0001
1000
0010
0100
0010
1000
0001
1000
0100
0010
0001
1000
0001
0100
,
0010
0100
0001
1000
0001
0010
0100
1000
0100
0010
0001
1000
0010
1000
0001
0010
,
0001
1000
0010
0100
0001
1000
0100
1000
0001
0010
0100
1000
0001
0100
0010
0100
,
0001
1000
0001
0010
0100
1000
0001
1000
0010
0100
0001
0100
0010
1000
0001
1000
,
0001
0100
0001
1000
0100
1000
0001
0100
0010
1000
0001
0010
0100
0010
0001
1000
,
0010
1000
0001
0010
0001
1000
0100
0010
0001
1000
0010
1000
0001
0010
0100
1000
,
0002
0003
0000
0000
;
