#TITLE:Launch Octopus;
#SUBTITLE:;
#ARTIST:Capcom;
#TITLETRANSLIT:;
#SUBTITLETRANSLIT:;
#ARTISTTRANSLIT:;
#CREDIT:;
#BANNER:Launch Octopus.png;
#BACKGROUND:Launch Octopus BG.png;
#LYRICSPATH:;
#CDTITLE:!XMaxX.png;
#MUSIC:Launch Octopus.mp3;
#OFFSET:0.000;
#SAMPLESTART:6.000;
#SAMPLELENGTH:13.000;
#SELECTABLE:YES;
#BPMS:0.000=162.930;
#STOPS:;
#BGCHANGES:;
// cache tags:
#FIRSTBEAT:0.000;
#LASTBEAT:272.000;
#SONGFILENAME:Songs/keyboard/Launch Octopus (Megaman X)/Launch Octopus.sm;
#HASMUSIC:1;
#HASBANNER:1;
#MUSICLENGTH:107.083;
// end cache tags

//---------------dance-single - ----------------
#NOTES:
     dance-single:
     :
     Hard:
     8:
     0.635,0.699,0.233,0.486,0.308,399.000,25.000,52.000,0.000,0.000:
2002
0000
0000
0000
3003
0001
0100
0010
,
1000
0000
0000
2002
0000
0000
0000
0000
0000
0000
3003
0000
0000
0000
1000
0010
,
1000
0000
0000
0100
0000
0000
0010
0000
0001
0000
0000
0100
0000
0000
0010
0000
,
2000
0000
0000
0200
3000
0000
0000
0000
0300
0000
0000
0000
0110
0000
0000
0000
,
2002
0000
0000
0000
3003
0001
0100
0010
,
1000
0001
0100
0010
0000
1000
0010
0100
,
0001
0010
0001
0000
1000
0000
0100
0010
0100
0000
0001
0000
0100
0000
0010
0000
,
1000
0000
0000
0001
0000
0000
0100
0000
0000
0000
0000
0000
0220
0000
0330
0000
,
2002
0000
0000
0000
0000
0000
0000
0000
3003
0000
0001
0000
1000
0100
0000
0000
,
0010
0000
0001
0000
1000
0000
0100
0000
0000
0000
0010
0000
0001
1000
0001
1000
,
0001
0000
0000
0100
0000
0000
0010
0000
1000
0000
0000
0001
0000
0000
0100
0000
,
0010
0000
0000
1000
0000
0000
2002
0000
0000
0000
0000
0000
0000
0000
3003
0000
,
0000
1000
0001
1000
0010
0000
0100
0010
,
1000
0000
0100
0010
0000
0001
0000
0000
2000
0000
0000
0000
3001
0000
0000
0000
,
1000
0001
1000
0001
0100
0010
1000
0001
,
0000
1000
0001
0100
0010
1000
0001
0100
,
0010
0000
1000
0100
0000
0000
0100
0010
0100
0000
0010
0000
0001
0000
1000
0000
,
0000
0001
0100
0010
1000
0100
0010
0001
,
2000
0000
0000
3002
0000
0000
1003
0010
,
0100
0010
0100
0010
0100
0010
0100
0010
,
0100
0010
0100
0010
0100
0010
0100
0010
,
0220
0000
0000
0330
0000
0010
1000
0001
,
0100
0010
1000
0200
0000
0000
0000
0300
,
0000
0000
0010
0000
0001
0010
0001
0000
0100
0000
0010
0000
1000
0000
0001
0000
,
1000
0000
0001
0000
1000
0001
1000
0001
,
1001
0002
0203
0320
,
1030
0000
0100
0000
0010
0000
0001
0000
0000
0000
0001
0000
0000
1000
0000
0000
,
0001
0100
0010
1000
0100
0010
0001
0100
,
0010
0000
0000
1000
0000
0000
0200
0000
0000
0000
0000
0000
0300
0000
0000
0000
,
1001
0000
1000
0100
1000
0100
0010
0100
0010
0001
0010
0001
1000
0001
1000
0001
,
1000
0000
0000
0001
0000
0000
0100
0000
0000
0000
0010
0000
0000
1000
0000
0000
,
0001
0000
0000
1000
0000
0000
0001
0000
1000
0000
0000
0100
0000
0000
0010
0000
,
0001
0000
0000
1000
0000
0000
0200
0000
0000
0000
0000
0000
0300
0000
0000
0000
,
2002
0000
0000
0000
3003
1000
0010
0100
,
0001
0000
0000
2002
0000
0000
0000
0000
0000
0000
3003
0000
0000
0000
0001
0100
,
0001
0000
0000
0010
0000
0000
0100
0000
1000
0000
0000
0010
0000
0000
0100
0000
,
0002
0000
0000
0020
0003
0000
0000
0000
0030
0000
0000
0000
0110
0000
0000
0000
,
2002
0000
0000
0000
3003
1000
0010
0100
,
0001
1000
0010
0100
0000
0001
0100
0010
,
1000
0100
1000
0000
0001
0000
0010
0100
0010
0000
1000
0000
0010
0000
0100
0000
,
0001
0000
0000
1000
0000
0000
0010
0000
0000
0000
0000
0000
0220
0000
0330
0000
,
2002
0000
0000
0000
0000
0000
0000
0000
3003
0000
1000
0000
0001
0010
0000
0000
,
0100
0000
1000
0000
0001
0000
0010
0000
0000
0000
0100
0000
1000
0001
1000
0001
,
1000
0000
0000
0010
0000
0000
0100
0000
0001
0000
0000
1000
0000
0000
0010
0000
,
0100
0000
0000
0001
0000
0000
2002
0000
0000
0000
0000
0000
0000
0000
3003
0000
,
0000
0001
1000
0001
0100
0000
0010
0100
,
0001
0000
0010
0100
0000
1000
0000
0000
0002
0000
0000
0000
1003
0000
0000
0000
,
0001
1000
0001
1000
0010
0100
0001
1000
,
0000
0001
1000
0010
0100
0001
1000
0010
,
0100
0000
0001
0010
0000
0000
0010
0100
0010
0000
0100
0000
1000
0000
0001
0000
,
0000
1000
0010
0100
0001
0010
0100
1000
,
0002
0000
0000
2003
0000
0000
3001
0100
,
0010
1000
0001
0100
0010
1000
0001
0100
,
0010
1001
0001
0110
1000
1001
0100
0110
,
0220
0000
0000
0330
0000
0100
0001
1000
,
0010
0100
0001
0020
0000
0000
0000
0030
,
0000
0000
0100
0000
1000
0100
1000
0000
0010
0000
0100
0000
0001
0000
1000
0000
,
0001
0000
1000
0000
0001
1000
0001
1000
,
1001
2000
3020
0230
,
0301
0000
0010
0000
0100
0000
1000
0000
0000
0000
1000
0000
0000
0001
0000
0000
,
1000
0010
0100
0001
0010
0100
1000
0010
,
0100
0000
0000
0001
0000
0000
0020
0000
0000
0000
0000
0000
0030
0000
0000
0000
,
1001
0000
0001
0010
0001
0010
0100
0010
0100
1000
0100
1000
0001
1000
0001
1000
,
0001
0000
0000
1000
0000
0000
0010
0000
0000
0000
0100
0000
0000
0001
0000
0000
,
1000
0000
0000
0001
0000
0000
1000
0000
0001
0000
0000
0010
0000
0000
0100
0000
,
1000
0000
0000
0001
0000
0000
0020
0000
0000
0000
0000
0000
0030
0000
0000
0000
,
2002
0000
0000
0000
,
0000
0000
0000
0000
,
3003
0000
0000
0000
;

//---------------dance-single - ----------------
#NOTES:
     dance-single:
     :
     Medium:
     7:
     0.518,0.508,0.327,0.523,0.121,297.000,35.000,56.000,0.000,0.000:
2002
0000
3003
0001
,
1000
0000
0000
2002
0000
0000
0000
0000
0000
0000
3003
0000
0000
0000
1000
0000
,
0001
0000
0000
0100
0000
0000
0010
0000
1000
0000
0000
0100
0000
0000
0010
0000
,
0002
2003
3000
0000
,
2002
0000
3003
0001
,
1000
0000
0001
1000
0000
1000
0001
1000
,
0001
1001
1000
1001
,
1000
0000
0000
0001
0000
0000
0100
0000
0000
0000
0000
0000
0220
0000
0330
0000
,
2002
0000
3003
1000
,
0001
0000
0100
0010
0000
0010
0100
0010
,
0100
0000
0000
0010
0000
0000
1000
0000
0001
0000
0000
0100
0000
0000
0010
0000
,
1000
0000
0000
0001
0000
0000
2002
0000
0000
0000
0000
0000
0000
0000
3003
0000
,
0000
1000
0000
0001
1000
0000
1000
0010
,
0100
0001
0000
0001
2000
0000
3000
0000
,
1000
0001
1000
0000
0010
0100
0010
0200
,
0000
0300
0101
0000
1010
0000
1001
0000
,
1000
0000
0000
0100
0000
0000
0010
0000
0001
0000
1000
0000
0001
0000
1000
0000
,
0000
0001
1000
0001
1000
0000
1001
0000
,
2000
0000
0000
3002
0000
0000
1003
0010
,
0100
0010
0100
0000
0001
1000
0001
0000
,
0010
0100
0010
0000
1000
0001
1000
0000
,
2002
0000
0000
3003
0000
0000
1001
0000
,
0001
1000
0001
2000
0000
0000
0000
3000
,
0000
0010
0001
1000
0100
0000
0010
0001
,
0100
0010
1000
0001
,
1001
0002
0203
0320
,
1030
0000
0000
0000
1000
0000
0001
0000
0000
0000
0001
0000
0000
1000
0000
0000
,
0001
1000
0001
0100
,
0010
0000
0000
1000
0000
0000
0002
0000
0000
0000
0000
0000
0003
0000
0000
0000
,
1001
0000
1000
0100
1000
0100
0010
0001
,
0010
0000
0001
0000
0000
0100
0000
0000
0000
0000
0010
0000
0000
1000
0000
0000
,
0001
1000
0001
1000
0001
1000
0001
1000
,
0001
0000
0000
1000
0000
0000
2002
0000
0000
0000
0000
0000
3003
0000
0000
0000
,
2002
0000
3003
1000
,
0001
0000
0000
2002
0000
0000
0000
0000
0000
0000
3003
0000
0000
0000
0001
0000
,
1000
0000
0000
0010
0000
0000
0100
0000
0001
0000
0000
0010
0000
0000
0100
0000
,
2000
3002
0003
0000
,
2002
0000
3003
1000
,
0001
0000
1000
0001
0000
0001
1000
0001
,
1000
1001
0001
1001
,
0001
0000
0000
1000
0000
0000
0010
0000
0000
0000
0000
0000
0220
0000
0330
0000
,
2002
0000
3003
0001
,
1000
0000
0010
0100
0000
0100
0010
0100
,
0010
0000
0000
0100
0000
0000
0001
0000
1000
0000
0000
0010
0000
0000
0100
0000
,
0001
0000
0000
1000
0000
0000
2002
0000
0000
0000
0000
0000
0000
0000
3003
0000
,
0000
0001
0000
1000
0001
0000
0001
0100
,
0010
1000
0000
1000
0002
0000
0003
0000
,
0001
1000
0001
0000
0100
0010
0100
0020
,
0000
0030
1010
0000
0101
0000
1001
0000
,
0001
0000
0000
0010
0000
0000
0100
0000
1000
0000
0001
0000
1000
0000
0001
0000
,
0000
1000
0001
1000
0001
0000
1001
0000
,
0002
0000
0000
2003
0000
0000
3001
0100
,
0010
0100
0010
0000
1000
0001
1000
0000
,
0100
0010
0100
0000
0001
1000
0001
0000
,
2002
0000
0000
3003
0000
0000
1001
0000
,
1000
0001
1000
0002
0000
0000
0000
0003
,
0000
0100
1000
0001
0010
0000
0100
1000
,
0010
0100
0001
1000
,
1001
2000
3020
0230
,
0301
0000
0000
0000
0001
0000
1000
0000
0000
0000
1000
0000
0000
0001
0000
0000
,
1000
0001
1000
0010
,
0100
0000
0000
0001
0000
0000
2000
0000
0000
0000
0000
0000
3000
0000
0000
0000
,
1001
0000
0001
0010
0001
0010
0100
1000
,
0100
0000
1000
0000
0000
0010
0000
0000
0000
0000
0100
0000
0000
0001
0000
0000
,
1000
0001
1000
0001
1000
0001
1000
0001
,
1000
0000
0000
0001
0000
0000
2002
0000
0000
0000
0000
0000
3003
0000
0000
0000
,
2002
0000
0000
0000
,
0000
0000
0000
0000
,
3003
0000
0000
0000
;

//---------------dance-single - ----------------
#NOTES:
     dance-single:
     :
     Easy:
     6:
     0.422,0.445,0.420,0.467,0.009,221.000,45.000,50.000,0.000,0.000:
2002
0000
3003
0000
,
1001
0000
0000
2002
0000
0000
0000
0000
0000
0000
3003
0000
0000
0000
1000
0000
,
0001
1000
0001
0100
,
0020
0230
0300
0000
,
2002
0000
3003
0001
,
1000
1001
0000
1000
,
0010
0100
0001
0100
,
0010
0000
0000
0110
0000
0000
1001
0000
,
2002
0000
3003
1000
,
0001
0100
0010
1000
,
0001
0100
0010
1000
,
0001
0000
0000
2002
0000
0000
0000
3003
,
1000
0001
1000
0001
,
0100
0010
2000
3001
,
0001
1000
0100
0010
,
0001
1000
0001
1000
,
0010
1000
0001
0100
,
0010
1000
0100
0010
,
0001
1000
0001
0100
,
1100
0100
0110
0010
,
0011
0001
1001
1000
,
2002
0000
0000
3003
0000
0000
1001
0000
,
0000
0110
0000
2002
0000
0000
0000
3003
,
1000
0001
0100
0010
,
0100
0010
1000
0001
,
1001
0002
0203
0320
,
1030
1000
0001
0001
,
0100
0010
1000
0001
,
0100
0000
0000
2002
0000
0000
3003
0000
,
1001
1000
1000
0100
,
0100
0010
0010
0001
,
1000
0001
1000
0001
,
1001
0000
0000
2002
0000
0000
3003
0000
,
2002
0000
3003
0000
,
1001
0000
0000
2002
0000
0000
0000
0000
0000
0000
3003
0000
0000
0000
0001
0000
,
1000
0001
1000
0010
,
0200
0320
0030
0000
,
2002
0000
3003
1000
,
0001
1001
0000
0001
,
0100
0010
1000
0010
,
0100
0000
0000
0110
0000
0000
1001
0000
,
2002
0000
3003
0001
,
1000
0010
0100
0001
,
1000
0010
0100
0001
,
1000
0000
0000
2002
0000
0000
0000
3003
,
0001
1000
0001
1000
,
0010
0100
0002
1003
,
1000
0001
0010
0100
,
1000
0001
1000
0001
,
0100
0001
1000
0010
,
0100
0001
0010
0100
,
1000
0001
1000
0010
,
0011
0010
0110
0100
,
1100
1000
1001
0001
,
2002
0000
0000
3003
0000
0000
1001
0000
,
0000
0110
0000
2002
0000
0000
0000
3003
,
0001
1000
0010
0100
,
0010
0100
0001
1000
,
1001
2000
3020
0230
,
0301
0001
1000
1000
,
0010
0100
0001
1000
,
0010
0000
0000
2002
0000
0000
3003
0000
,
1001
0001
0001
0010
,
0010
0100
0100
1000
,
0001
1000
0001
1000
,
1001
0000
0000
2002
0000
0000
3003
0000
,
2002
0000
0000
0000
,
0000
0000
0000
0000
,
3003
0000
0000
0000
;

//---------------dance-single - ----------------
#NOTES:
     dance-single:
     :
     Beginner:
     2:
     0.189,0.185,0.159,0.000,0.000,125.000,17.000,0.000,0.000,0.000:
1000
0000
0001
0000
,
0100
0000
0010
0000
,
1000
0000
0001
0000
,
1000
0000
0001
0000
,
1001
0000
1000
0000
,
0001
0000
0001
0000
,
0100
0000
0100
0000
,
0010
0000
0010
0000
,
0110
0000
0010
0000
,
1000
0000
1000
0000
,
0001
0000
0001
0000
,
0100
0000
0100
0000
,
1001
0000
0001
0000
,
1000
0000
0001
0000
,
0100
0000
0010
0000
,
1000
0000
0001
0000
,
0100
0000
0010
0000
,
1000
0000
0100
0000
,
0010
0000
0001
0000
,
1000
0000
0001
0000
,
0100
0000
0010
0000
,
0110
0000
0000
0000
,
1001
0000
0000
0000
,
0110
0000
0000
0000
,
1001
0000
0000
0000
,
1001
0000
0001
0000
,
0100
0000
0010
0000
,
1000
0000
0001
0000
,
0100
0000
0010
0000
,
1000
0000
0100
0000
,
0010
0000
0001
0000
,
1000
0000
0100
0000
,
0010
0000
0001
0000
,
1000
0000
0001
0000
,
0100
0000
0010
0000
,
1000
0000
0001
0000
,
1000
0000
0001
0000
,
1001
0000
1000
0000
,
0001
0000
0001
0000
,
0100
0000
0100
0000
,
0010
0000
0010
0000
,
0110
0000
0010
0000
,
1000
0000
1000
0000
,
0001
0000
0001
0000
,
0100
0000
0100
0000
,
1001
0000
0001
0000
,
1000
0000
0001
0000
,
0100
0000
0010
0000
,
1000
0000
0001
0000
,
0100
0000
0010
0000
,
1000
0000
0100
0000
,
0010
0000
0001
0000
,
1000
0000
0001
0000
,
0100
0000
0010
0000
,
0110
0000
0000
0000
,
1001
0000
0000
0000
,
0110
0000
0000
0000
,
1001
0000
0000
0000
,
1001
0000
0001
0000
,
0100
0000
0010
0000
,
1000
0000
0001
0000
,
0100
0000
0010
0000
,
1000
0000
0100
0000
,
0010
0000
0001
0000
,
1000
0000
0100
0000
,
0010
0000
0001
0000
,
1001
0000
0000
0000
;
