#TITLE:Nintendo forest mix;
#SUBTITLE:;
#ARTIST:Unknown artist;
#TITLETRANSLIT:;
#SUBTITLETRANSLIT:;
#ARTISTTRANSLIT:;
#CREDIT:GoldenEagle;
#BANNER:Nintendo forest mix.bn.jpg;
#BACKGROUND:Nintendo forest mix.jpg;
#LYRICSPATH:;
#CDTITLE:;
#MUSIC:Nintendo_Forest_Mix(Super_Mario_World,_Legend_of_Zelda_Ocarina_of_Time,_Legend_of_Zelda_A_Link_to.mp3;
#OFFSET:0.020;
#SAMPLESTART:123.500;
#SAMPLELENGTH:12.000;
#SELECTABLE:YES;
#BPMS:0.000=140.000,424.000=141.000,456.000=140.980,488.000=140.800,491.000=140.780,519.000=140.800;
#STOPS:127.750=1.700
;
#BGCHANGES:;
// cache tags:
#FIRSTBEAT:8.000;
#LASTBEAT:839.000;
#SONGFILENAME:Songs/newbie/Nintendo Forest Mix/nintendo forest mix.sm;
#HASMUSIC:1;
#HASBANNER:1;
#MUSICLENGTH:364.147;
// end cache tags

//---------------dance-single - ----------------
#NOTES:
     dance-single:
     :
     Hard:
     9:
     0.510,0.720,0.192,0.264,0.169,1134.000,70.000,96.000,0.000,0.000:
0000
0000
0000
0000
,
0000
0000
0000
0000
,
0000
0000
0000
0000
,
0000
0000
0000
0000
,
0010
1000
0001
0000
,
0010
0001
0220
0000
,
0000
0000
0000
0000
,
0000
0000
0000
0330
,
0010
1000
0100
0000
,
0010
0001
2002
0000
,
0000
0000
0000
0000
,
0000
0000
0000
3003
,
0010
0100
0001
0000
,
0010
0100
2020
0000
,
0000
0000
0000
0000
,
0000
0000
0000
3030
,
0002
0003
0200
0300
2002
0000
3003
0000
,
2000
3000
0002
0003
0010
0200
0000
0000
,
2300
3000
0002
0003
0220
0000
0330
0000
,
0020
0030
2000
3000
0202
0000
0303
0000
,
0020
0032
0203
0010
,
0302
0000
2003
0000
3200
0010
0000
0000
,
2300
3020
0230
0001
,
0320
2030
3200
0000
,
0310
0001
0000
0000
0010
0001
0000
0000
0100
0000
0010
0000
0000
0000
1000
0000
,
0010
0100
0010
0100
0001
0100
0000
0000
,
0010
0100
0000
0000
0010
0100
0000
0000
0001
0000
0010
0000
0000
0000
0100
0000
,
1000
0010
1000
0010
0100
0001
0000
0010
,
0100
1000
0000
0000
0100
1000
0000
0000
0010
0000
0100
0000
0000
0000
0001
0000
,
0100
0010
0000
0000
0100
0010
0000
0000
1000
0000
0100
0000
0000
0000
0010
0000
,
0001
0100
0000
0000
0001
0100
0000
0000
0010
1000
0000
0000
0010
1000
0000
0000
,
1000
0001
1000
0001
1000
0001
1000
0001
1000
0001
1000
0001
1000
0001
1000
0001
,
0010
0100
0010
0000
0001
1000
0001
0000
1000
0000
0020
0000
0030
0000
0100
0000
,
0101
0010
1000
0010
0100
0020
0000
0030
,
1000
0100
1000
0000
0001
0010
0001
0000
1000
0000
0002
0000
0003
0000
1000
0000
,
1010
0001
0100
0001
1000
0002
0000
0003
,
1000
0010
1000
0000
0100
0010
0100
0000
1000
0000
0002
0000
0003
0000
0010
0000
,
0101
1000
0010
1000
0001
2000
0000
3000
,
0001
0100
0001
0000
1000
0100
1000
0000
0001
0000
0010
0000
0000
0000
0100
0000
,
1001
0010
0100
0010
1000
0010
0000
0000
,
0011
1000
1000
0010
0100
0100
0110
0000
,
1001
0100
0100
0010
1000
1000
1001
0000
,
0011
0100
0100
1000
0010
0010
0100
0101
,
0000
2002
0000
0000
0000
0000
3003
0000
,
0010
0000
0000
0010
0000
0000
1000
0000
0001
0000
0001
0000
0000
0000
0000
0000
,
0100
0000
0000
0100
0000
0000
0010
0000
1000
0000
0001
0000
0000
0000
0000
0000
,
1000
0000
0000
1000
0000
0000
0010
0000
0100
0000
0100
0000
0000
0000
0000
0000
,
0010
0000
0000
0010
0000
0000
0100
0000
0001
0000
0100
0000
0000
0000
0000
0000
,
1000
0000
0000
1000
0000
0000
0001
0000
0100
0000
0100
0000
0000
0000
0000
0000
,
0010
0000
0000
0010
0000
0000
0100
0000
1000
0000
0100
0000
0000
0000
0000
0000
,
2002
0000
3003
0000
0010
0020
0000
0030
,
0000
0000
0000
0000
0100
0200
0000
0310
,
1000
0000
0000
0100
0000
0000
0010
0000
0000
0000
0001
0000
0000
0000
0100
0000
,
0001
0000
0000
1000
0000
0000
0001
0000
0100
0000
0010
0000
0000
0000
0100
0000
,
0010
0000
0000
0100
0000
0000
0001
0000
0000
0000
1000
0000
0000
0000
0010
0000
,
1000
0000
0000
0001
0000
0000
0010
0000
0000
0000
0100
0000
0000
0000
0010
0000
,
0100
0000
0000
1000
0000
0000
0010
0000
0000
0000
0100
0000
0000
0000
0001
0000
,
0010
0000
0000
0100
0000
0000
0010
0000
0100
0000
0100
0000
0000
0000
1000
0000
,
0010
0000
0000
0100
0000
0000
0001
0000
0000
0000
1001
0000
0000
0000
0010
0000
,
1000
0000
0000
0100
0000
0000
1000
0000
0000
0000
1001
0000
0000
0000
0010
0000
,
0001
0000
0000
0100
0000
0000
0001
0000
0000
0000
1001
0000
0000
0000
0100
0000
,
0010
0000
0000
1000
0000
0000
0100
0000
0010
0000
0001
0000
0000
0000
0010
0000
,
0001
0000
0000
0100
0000
0000
0010
0000
0000
0000
0110
0000
0000
0000
1000
0000
,
0001
0000
0000
0010
0000
0000
0100
0000
0000
0000
1100
0000
0000
0000
0001
0000
,
0100
0000
0000
0010
0000
0000
1000
0000
0000
0000
1100
0000
0000
0000
0010
0000
,
0001
0000
0000
0100
0000
0000
0001
0000
1000
0000
0100
0000
0000
0000
0010
0000
,
0001
0000
0000
0100
0000
0000
0010
0000
0000
0000
0110
0000
0000
0000
0001
0000
,
0100
0000
0000
0010
0000
0000
1000
0000
0000
0000
1001
0000
0000
0000
0001
0000
,
0100
0000
0000
0010
1000
0000
0001
0000
0100
0000
0010
0000
1000
0000
0001
0000
,
1000
0000
0000
0001
0010
0000
0100
0000
0010
0000
0001
0000
1000
0000
0100
0000
,
1000
0000
0000
0001
0100
0000
0010
0000
1000
0000
0001
0000
0010
0000
0001
0000
,
0100
0000
0000
0010
1000
0000
0001
0000
0100
0000
0010
0000
1000
0000
0001
0000
,
0100
0000
0000
0010
1000
0000
0001
0000
0010
0000
0100
0000
1000
0000
0100
0000
,
0010
0000
0000
0100
1000
0000
0001
0000
0100
0000
0010
0000
1000
0000
0010
0000
,
0100
0000
0000
0001
0010
0000
0100
0000
0010
0000
0001
0000
1000
0000
0001
0000
,
0100
0000
0000
0001
0010
0000
0100
0000
1000
0000
0010
0000
1000
0000
0100
0000
,
0011
0000
0000
0001
0100
0000
0100
0000
0010
0000
1000
0000
0100
0000
0100
0000
,
0010
0000
0000
0001
1000
0000
1000
0000
0010
0000
1000
0000
0001
0000
0001
0000
,
0010
0000
0000
0001
0100
0000
0100
0000
0010
0000
1000
0000
0001
0000
0001
0000
,
0010
0000
0000
0100
1000
0000
1000
0000
0010
0000
0100
0000
0001
0000
0001
0000
,
0010
0000
0000
0001
0100
0000
0100
0000
0001
0000
0010
0000
0100
0000
0100
0000
,
1000
0000
0000
0100
1000
0000
1000
0000
0001
0000
0100
0000
0010
0000
0010
0000
,
1000
0000
0000
0010
0100
0000
0100
0000
0001
0000
1000
0000
0100
0000
0100
0000
,
0010
0000
0000
0001
0010
0100
0010
0000
0000
0000
0000
0000
0000
0000
0000
0000
,
0100
0000
0000
1000
0001
0000
0000
0000
0100
0000
0001
0000
2000
0000
3000
0000
,
0100
0000
0000
0010
0001
0000
0000
0000
0100
0000
0000
0000
0110
0000
0000
0000
,
1010
0000
0000
1000
0002
0000
0000
0000
1003
0000
0001
0000
0020
0000
0000
0000
,
0130
0000
0000
1000
0002
0000
0000
0000
0100
0000
0000
0000
0103
0000
0000
0000
,
0100
0000
0000
0010
1000
0000
0000
0000
1000
0000
0000
0100
0010
0000
0000
0000
,
0010
0001
0020
0000
0100
0000
0130
0000
,
0100
0000
0000
1000
0010
0000
0100
0000
0000
0001
0010
0000
0100
0000
0010
0000
,
0100
0000
0000
1000
0001
0000
0100
0000
0000
0010
1000
0000
0001
0010
0000
0100
,
2000
0010
0001
0100
,
3001
0100
1001
1001
1001
0000
0110
0000
,
0011
0000
0000
0001
0100
0000
0001
0000
1000
0000
0000
0000
0100
0000
0000
0000
,
0011
0000
0000
0001
0100
0000
0001
0000
1000
0000
0000
0000
0010
0000
0000
0000
,
0110
0000
0000
0010
1000
0000
0010
0000
0100
0000
0000
0000
0001
0000
0000
0000
,
0110
0000
0000
0010
1000
0000
0010
0000
0100
0000
0000
0000
0001
0000
0000
0000
,
0011
0000
0000
0100
1000
0000
0010
0000
1000
0000
0000
0000
0100
0000
0000
0000
,
0011
0000
0000
0100
1000
0000
0010
0000
1000
0000
0000
0000
0100
0000
0000
0000
,
1010
0000
0000
0100
0001
0000
0010
0000
0001
0000
0000
0000
0100
0000
0000
0000
,
1010
0000
0000
0100
0001
0000
0010
0000
0001
0000
0000
0000
1001
0000
0000
0000
,
0010
0000
0000
0010
0000
0000
0010
0000
0000
0000
0100
0000
0001
0000
1000
0000
,
0100
0000
0000
0100
0000
0000
0010
0000
0001
0000
0000
0000
0010
0000
0000
0000
,
0110
0000
0000
1000
0000
0000
0001
0000
0000
0000
0100
0000
0010
0000
1000
0000
,
0001
0000
0000
0010
0000
0000
0001
0000
1000
0000
0000
0000
0110
0000
0000
0000
,
0001
0010
0100
0010
0000
0001
0100
0001
,
0000
0010
0100
2000
0000
0000
3010
0000
,
0000
1000
0010
0001
0000
0010
0100
0010
,
0000
0100
0010
2000
0000
0000
3001
0000
,
0000
1000
0001
0100
0000
0001
0010
0001
,
0000
1000
0100
0020
0000
0000
0031
0000
,
0000
0010
0100
1000
0000
0010
0100
0010
,
0000
1000
0100
0002
0000
0000
0103
0000
,
1000
0010
0100
0001
0000
0100
0001
0100
,
0000
0000
0010
0000
1000
0000
0010
0000
0000
0000
1000
0100
2000
0000
0000
0000
,
3100
0010
0001
0010
0000
0100
1000
0001
,
0000
1000
0100
0020
0000
0000
0031
0000
,
0100
0010
1000
0010
0000
0100
0001
0100
,
0000
0000
0001
0000
0010
0000
0001
0000
0000
0000
1000
0100
2000
0000
0000
0000
,
3010
0100
0010
1000
0000
0010
1000
0100
,
0000
0010
0100
0020
0000
0000
0031
0000
,
0001
0010
0100
0010
0000
0100
1000
0100
,
0000
0000
1000
0000
0010
0000
1000
0000
0000
0000
0001
0100
0002
0000
0000
0000
,
1003
0100
0001
0100
0000
1000
0100
0010
,
0000
0100
1000
0002
0000
0000
0103
0000
,
0010
1000
0100
1000
0000
0001
0010
0001
,
0000
0000
0100
0000
0001
0000
0100
0000
0000
0000
0010
1000
0020
0000
0000
0000
,
0130
0001
1000
0001
0000
0010
0100
0010
,
0000
0001
0100
2002
0000
0000
3003
0000
,
0000
1000
1000
0100
0100
1000
0000
0010
,
0000
0000
0100
0000
0001
0010
0002
0000
0000
0000
0000
0000
0000
0000
0003
0000
,
0000
0100
0100
0010
0010
0100
0000
0001
,
0000
0000
0010
0000
0100
1000
0200
0000
0000
0000
0000
0000
0000
0000
0300
0000
,
0000
0010
0010
0001
0001
0100
0000
0110
,
0000
0010
1000
0200
0000
0310
0001
0200
,
0000
0010
0000
0001
0301
0000
1000
0100
,
0000
1001
0000
0010
1000
0000
1000
0100
,
0010
0000
0000
0010
0000
0000
0010
0000
0000
0000
0001
0000
0100
0000
0001
0000
,
1000
0000
0000
1000
0000
0000
1000
0000
0010
0000
0000
0000
0110
0000
0000
0000
,
0101
0000
0000
0100
0000
0000
0100
0000
0000
0000
0010
0000
1000
0000
0001
0000
,
1000
0000
0000
1000
0000
0000
0001
0000
0010
0000
0000
0000
1001
0000
0000
0000
,
0100
0010
0100
0001
0000
0100
0001
1000
,
0000
0000
0010
0000
1000
0000
0001
0000
0000
0000
1000
0100
2000
0000
0000
0000
,
3100
0010
0001
0010
0000
0100
1000
0001
,
0000
1000
0100
0020
0000
0000
0031
0000
,
0100
0010
1000
0001
0000
0100
0001
1000
,
0000
0000
0001
0000
0010
0000
0100
0000
0000
0000
1000
0100
2000
0000
0000
0000
,
3010
0100
0010
1000
0000
0010
1000
0001
,
0000
0010
0100
0020
0000
0000
0031
0000
,
0001
0010
0100
1000
0000
0100
1000
0010
,
0000
0000
0100
0000
0010
0000
1000
0000
0000
0000
0001
0100
0002
0000
0000
0000
,
1003
0100
0001
0100
0000
1000
0100
0010
,
0000
0100
1000
0002
0000
0000
0103
0000
,
0010
1000
0100
0010
0000
0001
0010
0100
,
0000
0000
1000
0000
0001
0000
0100
0000
0000
0000
0010
1000
0020
0000
0000
0000
,
0130
0001
1000
0100
0000
0010
0100
1000
,
0000
0001
0100
0020
0000
0000
1030
0000
,
0100
0010
0001
1000
0000
0001
0010
0100
,
0000
0000
1000
0000
0100
0000
1000
0000
0000
0000
0100
0010
0200
0000
0000
0000
,
0310
0001
1000
0001
0000
0100
0010
1000
,
0000
0001
0010
0200
0000
0000
1300
0000
,
0010
1000
0001
0100
0000
0001
1000
0010
,
0000
1000
0100
0010
0000
0000
1001
0000
,
0010
1000
0100
1000
0000
0001
0100
0010
,
0000
1000
0100
0010
0000
0000
0011
0000
,
2001
0100
0010
0010
,
0100
0000
0000
0000
0001
0000
0000
0000
3010
0000
0100
0000
0000
0000
0000
0001
,
0010
0001
0020
0000
0000
0000
0000
0000
0001
0000
0000
0000
0000
0000
0000
0000
,
0100
0000
0000
0000
0000
0000
0000
0000
0031
0000
0000
0100
0000
0000
0010
1000
,
0020
0100
0001
0100
,
0100
0000
0000
0000
1030
0000
0000
0000
0001
0000
0000
0010
0000
0000
0100
1000
,
0200
0010
0001
0010
,
1000
0010
0001
0010
,
1300
0001
1000
0000
0010
0000
0100
0000
,
0001
0000
1000
0000
0001
0000
0010
0000
0100
0000
0000
1000
0000
0000
0000
0001
,
0100
0001
0200
0000
0000
0000
0000
0000
0000
0000
0000
0000
0000
0000
0000
0000
,
0000
0000
0000
0000
0000
0000
0000
0000
0310
0000
0000
1000
0000
0000
0100
0010
,
0002
0000
0000
0000
,
0000
0000
0000
0000
0000
0000
0000
0000
1003
0000
0000
0010
0000
0000
0100
0001
,
1000
0100
0010
0001
0100
0010
1000
0100
,
2002
0000
0000
3003
,
0010
1000
0100
0010
0100
1000
0010
0100
,
0010
0000
1000
0000
0100
0000
0010
0000
0100
0000
1000
0010
1000
0000
0000
0000
,
0001
0010
0100
0010
0001
0100
0010
0100
,
0001
0010
0100
0010
0001
0100
0010
0000
,
1000
0001
1000
0001
0010
0100
1000
0100
,
0010
0000
0001
0000
0100
0000
0010
0000
1000
0000
0010
0100
0010
0000
0000
0000
,
1000
0100
0010
0001
0100
0010
1000
0001
,
0010
0100
1000
0010
1000
0001
1001
0000
,
0000
1000
0010
1000
0010
1000
0000
0100
,
0000
0000
0010
0000
0001
1000
0001
0000
0000
0000
1001
0000
0000
0000
0110
0000
,
0000
0100
0010
0100
0010
0100
0000
0001
,
0000
0000
0010
0000
0100
1000
0100
0000
0000
0000
0011
0000
0000
0000
1100
0000
,
0000
0010
1000
0010
1000
0100
0000
0011
,
0000
0001
0100
0110
0000
1000
0100
1001
,
0000
0010
0000
1000
0100
0000
0110
0010
,
0000
0011
0000
0001
0100
0000
0110
0010
,
0000
1000
0001
0100
0000
0001
0100
0010
,
0000
1000
0100
0020
0000
0030
0000
0000
,
0000
0001
1000
0010
0000
1000
0001
0010
,
0000
0100
1000
0020
0000
0030
0000
0000
,
0000
1001
0000
0010
0000
0100
0001
0100
,
0000
0010
0000
2020
0000
3030
0000
0000
,
0000
0100
0000
0001
0000
0010
0100
0010
,
0000
0001
0000
2002
0000
3003
0000
0000
,
0000
0010
0000
1000
0000
0100
0010
0100
,
0000
1000
0000
2002
0000
3003
0000
0000
,
0000
0001
0000
0100
0000
0010
1000
0010
,
0000
0100
0000
2002
0000
3003
0000
0000
;

//---------------pump-single - ----------------
#NOTES:
     pump-single:
     :
     Challenge:
     11:
     0.664,0.777,0.222,0.003,0.733,1611.000,81.000,1.000,0.000,0.000:
00000
00000
00000
00000
,
00000
00000
00000
00000
,
10010
01000
00100
01000
01000
00100
01000
01000
,
00100
00000
01000
00000
01000
00000
00100
00000
01000
00010
00100
00000
01100
00000
00100
00000
,
01001
01000
00001
01000
01000
00001
01100
01000
,
00101
00000
01000
00000
01000
00000
00001
00000
01000
00100
00001
00000
00001
00000
00001
00000
,
00101
01000
00010
01000
01000
00010
01000
01000
,
00010
00000
01000
00000
01000
00000
00010
00000
01000
00001
00010
00000
00011
00000
00010
00000
,
11000
00010
01000
00010
00010
01000
00110
00010
,
01100
00010
00010
01000
10010
00000
00000
00000
,
00100
00000
01000
00000
10000
00000
00010
00000
01000
00000
00010
00000
01000
00010
00100
00000
,
01000
00000
10000
00000
00100
00000
01000
00010
01000
00010
00100
00000
01000
10000
00100
01000
,
00010
00000
01000
00000
00100
00000
00010
00000
00100
00000
01000
00000
00001
00100
00010
00000
,
01000
00000
00100
00000
01000
00000
01000
00010
00100
00010
01000
00000
00001
00100
00010
00100
,
00001
00000
00100
00000
00001
00000
01000
00000
00100
00000
01000
00000
00010
00100
00001
00000
,
00100
00000
00010
00000
01000
00000
00100
00010
01000
00010
00100
00000
01000
00010
00001
00010
,
10000
00000
01000
00000
00100
00000
00010
00000
01000
00000
00100
00000
01000
00010
00100
00000
,
01000
00000
00100
00000
10000
00000
00010
10000
00100
10000
00010
00000
10000
00010
00100
00010
,
10000
01000
00000
00100
00000
00010
00000
00100
,
00000
01000
00000
10000
00000
00010
00000
01000
,
00010
01000
00000
00010
00000
00100
00000
00001
,
00000
00010
00000
00100
00000
01000
00000
00001
,
01000
00100
00000
01000
00000
00001
00000
00010
,
00000
00001
00000
00100
00000
00001
00000
01000
,
00200
10000
00000
00000
,
00000
10000
00000
00000
00000
00000
00300
00000
,
00000
00000
00000
00000
,
00000
00000
01000
00000
00100
10000
00100
01000
,
00001
00100
00001
00000
01000
00010
01000
00000
00001
00000
00100
00000
00010
00000
00100
00000
,
00001
00010
00100
00000
00010
00100
01000
00100
01000
00000
00100
00000
00010
00000
00100
00000
,
01000
00010
00100
00000
00010
00100
00001
00000
01000
00000
00001
00000
00100
00000
00010
00000
,
00100
00001
00010
00000
00001
00010
00100
01000
00001
00000
00100
00000
00001
00000
01000
00000
,
00100
01000
00010
00000
00100
01000
10000
00000
00010
00000
10000
00000
01000
00000
10000
00000
,
00100
01000
00100
00000
10000
01000
10000
01000
10000
00000
00010
00000
00100
00000
00010
00000
,
01000
00100
10000
00000
01000
00100
00010
00000
01000
00000
10000
00000
00010
00000
10000
00000
,
01000
00010
00100
00000
00010
01000
00100
10000
00010
00000
01000
00000
00010
00000
00100
00000
,
00100
00010
00001
00000
00010
00100
01000
00000
00001
00000
00010
00000
00001
00000
00100
00000
,
00001
01000
00010
00000
00100
00010
01000
00100
01000
00000
00001
00000
00010
00000
00001
00000
,
01000
00001
00010
00000
00001
01000
00010
00000
01000
00000
00001
00000
00010
00000
00001
00000
,
01000
00001
00010
00000
00001
01000
00010
01000
00001
00000
01000
00000
00100
00000
01000
00000
,
00010
10000
01000
00000
10000
00010
01000
00000
00010
00000
10000
00000
01000
00000
10000
00000
,
00010
10000
01000
00000
10000
00010
01000
00010
10000
00000
01000
00000
00100
00000
01000
00000
,
10000
00100
01000
00000
00100
10000
01000
00000
10000
01000
00100
00010
01000
00100
10000
01000
,
00100
00010
01000
00100
10000
01000
00100
00010
10000
00000
10000
00000
10000
00000
00000
10000
,
00000
00000
01000
00000
01000
00000
01000
00000
00100
00000
00100
00000
00100
00000
00000
00100
,
00000
00000
00100
00000
00100
00000
00100
00000
01000
00000
01000
00000
01000
00000
00000
01000
,
00000
00000
01000
00000
01000
00000
01000
00000
00010
00000
00010
00000
00010
00000
00000
00010
,
00000
00000
00010
00000
00010
00000
00010
00000
00001
00000
00001
00000
00001
00000
00000
00001
,
00000
00000
00010
00000
00010
00000
00010
00000
00100
00000
00100
00000
00100
00000
00000
00100
,
00000
00000
00100
00000
01000
00000
01000
00000
00010
00000
00010
00000
00010
00000
00000
00010
,
00000
00000
00010
00000
00010
00000
00010
00000
10000
00000
10000
00000
10000
00000
00000
10000
,
00000
00000
10000
00000
10000
00000
10000
00000
00010
00000
00010
00000
00010
01000
00000
00010
,
00000
00000
00010
00000
00100
00010
00100
00000
00010
00000
00010
00000
00010
00001
00000
01000
,
00000
00000
00001
00000
00100
00010
00100
00000
00010
00000
00010
00000
00010
01000
00000
00010
,
00000
00000
00100
00000
00001
00100
00001
00000
00010
00000
00010
00000
00010
00000
00000
00010
,
00000
00000
00010
00000
00010
00000
00010
00000
01000
00000
01000
00000
01000
00100
00000
00001
,
00000
00000
01000
00000
10000
00100
10000
00000
00100
00000
01000
00000
00010
00100
00000
01000
,
00000
00000
00100
00000
00010
01000
00010
00000
10000
00000
10000
00000
10000
01000
00000
10000
,
00000
00000
10000
00000
10000
00000
10000
00000
00100
00000
00100
00000
00100
00000
00000
00100
,
00000
00000
00100
00000
00100
00000
00100
00000
00010
00000
10000
00010
10000
00100
00000
01000
,
00000
00000
00010
00000
01000
00100
01000
00000
00010
00000
00100
00010
01000
00001
00000
00100
,
00000
00000
00001
00000
00010
00100
01000
00000
00010
00000
00100
00010
01000
00010
00000
00100
,
00000
00000
01000
00000
00100
00001
00010
00000
00100
00000
00010
00001
01000
00001
00000
00010
,
00000
00000
00001
00000
01000
00010
00100
00001
00010
00000
00100
00010
00001
00010
00000
00001
,
00000
00000
01000
00000
00100
10000
00100
00000
01000
00000
00100
10000
00010
10000
00000
00010
,
00000
00000
01000
00000
00100
10000
00100
00000
01000
00000
00010
00100
01000
00100
00000
01000
,
00000
00000
10000
00000
00100
01000
00010
00000
00100
01000
00100
00000
00100
00000
00000
00010
,
01000
00010
01000
00000
00010
00000
00010
00000
10000
01000
10000
00100
01000
00010
00000
10000
,
00000
00000
00100
01000
00001
00010
00100
00000
00010
00001
00010
00100
01000
00010
00000
00100
,
00000
00000
00001
01000
00001
00100
00010
00000
00100
00010
01000
00100
00010
00001
00000
01000
,
00000
00000
00001
00100
00001
00010
00100
00000
00010
00001
00100
00001
00100
00010
00000
00100
,
00000
00000
00010
00100
00001
00100
00010
00000
01000
00100
00010
00100
01000
00010
00000
00100
,
00000
00000
00100
10000
01000
00100
01000
00000
10000
00100
10000
01000
10000
00100
00000
01000
,
00000
00000
00010
01000
00100
10000
00100
00000
01000
00100
10000
01000
00100
00010
00000
10000
,
00000
00000
00010
01000
00010
00100
01000
00000
00100
00000
00100
00000
00100
00000
00000
00100
,
01000
01000
01000
01000
10000
00000
00100
00000
,
00010
00000
00100
00010
01000
00000
00001
00000
,
00010
00000
00001
00000
01000
00100
01000
00000
,
00001
00000
00010
00000
00001
01000
00001
00010
,
00100
00000
01000
00000
00001
00000
00100
00010
,
10000
00000
10000
01000
10000
00010
00100
01000
,
10000
00010
01000
00010
,
10000
00000
00100
00000
10000
00000
00010
01000
,
00010
00100
01000
00100
,
00010
00000
00001
00000
01000
00000
00100
00010
,
00001
01000
00001
00010
00100
00000
00001
00000
,
00010
00100
01000
00001
,
00100
00010
01000
00100
,
00100
00010
10000
01000
,
00100
00010
10000
00100
,
01000
00000
00010
00000
10000
00000
00010
01000
,
00100
10000
00100
10000
01000
00000
10000
00000
00010
01000
00010
00000
10000
01000
10000
00000
,
00010
00100
00010
00000
01000
00100
01000
00000
00001
00010
00001
00000
00100
00010
00100
00000
,
00001
00100
00001
00000
01000
00010
01000
00000
00100
00010
00100
00000
00010
00001
00010
00000
,
00001
00100
00001
00000
01000
00010
01000
00000
00001
00010
00001
00000
00100
00010
00100
00000
,
00010
01000
00010
00000
00100
00010
00100
00000
01000
00100
01000
00000
00010
00001
00010
00000
,
10000
01000
10000
00000
00100
00010
00100
00000
00010
01000
00010
00000
00100
10000
00100
00000
,
00010
01000
00010
00000
00100
10000
00100
00000
01000
00010
01000
00000
00100
10000
00100
00000
,
01000
00010
01000
00000
00100
10000
00100
00000
00010
10000
00010
00000
00100
01000
00100
00000
,
00010
00100
00010
00000
01000
10000
01000
00000
10000
01000
00100
00000
00010
01000
00100
00000
,
01000
00001
00100
00000
00001
00100
00010
00000
01000
00001
00100
00000
00010
01000
00100
00000
,
01000
00010
00100
00000
00010
01000
00100
00000
01000
00100
00010
00000
00100
00010
00001
00000
,
01000
00001
00100
00000
00001
00100
00010
00000
00100
00010
01000
00000
00010
00100
00001
00000
,
01000
00001
00100
00000
00010
01000
00001
00000
01000
00100
00010
00000
00100
00010
00001
00000
,
00100
00010
01000
00000
00010
01000
00100
00000
10000
01000
00100
00000
01000
00100
00010
00000
,
00100
00010
01000
00000
00010
01000
00100
00000
10000
00100
01000
00000
00100
01000
00010
00000
,
01000
00010
00100
00000
00010
00100
01000
00000
00100
01000
10000
00000
01000
10000
00010
00000
,
00100
01000
00100
01000
00010
00000
10000
00000
00010
01000
00010
01000
00100
10000
00100
10000
,
00100
00010
00100
00010
00001
01000
00001
01000
00001
00100
00001
00100
00010
01000
00010
01000
,
00100
00010
00100
00010
00001
01000
00001
01000
00100
01000
00100
01000
00001
01000
00001
01000
,
00010
01000
00010
01000
00001
01000
00001
01000
00010
00100
00010
00100
00001
01000
00001
01000
,
00010
00100
00010
00100
00001
01000
00001
01000
00010
01000
00010
01000
00001
00100
00001
00100
,
00010
00100
00010
00100
01000
10000
01000
10000
00010
00100
00010
00100
01000
10000
01000
10000
,
00100
01000
00100
01000
00010
10000
00010
10000
00100
01000
00100
01000
00010
00100
00010
00100
,
01000
10000
01000
10000
00100
01000
00100
01000
00010
00100
00010
00100
00010
01000
00010
01000
,
00100
10000
00100
10000
01000
10000
01000
10000
00010
01000
00010
01000
00100
10000
00100
10000
,
00100
01000
00100
01000
00010
00100
00010
00100
00001
00100
00001
00100
00001
00010
00001
00010
,
00100
01000
00100
01000
00001
00100
00001
00100
00010
01000
00010
01000
00100
00010
00100
00010
,
00100
01000
00100
01000
00010
00100
00010
00100
00001
01000
00001
01000
00010
00100
00010
00100
,
00001
01000
00001
01000
00100
00010
00100
00010
00001
01000
00001
01000
00010
01000
00010
01000
,
01000
10000
01000
10000
00100
10000
00100
10000
00010
10000
00010
10000
00100
10000
00100
10000
,
01000
10000
01000
10000
00100
10000
00100
10000
00010
10000
00010
10000
00010
01000
00010
01000
,
00010
00100
00010
00100
00010
01000
00010
01000
00010
10000
00010
10000
00010
00000
01000
00000
,
00100
10000
00100
10000
00010
00000
01000
00000
10000
01000
00100
00010
01000
00100
01000
00010
,
00010
00100
01000
00010
00100
00010
01000
00100
00010
00001
00100
00001
01000
00010
01000
00100
,
00010
00100
01000
00001
00010
00100
00010
00001
00100
00010
01000
00100
01000
00010
00100
00010
,
00100
00001
00010
00100
00010
00100
01000
00001
01000
00010
00100
00001
00010
00100
01000
00001
,
00100
00010
01000
00100
00010
00001
00100
00010
01000
00100
00010
00001
00100
00010
01000
00001
,
01000
00010
10000
00100
10000
00010
01000
00010
01000
00100
10000
01000
10000
00010
00100
00010
,
10000
01000
10000
00010
00100
01000
00100
00010
01000
00100
01000
00010
10000
01000
00100
01000
,
10000
00100
01000
00100
10000
00010
10000
01000
00100
01000
10000
00010
10000
00010
01000
00100
,
01000
00010
00100
01000
10000
00100
10000
01000
10000
00010
01000
00100
10000
01000
10000
00100
,
01000
00001
00010
00100
00010
00001
00100
00001
01000
00001
00100
00001
00010
00100
01000
00010
,
00100
00010
01000
00100
00010
00001
01000
00100
00010
00100
00010
00001
01000
00100
00010
00100
,
00010
00100
00010
00001
00100
00010
01000
00010
00100
00001
00010
00001
00100
00001
01000
00010
,
00100
00001
00100
00010
01000
00100
00010
00100
01000
00010
00100
00010
00100
00010
01000
00001
,
00100
01000
10000
00010
10000
01000
00100
00010
10000
00010
00100
01000
10000
00010
10000
01000
,
00100
00010
01000
00100
10000
00010
10000
00100
01000
00010
10000
00010
01000
00100
10000
00010
,
10000
00100
01000
00010
01000
00100
10000
01000
00100
00010
00100
01000
10000
00100
01000
00010
,
00100
01000
10000
01000
00100
00010
01000
00100
10000
00000
00000
00000
10000
00000
00000
10000
,
00000
00000
01000
00000
00000
00000
01000
00000
01000
00000
00000
00000
01000
00000
00000
01000
,
00000
00000
01000
00000
00000
00000
01000
00000
00100
00000
00000
00000
00100
00000
00000
00100
,
00000
00000
00100
00000
00000
00000
00100
00000
00100
00000
00000
00000
00100
00000
00000
00100
,
00000
00000
00100
00000
00000
00000
00100
00000
00010
00000
00000
00000
00010
00000
00000
00010
,
00000
00000
00100
00000
00000
00000
00100
00000
00100
00000
00000
00000
00100
00000
00000
00100
,
00000
00000
00100
00000
00000
00000
00100
00000
00100
00000
00000
00000
00100
00000
00000
00100
,
00000
00000
00100
00000
00000
00000
00100
00000
00100
00000
00000
00000
00100
00000
00000
00100
,
00000
00000
00100
00000
00000
00000
00100
00000
00010
00000
00000
00000
00010
00000
00000
00010
,
00000
00000
00001
00000
00000
00000
00001
00000
00001
00000
00000
00000
00001
00000
00000
00001
,
00000
00000
00001
00000
00000
00000
00001
00000
00100
00000
00000
00000
00100
00000
00000
00100
,
00000
00000
00100
00000
00000
00000
00100
00000
00100
00000
00000
00000
00100
00000
00000
00100
,
00000
00000
00100
00000
00000
00000
00100
00000
00001
00000
00000
00000
00001
00000
00000
00001
,
00000
00000
00010
00000
00000
00000
00010
00000
00010
00000
00000
00000
00010
00000
00000
00010
,
00000
00000
00010
00000
00000
00000
00010
00000
00100
00000
00000
00000
00100
00000
00000
00100
,
00000
00000
00100
00000
00000
00000
00100
00000
00100
00000
00000
00000
00100
00000
00000
00100
,
00000
00000
00100
00000
00000
00000
00100
00000
11000
00000
00000
00000
00110
00000
00000
01010
,
00000
00000
00011
00000
00000
00000
00101
00000
01001
00000
00000
00000
01010
00000
00000
01100
,
00000
00000
01010
00000
00000
00000
00101
00000
00011
00000
00000
00000
01001
00000
00000
00011
,
00000
00000
00110
00000
00000
00000
00110
00000
01100
00000
00000
00000
00101
00000
00000
01010
,
00000
00000
01100
00000
00000
00000
01010
00000
00110
00000
00000
00000
00101
00000
00000
01010
,
00000
00000
10010
00000
00000
00000
01010
00000
10010
00000
00000
00000
11000
00000
00000
00110
,
00000
00000
01010
00000
00000
00000
10010
00000
00110
00000
00000
00000
11000
00000
00000
10010
,
00000
00000
11000
00000
00000
00000
10010
00000
11000
00000
00000
00000
10100
00000
00000
11000
,
00000
00000
11000
00000
00000
00000
11000
00000
00110
00000
00000
00000
01010
00000
00000
00110
,
00000
00000
00011
00000
00000
00000
00101
00000
00011
00000
00000
00000
00101
00000
00000
00011
,
00000
00000
00011
00000
00000
00000
00011
00000
01100
00000
00000
00000
01100
00000
00000
01010
,
00000
00000
01100
00000
00000
00000
01100
00000
01010
00000
00000
00000
01100
00000
00000
01010
,
00000
00000
01100
00000
00000
00000
01100
00000
01001
00000
00000
00000
00110
00000
00000
01001
,
00000
00000
10010
00000
00000
00000
01100
00000
10010
00000
00000
00000
01100
00000
00000
10010
,
00000
00000
10010
00000
00000
00000
10010
00000
00100
10000
01000
00100
00010
01000
00010
00100
,
01000
10000
00100
10000
01000
00100
00010
01000
00100
10000
01000
00100
00010
01000
00010
00100
,
01000
10000
00100
01000
00010
01000
00100
10000
00000
00000
00000
00000
00000
00000
00000
00000
;

//---------------pump-single - Hard Edit----------------
#NOTES:
     pump-single:
     Hard Edit:
     Edit:
     9:
     0.413,0.424,0.143,0.025,0.108,991.000,52.000,9.000,0.000,0.000:
00000
00000
00000
00000
,
00000
00000
00000
00000
,
10000
01000
00100
00000
01000
00100
00000
01000
,
00100
00000
01000
00100
00010
10000
00010
01000
,
00010
01000
00001
00000
01000
00001
00000
01000
,
00001
00000
01000
00001
00100
00001
00010
00100
,
01000
00001
00100
00000
00001
00100
00000
00001
,
00100
00000
00001
00100
00001
01000
00010
01000
,
01000
00100
00010
00000
00100
00010
00000
00100
,
00010
00100
10010
00000
,
10000
00000
01000
00000
10000
00000
00010
10000
,
00010
00000
01000
00000
00100
10000
00010
10000
,
00010
00000
00100
00000
00001
00000
00010
00100
,
01000
00000
00001
00000
00100
00001
01000
00001
,
00010
00000
00100
00000
01000
00000
00001
01000
,
00010
00000
01000
00000
00100
01000
00010
01000
,
00010
00000
00100
00000
00010
00000
01000
00100
,
01000
00000
00010
00000
00100
01000
10000
01000
,
00100
00010
00000
01000
00000
00010
00000
10000
,
00000
01000
00000
00100
00000
00010
00000
01000
,
00010
01000
00000
00010
00000
00100
00000
00010
,
00000
01000
00000
00010
00000
00100
00000
00010
,
01000
00100
00000
01000
00000
00010
00000
01000
,
00000
00100
00000
01000
00000
00010
00000
01000
,
00020
00000
00000
00000
,
00000
00000
00000
00030
,
00000
00000
00000
00000
,
00000
00000
01000
00000
00010
01000
00010
10000
,
00010
00100
01000
00000
00100
00001
00010
00100
,
01000
00100
00010
00001
01000
00010
00100
00001
,
00100
00010
00001
00000
00010
01000
00100
00010
,
00001
01000
00001
00100
00001
00010
00100
01000
,
01000
00100
10000
00000
00100
00010
01000
00100
,
10000
00010
10000
00100
01000
00010
10000
00010
,
01000
00100
00010
00000
00100
10000
01000
10000
,
00010
01000
00100
10000
00100
01000
00010
10000
,
00010
00100
01000
00000
00100
00001
00010
00001
,
00100
00010
01000
00100
01000
00001
00010
00001
,
00010
00100
00001
00000
00100
01000
00010
00100
,
00001
00100
00010
01000
00001
00100
00001
01000
,
00100
01000
10000
00000
01000
00010
00100
01000
,
00100
00010
01000
00100
10000
00010
01000
00010
,
00100
01000
00010
00000
01000
10000
00100
01000
,
00100
00000
01000
00000
00100
00000
01000
00000
00010
00000
10000
00000
00010
00000
00000
01000
,
00000
00000
00001
00000
00010
00000
00100
00000
01000
00000
00001
00000
01000
00000
00000
00100
,
00000
00000
01000
00000
00010
00000
00100
00000
00001
00000
01000
00000
00001
00000
00000
00010
,
00000
00001
00100
00010
02000
00000
00000
00000
,
03002
00000
00000
00000
00000
00000
00000
00000
00103
00000
00010
00000
00100
00000
00000
00001
,
00000
00000
01000
00000
00100
00000
10000
00000
01000
00000
00100
00000
01000
00000
00000
10000
,
00000
00000
01000
00000
00100
00000
00010
00000
01000
00000
00100
00000
01000
00000
00000
00010
,
00000
01000
00100
10000
00020
00000
00000
00000
,
00230
00000
00000
00000
00000
00000
00000
00000
00310
00000
01000
00000
00100
00000
00000
10000
,
00000
00000
00010
00000
00100
00000
00001
00000
01000
00000
00100
00000
00010
00000
00000
00100
,
00000
00000
00010
00000
00001
00000
01000
00000
00100
00000
01000
00000
00010
00000
00000
00100
,
00000
00001
01000
00100
00020
00000
00000
00000
,
00032
00000
00000
00000
00000
00000
00000
00000
00013
00000
00100
00000
00001
00000
00000
00100
,
00000
00000
10000
00000
00100
00000
01000
00000
00010
00000
10000
00000
00100
00000
00000
00010
,
00000
00000
00100
00000
10000
00000
01000
00000
00100
00000
01000
00000
10000
00000
00000
00010
,
00000
01000
00010
00100
02000
00000
00000
00000
,
03200
00000
00000
00000
00000
00000
00000
00000
00310
00000
01000
00000
00010
00000
00000
01000
,
00000
00000
00001
00000
00010
00000
00100
00000
01000
00000
00100
00000
01000
00000
00000
00100
,
00000
00000
01000
00000
00010
00000
00100
00000
00001
00000
00010
00000
00001
00000
00000
00010
,
00000
00000
00001
00000
00010
00000
00100
00000
01000
00000
00001
00000
01000
00000
00000
00100
,
00000
00000
00010
00000
00001
00000
00010
00000
00100
00000
00010
00000
00001
00000
00000
00010
,
00000
00000
01000
00000
10000
00000
00100
00000
10000
00000
01000
00000
00100
00000
00000
01000
,
00000
00000
00100
00000
00010
00000
01000
00000
00010
00000
10000
00000
00100
00000
00000
01000
,
00000
00100
10000
01000
00100
00100
00100
00000
,
00010
00000
00010
00000
00010
00000
00000
00000
01000
00000
00100
00000
10000
00000
00000
00100
,
00000
00000
00100
00000
00001
00000
01000
00000
00100
00000
00010
00000
00100
00000
00000
00010
,
00000
00000
00100
00000
01000
00000
00001
00000
00010
00000
00100
00000
01000
00000
00000
00001
,
00000
00000
01000
00000
00100
00000
00010
00000
00001
00000
00100
00000
00010
00000
00000
01000
,
00000
00000
00010
00000
00100
00000
00001
00000
01000
00000
00100
00000
00010
00000
00000
01000
,
00000
00000
00100
00000
01000
00000
10000
00000
00010
00000
01000
00000
00100
00000
00000
00010
,
00000
00000
00100
00000
01000
00000
00010
00000
10000
00000
00010
00000
10000
00000
00000
01000
,
00000
00000
10000
00000
00010
00000
10000
00000
00100
00000
00100
00000
00100
00000
00000
10000
,
01000
01000
01000
01000
10000
00000
00100
00000
,
00010
00000
01000
00010
00100
00000
00001
00000
,
00010
00000
00100
00000
01000
00001
00100
00000
,
00001
00000
01000
00000
00001
01000
00100
00010
,
00001
00000
00100
00000
00001
00000
01000
00100
,
00100
00000
00010
01000
00100
10000
00100
01000
,
00010
10000
01000
10000
,
00010
00000
00100
00000
00010
00000
10000
01000
,
10000
00100
01000
00010
,
00001
00000
00100
00000
00010
00000
01000
00001
,
00010
00100
00010
00001
01000
00000
00001
00000
,
00010
00001
00010
00100
,
01000
00100
01000
00100
,
00100
00010
10000
01000
,
00100
00010
10000
00100
,
01000
00000
00010
00000
10000
00000
00010
01000
,
00100
10000
00100
10000
00100
00000
01000
00000
00010
00000
00000
00000
00010
00000
00000
00000
,
00011
00000
00000
00001
00100
00000
00100
00000
,
00110
00000
01000
01000
,
01010
00000
00000
01000
00100
00000
00100
00000
,
00110
00000
00010
00001
,
10010
00000
00000
00010
01000
00000
00100
00000
,
10100
00000
10000
00100
,
01010
00000
00000
00010
00100
00000
01000
00000
,
00110
00000
00000
00000
00010
00000
01000
00000
00100
00000
00000
00100
10000
00000
00000
10000
,
00100
00000
00000
00100
00010
00000
00000
00010
00001
00000
00000
00001
00100
00000
00000
00100
,
00010
00000
00000
00010
00100
00000
00000
00100
00001
00000
00000
00001
00010
00000
00000
00010
,
00100
00000
00000
00100
01000
00000
00000
01000
00010
00000
00000
00010
00100
00000
00000
00100
,
00010
00000
00000
00010
01000
00000
00000
01000
00100
00000
00000
00000
01100
00000
00000
00000
,
01100
00000
00000
00000
00110
00000
00000
00010
01000
00000
00000
00000
01010
00000
00000
00000
,
01100
00000
00000
00000
10100
00000
00000
10000
01000
00000
00000
00000
11000
00000
00000
00000
,
01010
00110
10100
00110
,
00010
10000
00010
10000
00010
00000
00000
00000
01000
00000
00000
00000
10100
00000
10000
00000
,
00000
01000
01010
00000
00100
00000
00011
00001
,
00000
00001
00011
00000
01000
00000
00110
00100
,
00000
00100
00110
00000
00001
00000
00011
00010
,
00000
00010
00011
00000
01000
00000
01010
00100
,
00000
01000
10010
00000
00100
00000
01100
10000
,
00000
00010
11000
00000
00100
00000
01010
10000
,
00000
00100
01010
00000
00100
00000
11000
00010
,
00000
00010
10100
00000
00010
01000
00100
10000
,
00000
01000
01100
00000
00010
00001
00100
00001
,
00000
00010
00110
00000
01000
00001
00010
00100
,
00000
01000
01001
00000
00001
00010
00100
00010
,
00000
00001
00101
00000
00001
01000
00100
01000
,
00000
00100
01100
00000
00100
10000
01000
10000
,
00000
01000
01100
00000
00100
00010
10000
01000
,
00000
00100
10010
00000
00010
10000
00100
01000
,
00000
00010
01100
00000
00100
10000
01000
10000
,
00010
00100
00001
00010
00100
00010
00001
01000
,
00100
00010
00001
00010
00001
00100
00010
01000
,
00100
00010
00100
01000
00010
00100
00001
00100
,
00010
00100
00001
00010
00100
01000
00010
01000
,
00010
10000
00100
10000
00010
00100
00010
01000
,
00010
10000
00010
01000
00100
10000
01000
00100
,
01000
10000
00100
01000
00010
00100
01000
00100
,
00010
01000
00100
10000
00010
01000
00100
10000
,
00001
00100
00010
01000
00001
00010
00100
01000
,
00001
00010
00100
01000
00001
00100
00010
01000
,
00100
01000
00010
00100
00001
00010
00001
00100
,
00010
00100
00010
01000
00001
00010
00100
00010
,
00010
01000
00100
10000
00010
10000
00100
01000
,
00100
10000
00010
01000
00100
01000
00010
10000
,
00010
01000
00100
10000
01000
10000
00010
10000
,
01000
00000
00100
00000
00010
00000
00100
00000
01000
00000
00000
00000
10000
00000
00000
00010
,
00000
00000
01000
00000
00000
00000
00001
00000
00100
00000
00000
00000
00010
00000
00000
01000
,
00000
00000
00010
00000
00000
00000
00100
00000
00001
00000
00000
00000
01000
00000
00000
00100
,
00000
00000
00010
00000
00000
00000
00100
00000
01000
00000
00000
00000
00010
00000
00000
00100
,
00000
00000
00001
00000
00000
00000
00100
00000
00001
00000
00000
00000
00100
00000
00000
00010
,
00000
00000
10000
00000
00000
00000
00100
00000
01000
00000
00000
00000
00100
00000
00000
10000
,
00000
00000
00100
00000
00000
00000
01000
00000
00010
00000
00000
00000
00100
00000
00000
01000
,
00000
00000
10000
00000
00000
00000
00010
00000
10000
00000
00000
00000
00100
00000
00000
10000
,
00000
00000
00010
00000
00000
00000
00010
00000
00100
00000
00000
00000
01000
00000
00000
10000
,
00000
00000
00010
00000
00000
00000
01000
00000
00010
00000
00000
00000
00100
00000
00000
00001
,
00000
00000
00010
00000
00000
00000
00001
00000
00100
00000
00000
00000
00010
00000
00000
01000
,
00000
00000
00010
00000
00000
00000
01000
00000
00100
00000
00000
00000
00010
00000
00000
00001
,
00000
00000
00010
00000
00000
00000
00100
00000
00001
00000
00000
00000
00100
00000
00000
01000
,
00000
00000
00100
00000
00000
00000
01000
00000
10000
00000
00000
00000
01000
00000
00000
00010
,
00000
00000
00100
00000
00000
00000
00010
00000
10000
00000
00000
00000
01000
00000
00000
10000
,
00000
00000
00010
00000
00000
00000
00100
00000
00010
00000
00000
00000
01000
00000
00000
00100
,
00000
00000
10000
00000
00000
00000
10000
00000
10010
00000
00000
00000
01000
00000
00000
00100
,
00000
00000
00001
00000
00000
00000
00001
00000
00010
00000
00000
00000
00100
00000
00000
01000
,
00000
00000
00001
00000
00000
00000
00001
00000
00110
00000
00000
00000
01000
00000
00000
00001
,
00000
00000
00100
00000
00000
00000
00100
00000
00001
00000
00000
00000
01000
00000
00000
00100
,
00000
00000
00010
00000
00000
00000
00100
00000
00011
00000
00000
00000
00001
00000
00000
01000
,
00000
00000
00100
00000
00000
00000
10000
00000
00010
00000
00000
00000
01000
00000
00000
00010
,
00000
00000
10000
00000
00000
00000
10000
00000
00110
00000
00000
00000
00100
00000
00000
00010
,
00000
00000
00100
00000
00000
00000
00010
00000
01000
00000
00000
00000
00010
00000
00000
10000
,
00000
00000
01000
00000
00000
00000
10000
00000
01010
00000
00000
00000
00100
00000
00000
01000
,
00000
00000
00001
00000
00000
00000
00001
00000
01000
00000
00000
00000
00100
00000
00000
01000
,
00000
00000
00001
00000
00000
00000
00010
00000
01100
00000
00000
00000
00100
00000
00000
00010
,
00000
00000
01000
00000
00000
00000
00010
00000
00001
00000
00000
00000
00100
00000
00000
00010
,
00000
00000
00100
00000
00000
00000
00010
00000
01010
00000
00000
00000
01000
00000
00000
00100
,
00000
00000
00010
00000
00000
00000
01000
00000
00010
00000
00000
00000
01000
00000
00000
10000
,
00000
00100
00000
00100
01100
01000
00100
10000
,
01000
00100
00010
01000
00100
10000
00100
01000
,
00010
00100
01000
10000
00000
00000
00000
00000
;

//---------------pump-single - ----------------
#NOTES:
     pump-single:
     :
     Edit:
     1:
     0.413,0.424,0.143,0.025,0.108,991.000,52.000,9.000,0.000,0.000:
00000
00000
00000
00000
,
00000
00000
00000
00000
,
10000
01000
00100
00000
01000
00100
00000
01000
,
00100
00000
01000
00100
00010
10000
00010
01000
,
00010
01000
00001
00000
01000
00001
00000
01000
,
00001
00000
01000
00001
00100
00001
00010
00100
,
01000
00001
00100
00000
00001
00100
00000
00001
,
00100
00000
00001
00100
00001
01000
00010
01000
,
01000
00100
00010
00000
00100
00010
00000
00100
,
00010
00100
10010
00000
,
10000
00000
01000
00000
10000
00000
00010
10000
,
00010
00000
01000
00000
00100
10000
00010
10000
,
00010
00000
00100
00000
00001
00000
00010
00100
,
01000
00000
00001
00000
00100
00001
01000
00001
,
00010
00000
00100
00000
01000
00000
00001
01000
,
00010
00000
01000
00000
00100
01000
00010
01000
,
00010
00000
00100
00000
00010
00000
01000
00100
,
01000
00000
00010
00000
00100
01000
10000
01000
,
00100
00010
00000
01000
00000
00010
00000
10000
,
00000
01000
00000
00100
00000
00010
00000
01000
,
00010
01000
00000
00010
00000
00100
00000
00010
,
00000
01000
00000
00010
00000
00100
00000
00010
,
01000
00100
00000
01000
00000
00010
00000
01000
,
00000
00100
00000
01000
00000
00010
00000
01000
,
00020
00000
00000
00000
,
00000
00000
00000
00030
,
00000
00000
00000
00000
,
00000
00000
01000
00000
00010
01000
00010
10000
,
00010
00100
01000
00000
00100
00001
00010
00100
,
01000
00100
00010
00001
01000
00010
00100
00001
,
00100
00010
00001
00000
00010
01000
00100
00010
,
00001
01000
00001
00100
00001
00010
00100
01000
,
01000
00100
10000
00000
00100
00010
01000
00100
,
10000
00010
10000
00100
01000
00010
10000
00010
,
01000
00100
00010
00000
00100
10000
01000
10000
,
00010
01000
00100
10000
00100
01000
00010
10000
,
00010
00100
01000
00000
00100
00001
00010
00001
,
00100
00010
01000
00100
01000
00001
00010
00001
,
00010
00100
00001
00000
00100
01000
00010
00100
,
00001
00100
00010
01000
00001
00100
00001
01000
,
00100
01000
10000
00000
01000
00010
00100
01000
,
00100
00010
01000
00100
10000
00010
01000
00010
,
00100
01000
00010
00000
01000
10000
00100
01000
,
00100
00000
01000
00000
00100
00000
01000
00000
00010
00000
10000
00000
00010
00000
00000
01000
,
00000
00000
00001
00000
00010
00000
00100
00000
01000
00000
00001
00000
01000
00000
00000
00100
,
00000
00000
01000
00000
00010
00000
00100
00000
00001
00000
01000
00000
00001
00000
00000
00010
,
00000
00001
00100
00010
02000
00000
00000
00000
,
03002
00000
00000
00000
00000
00000
00000
00000
00103
00000
00010
00000
00100
00000
00000
00001
,
00000
00000
01000
00000
00100
00000
10000
00000
01000
00000
00100
00000
01000
00000
00000
10000
,
00000
00000
01000
00000
00100
00000
00010
00000
01000
00000
00100
00000
01000
00000
00000
00010
,
00000
01000
00100
10000
00020
00000
00000
00000
,
00230
00000
00000
00000
00000
00000
00000
00000
00310
00000
01000
00000
00100
00000
00000
10000
,
00000
00000
00010
00000
00100
00000
00001
00000
01000
00000
00100
00000
00010
00000
00000
00100
,
00000
00000
00010
00000
00001
00000
01000
00000
00100
00000
01000
00000
00010
00000
00000
00100
,
00000
00001
01000
00100
00020
00000
00000
00000
,
00032
00000
00000
00000
00000
00000
00000
00000
00013
00000
00100
00000
00001
00000
00000
00100
,
00000
00000
10000
00000
00100
00000
01000
00000
00010
00000
10000
00000
00100
00000
00000
00010
,
00000
00000
00100
00000
10000
00000
01000
00000
00100
00000
01000
00000
10000
00000
00000
00010
,
00000
01000
00010
00100
02000
00000
00000
00000
,
03200
00000
00000
00000
00000
00000
00000
00000
00310
00000
01000
00000
00010
00000
00000
01000
,
00000
00000
00001
00000
00010
00000
00100
00000
01000
00000
00100
00000
01000
00000
00000
00100
,
00000
00000
01000
00000
00010
00000
00100
00000
00001
00000
00010
00000
00001
00000
00000
00010
,
00000
00000
00001
00000
00010
00000
00100
00000
01000
00000
00001
00000
01000
00000
00000
00100
,
00000
00000
00010
00000
00001
00000
00010
00000
00100
00000
00010
00000
00001
00000
00000
00010
,
00000
00000
01000
00000
10000
00000
00100
00000
10000
00000
01000
00000
00100
00000
00000
01000
,
00000
00000
00100
00000
00010
00000
01000
00000
00010
00000
10000
00000
00100
00000
00000
01000
,
00000
00100
10000
01000
00100
00100
00100
00000
,
00010
00000
00010
00000
00010
00000
00000
00000
01000
00000
00100
00000
10000
00000
00000
00100
,
00000
00000
00100
00000
00001
00000
01000
00000
00100
00000
00010
00000
00100
00000
00000
00010
,
00000
00000
00100
00000
01000
00000
00001
00000
00010
00000
00100
00000
01000
00000
00000
00001
,
00000
00000
01000
00000
00100
00000
00010
00000
00001
00000
00100
00000
00010
00000
00000
01000
,
00000
00000
00010
00000
00100
00000
00001
00000
01000
00000
00100
00000
00010
00000
00000
01000
,
00000
00000
00100
00000
01000
00000
10000
00000
00010
00000
01000
00000
00100
00000
00000
00010
,
00000
00000
00100
00000
01000
00000
00010
00000
10000
00000
00010
00000
10000
00000
00000
01000
,
00000
00000
10000
00000
00010
00000
10000
00000
00100
00000
00100
00000
00100
00000
00000
10000
,
01000
01000
01000
01000
10000
00000
00100
00000
,
00010
00000
01000
00010
00100
00000
00001
00000
,
00010
00000
00100
00000
01000
00001
00100
00000
,
00001
00000
01000
00000
00001
01000
00100
00010
,
00001
00000
00100
00000
00001
00000
01000
00100
,
00100
00000
00010
01000
00100
10000
00100
01000
,
00010
10000
01000
10000
,
00010
00000
00100
00000
00010
00000
10000
01000
,
10000
00100
01000
00010
,
00001
00000
00100
00000
00010
00000
01000
00001
,
00010
00100
00010
00001
01000
00000
00001
00000
,
00010
00001
00010
00100
,
01000
00100
01000
00100
,
00100
00010
10000
01000
,
00100
00010
10000
00100
,
01000
00000
00010
00000
10000
00000
00010
01000
,
00100
10000
00100
10000
00100
00000
01000
00000
00010
00000
00000
00000
00010
00000
00000
00000
,
00011
00000
00000
00001
00100
00000
00100
00000
,
00110
00000
01000
01000
,
01010
00000
00000
01000
00100
00000
00100
00000
,
00110
00000
00010
00001
,
10010
00000
00000
00010
01000
00000
00100
00000
,
10100
00000
10000
00100
,
01010
00000
00000
00010
00100
00000
01000
00000
,
00110
00000
00000
00000
00010
00000
01000
00000
00100
00000
00000
00100
10000
00000
00000
10000
,
00100
00000
00000
00100
00010
00000
00000
00010
00001
00000
00000
00001
00100
00000
00000
00100
,
00010
00000
00000
00010
00100
00000
00000
00100
00001
00000
00000
00001
00010
00000
00000
00010
,
00100
00000
00000
00100
01000
00000
00000
01000
00010
00000
00000
00010
00100
00000
00000
00100
,
00010
00000
00000
00010
01000
00000
00000
01000
00100
00000
00000
00000
01100
00000
00000
00000
,
01100
00000
00000
00000
00110
00000
00000
00010
01000
00000
00000
00000
01010
00000
00000
00000
,
01100
00000
00000
00000
10100
00000
00000
10000
01000
00000
00000
00000
11000
00000
00000
00000
,
01010
00110
10100
00110
,
00010
10000
00010
10000
00010
00000
00000
00000
01000
00000
00000
00000
10100
00000
10000
00000
,
00000
01000
01010
00000
00100
00000
00011
00001
,
00000
00001
00011
00000
01000
00000
00110
00100
,
00000
00100
00110
00000
00001
00000
00011
00010
,
00000
00010
00011
00000
01000
00000
01010
00100
,
00000
01000
10010
00000
00100
00000
01100
10000
,
00000
00010
11000
00000
00100
00000
01010
10000
,
00000
00100
01010
00000
00100
00000
11000
00010
,
00000
00010
10100
00000
00010
01000
00100
10000
,
00000
01000
01100
00000
00010
00001
00100
00001
,
00000
00010
00110
00000
01000
00001
00010
00100
,
00000
01000
01001
00000
00001
00010
00100
00010
,
00000
00001
00101
00000
00001
01000
00100
01000
,
00000
00100
01100
00000
00100
10000
01000
10000
,
00000
01000
01100
00000
00100
00010
10000
01000
,
00000
00100
10010
00000
00010
10000
00100
01000
,
00000
00010
01100
00000
00100
10000
01000
10000
,
00010
00100
00001
00010
00100
00010
00001
01000
,
00100
00010
00001
00010
00001
00100
00010
01000
,
00100
00010
00100
01000
00010
00100
00001
00100
,
00010
00100
00001
00010
00100
01000
00010
01000
,
00010
10000
00100
10000
00010
00100
00010
01000
,
00010
10000
00010
01000
00100
10000
01000
00100
,
01000
10000
00100
01000
00010
00100
01000
00100
,
00010
01000
00100
10000
00010
01000
00100
10000
,
00001
00100
00010
01000
00001
00010
00100
01000
,
00001
00010
00100
01000
00001
00100
00010
01000
,
00100
01000
00010
00100
00001
00010
00001
00100
,
00010
00100
00010
01000
00001
00010
00100
00010
,
00010
01000
00100
10000
00010
10000
00100
01000
,
00100
10000
00010
01000
00100
01000
00010
10000
,
00010
01000
00100
10000
01000
10000
00010
10000
,
01000
00000
00100
00000
00010
00000
00100
00000
01000
00000
00000
00000
10000
00000
00000
00010
,
00000
00000
01000
00000
00000
00000
00001
00000
00100
00000
00000
00000
00010
00000
00000
01000
,
00000
00000
00010
00000
00000
00000
00100
00000
00001
00000
00000
00000
01000
00000
00000
00100
,
00000
00000
00010
00000
00000
00000
00100
00000
01000
00000
00000
00000
00010
00000
00000
00100
,
00000
00000
00001
00000
00000
00000
00100
00000
00001
00000
00000
00000
00100
00000
00000
00010
,
00000
00000
10000
00000
00000
00000
00100
00000
01000
00000
00000
00000
00100
00000
00000
10000
,
00000
00000
00100
00000
00000
00000
01000
00000
00010
00000
00000
00000
00100
00000
00000
01000
,
00000
00000
10000
00000
00000
00000
00010
00000
10000
00000
00000
00000
00100
00000
00000
10000
,
00000
00000
00010
00000
00000
00000
00010
00000
00100
00000
00000
00000
01000
00000
00000
10000
,
00000
00000
00010
00000
00000
00000
01000
00000
00010
00000
00000
00000
00100
00000
00000
00001
,
00000
00000
00010
00000
00000
00000
00001
00000
00100
00000
00000
00000
00010
00000
00000
01000
,
00000
00000
00010
00000
00000
00000
01000
00000
00100
00000
00000
00000
00010
00000
00000
00001
,
00000
00000
00010
00000
00000
00000
00100
00000
00001
00000
00000
00000
00100
00000
00000
01000
,
00000
00000
00100
00000
00000
00000
01000
00000
10000
00000
00000
00000
01000
00000
00000
00010
,
00000
00000
00100
00000
00000
00000
00010
00000
10000
00000
00000
00000
01000
00000
00000
10000
,
00000
00000
00010
00000
00000
00000
00100
00000
00010
00000
00000
00000
01000
00000
00000
00100
,
00000
00000
10000
00000
00000
00000
10000
00000
10010
00000
00000
00000
01000
00000
00000
00100
,
00000
00000
00001
00000
00000
00000
00001
00000
00010
00000
00000
00000
00100
00000
00000
01000
,
00000
00000
00001
00000
00000
00000
00001
00000
00110
00000
00000
00000
01000
00000
00000
00001
,
00000
00000
00100
00000
00000
00000
00100
00000
00001
00000
00000
00000
01000
00000
00000
00100
,
00000
00000
00010
00000
00000
00000
00100
00000
00011
00000
00000
00000
00001
00000
00000
01000
,
00000
00000
00100
00000
00000
00000
10000
00000
00010
00000
00000
00000
01000
00000
00000
00010
,
00000
00000
10000
00000
00000
00000
10000
00000
00110
00000
00000
00000
00100
00000
00000
00010
,
00000
00000
00100
00000
00000
00000
00010
00000
01000
00000
00000
00000
00010
00000
00000
10000
,
00000
00000
01000
00000
00000
00000
10000
00000
01010
00000
00000
00000
00100
00000
00000
01000
,
00000
00000
00001
00000
00000
00000
00001
00000
01000
00000
00000
00000
00100
00000
00000
01000
,
00000
00000
00001
00000
00000
00000
00010
00000
01100
00000
00000
00000
00100
00000
00000
00010
,
00000
00000
01000
00000
00000
00000
00010
00000
00001
00000
00000
00000
00100
00000
00000
00010
,
00000
00000
00100
00000
00000
00000
00010
00000
01010
00000
00000
00000
01000
00000
00000
00100
,
00000
00000
00010
00000
00000
00000
01000
00000
00010
00000
00000
00000
01000
00000
00000
10000
,
00000
00100
00000
00100
01100
01000
00100
10000
,
01000
00100
00010
01000
00100
10000
00100
01000
,
00010
00100
01000
10000
00000
00000
00000
00000
;

//---------------pump-single - ----------------
#NOTES:
     pump-single:
     :
     Hard:
     1:
     0.133,0.157,0.091,0.005,0.030,303.000,33.000,2.000,0.000,1.000:
00000
00000
00000
00000
,
00000
00000
00000
00000
,
01010
00100
00001
00100
00010
00100
00001
00100
,
00010
00000
00100
00000
00001
00000
00100
00000
00010
00100
00010
00000
01000
00000
01000
00000
,
00110
01000
00010
00100
00001
01000
00010
00100
,
00001
00000
01000
00000
00010
00000
00100
00000
00001
10000
00001
00000
00100
00000
00100
00000
,
00110
01000
00100
01000
00100
10000
00001
10000
,
00001
00000
01000
00000
00010
00000
01000
00000
00010
00100
00010
00000
01000
00000
00010
00000
,
00110
01000
00010
00100
00001
01000
00010
00100
,
00001
01000
00010
00100
10001
00000
00000
00000
,
01000
01100
00110
00010
,
01010
00000
00000
00000
00110
00000
00000
00000
00010
01000
00010
01000
00010
00000
00100
00000
,
00001
10000
10001
00100
,
01100
00000
00000
00000
00101
00000
00000
00000
00001
00100
00001
00100
00001
00000
01000
00000
,
00100
10000
10001
00100
,
00110
00000
00000
00000
01100
00000
00000
00000
01000
00001
01000
00001
01000
00000
00010
00000
,
00100
01100
10100
00100
,
01010
00000
00000
00000
00110
00000
00000
00000
00010
10000
00010
10000
00010
00000
00100
00000
,
00010
01010
00000
00100
00000
01100
00000
00010
,
00000
01100
00000
00001
00000
00011
00000
00001
,
10000
00100
00000
01000
00000
01010
00000
00010
,
00000
00110
00000
00100
00000
00101
00000
00001
,
00100
00010
00000
01000
00000
10010
00000
00100
,
00000
01001
00000
00100
00000
10010
00000
00100
,
01001
10000
00010
00000
00000
00100
00000
00000
,
00000
01010
00000
00000
00000
00000
01110
00000
,
00000
00000
00000
00000
,
00000
00000
01000
00000
00010
00100
00001
00100
,
00010
01000
00001
01000
00001
01000
00010
00100
,
00001
01000
00010
00100
00010
01000
00100
10000
,
00001
01000
00010
00100
00001
00100
00010
01000
,
00001
10000
00100
01000
00010
00100
00010
01000
,
00100
10000
00010
00100
00010
00100
00010
01000
,
00001
00100
00010
01000
00100
00010
00100
01000
,
00001
00100
00010
00100
00001
01000
00010
00100
,
00001
10000
00010
10000
00100
01000
00010
00100
,
00001
01000
00001
00100
00010
01000
00100
10000
,
00001
01000
00010
00100
00010
01000
00001
00100
,
00010
01000
00100
01000
00010
00100
00010
01000
,
00100
10000
00001
01000
00010
10000
00001
01000
,
00010
00100
00010
01000
00100
01000
00001
00100
,
00010
00100
00001
01000
00100
10000
00100
01000
,
00010
00000
00100
00000
00001
00000
01000
00000
00010
01000
00010
01000
00010
01000
00010
01000
,
00010
01000
00010
01000
00010
01000
00010
01000
00100
00000
01000
00000
00100
00000
00000
10000
,
00000
00000
00010
00000
00100
00000
00010
00000
01000
00000
00010
00000
01000
00000
00000
00100
,
00000
00000
10000
00000
00100
00000
10000
00000
00001
00000
10000
00000
00001
00000
00000
00100
,
00000
00010
02020
00000
,
00000
03030
10000
00000
;

//---------------dance-single - ----------------
#NOTES:
     dance-single:
     :
     Challenge:
     10:
     0.604,0.720,0.483,0.209,0.184,1287.000,176.000,76.000,0.000,0.000:
0000
0000
0000
0000
,
0000
0000
0000
0000
,
0000
0000
0000
0000
,
0000
0000
0000
0000
,
1000
0000
0001
0000
0010
0100
0000
1000
,
0100
1000
0001
0000
2002
0000
0000
0000
,
0000
0000
0000
0000
,
0000
0000
3003
0000
,
1000
0000
0010
0000
1000
0001
0000
1000
,
0100
0010
0001
0000
2002
0000
0000
0000
,
0000
0000
0000
0000
,
0000
0000
0000
3003
,
0010
0000
0100
0000
0010
1000
0000
0001
,
0100
0010
0100
0000
2002
0000
0000
0000
,
0000
0000
0000
0000
,
0000
0000
0000
3003
,
0020
0100
1030
1001
,
0200
0000
0001
0000
0310
2002
3003
0000
,
0020
0001
0130
1100
,
2000
0010
3200
0000
,
0320
0001
0130
1100
,
2000
0000
0001
0000
3100
0010
0000
0000
,
0002
0010
0103
0110
,
0020
1000
0130
0101
,
1000
0010
0000
0000
0100
0001
0000
0000
1000
0000
0010
0000
0000
0000
0100
0000
,
0001
0010
0100
1000
0100
0010
0000
0000
,
0001
0010
0000
0000
0100
1000
0000
0000
0001
0000
1000
0000
0000
0000
0010
0000
,
0100
0001
1000
0001
0010
0100
0000
0000
,
1000
0001
0000
0000
1000
0001
0000
0000
0100
0000
0010
0000
0000
0000
1000
0000
,
0001
0100
0000
0000
0001
0100
0000
0000
0010
0000
1000
0000
0000
0000
0100
0000
,
0010
0001
0000
0000
0010
0001
0000
0000
0100
0010
0000
0000
0100
0010
0000
0000
,
1000
0100
1000
0100
1000
0100
1000
0100
0010
0001
0010
0001
0010
0001
0010
0001
,
0010
0100
1000
0000
0100
1000
0001
0000
0100
0000
0110
0000
0000
0000
0010
0000
,
2010
0001
0001
3001
0011
0022
0000
0033
,
0100
1000
0001
0000
1000
0010
0100
0000
0001
0000
1001
0000
0000
0000
0010
0000
,
0012
0100
0100
0103
0110
0220
0000
0330
,
1000
0001
0100
0000
0001
0010
0100
0000
1000
0000
1001
0000
0000
0000
0100
0000
,
0120
1000
1000
1030
1001
0022
0000
0033
,
0100
1000
0010
0000
0100
0001
1000
0000
0010
0000
0110
0000
0000
0000
0100
0000
,
0201
0010
0010
0310
1010
2002
0000
3003
,
0110
0100
0001
1001
1000
0100
0110
0000
,
0011
0010
0100
1100
1000
0001
0011
0000
,
1010
0010
0100
0101
0001
1000
1100
0110
,
0000
2002
0000
0000
0000
3003
0000
0000
,
0001
0000
0010
0000
0100
0000
0000
0000
1000
0000
0100
0000
0010
0001
0000
0000
,
1000
0010
0100
0000
0110
0110
0000
0000
,
0100
0000
0001
0000
0010
0000
0000
0000
0100
0000
0010
0000
0001
0100
0000
0000
,
0010
1000
0010
0000
0101
0101
0000
0000
,
1000
0000
0001
0000
0010
0000
0000
0000
0100
0000
0010
0000
0001
0100
0000
0000
,
0001
0000
1000
0000
0010
0000
1000
0000
0001
0100
0010
0000
1000
0000
0001
0000
,
2002
0000
0000
3003
0110
2002
0000
3003
,
0000
0000
0000
0000
0011
2200
0000
3300
,
0010
0000
0000
0001
0000
0000
0100
0000
0000
0000
0010
0000
0000
0000
1000
0000
,
0010
0000
0100
0001
0000
0000
1000
0000
1010
0000
1010
0000
0000
0000
0001
0000
,
0010
0000
0000
0100
0000
0000
1100
0000
0000
0000
1100
0000
0000
0000
0010
0000
,
0001
0000
0000
0100
0000
0000
1010
0000
0000
0000
1010
0000
0000
0000
0100
0000
,
0001
0000
0000
0010
0000
0000
0100
0000
0000
0000
1100
0000
0000
0000
1000
0000
,
0010
0000
0100
0001
0000
0000
1000
0000
1001
0000
1001
0000
0000
0000
0100
0000
,
0010
0000
0000
0001
0000
0000
1001
0000
0000
0000
1100
0000
0000
0000
1000
0000
,
0100
0000
0000
0010
0000
0000
0011
0000
0000
0000
1100
0000
0000
0000
0010
0000
,
1000
0000
0000
0001
0000
0000
1001
0000
0000
0000
0110
0000
0000
0000
0010
0000
,
1000
0000
0001
1000
0000
0000
0010
0000
0110
0000
0110
0000
0000
0000
0100
0000
,
0001
0000
0000
1001
0000
0000
1100
0000
0000
0000
0110
0000
0000
0000
0010
0000
,
0001
0000
0000
0101
0000
0000
0110
0000
0000
0000
1010
0000
0000
0000
1000
0000
,
0100
0000
0000
0010
0100
0000
0100
0000
0010
0000
0001
0000
0010
0000
0000
0000
,
0001
0000
0000
0100
0010
0000
1000
0000
0010
0000
0000
0000
0100
0000
0001
0000
,
0010
0000
0000
0100
2000
0000
0000
0000
0010
0000
0010
0000
0010
0000
3010
0000
,
0100
0000
0000
0001
0100
0010
0200
0000
0000
0000
0010
0000
0310
0000
0010
0000
,
1001
0000
0000
0010
1000
0000
0100
0000
0010
0000
0100
0000
1000
0000
0010
0000
,
0110
0000
0000
1000
0001
0000
0010
0000
0100
0000
0010
0000
0001
0000
0100
0000
,
0101
0000
0000
0010
1000
0000
0001
0000
1000
0000
0100
0000
0010
0000
0001
0000
,
0011
0000
0000
1000
0010
0000
0100
0000
0001
0000
0100
0000
0010
0000
1000
0000
,
1001
0000
0000
0100
0010
0000
1000
0000
0010
0000
0100
0000
0100
0000
0001
0000
,
0101
0000
0000
1000
0001
0000
0100
0000
0010
0000
1000
0000
1000
0000
0100
0000
,
0110
0000
0000
0001
0010
0000
0100
0000
1000
0000
0100
0000
0100
0000
0010
0000
,
0110
0000
0000
1000
0001
0000
0010
0000
0001
0000
1000
0000
1000
0000
0001
0000
,
1001
0000
0000
1000
0100
0000
0010
0000
0001
0000
0010
0000
1000
0000
0010
0000
,
0011
0000
0000
0001
0100
0000
0010
0000
0001
0000
0010
0000
0100
0000
0001
0000
,
1001
0000
0000
1000
0100
0000
0010
0000
0001
0000
0100
0000
1000
0000
0100
0000
,
0110
0000
0000
0010
1000
0000
0001
0000
0010
0000
1000
0000
0010
0000
0001
0000
,
1001
0000
0000
0001
0010
0000
0100
0000
0010
0000
1000
0000
0010
0000
0100
0000
,
1100
0000
0000
1000
0001
0000
0100
0000
0010
0000
0001
0000
0010
0000
0100
0000
,
0101
0000
0000
0001
1000
0000
0010
0000
1000
0000
0100
0000
0001
0000
0100
0000
,
0110
0000
0000
0010
0001
0000
1000
0000
0001
0000
1000
0000
0100
0000
1000
0000
,
1001
0000
0000
0010
1000
0000
0100
0000
0010
0001
0010
0000
0100
0000
1000
0000
,
0010
0000
0000
0100
0001
0000
1000
0000
0100
0010
0100
0000
0010
0000
0001
0000
,
0100
0000
0000
0010
1000
0000
0001
0000
0010
0100
1000
0000
1000
0000
0010
0000
,
0100
0000
0000
0001
0100
0000
0010
0000
1000
0100
0010
0000
0010
0000
0001
0000
,
0010
0000
0000
0100
1000
0000
0010
0000
0100
0001
0100
0000
0010
0000
1000
0000
,
0100
0000
0000
0010
0100
0000
0010
0000
0001
1000
0001
0000
0100
0000
0001
0000
,
1000
0000
0000
0100
0010
0000
0011
0000
0000
0001
1000
0000
0010
0000
0100
0000
,
0101
0000
0000
0010
1000
0000
1100
0000
0000
0100
0010
0000
0001
0100
0000
0010
,
1000
0000
0100
0000
0010
0000
0100
1000
0001
0000
0010
0000
0000
0000
0001
0000
,
0100
1001
1001
1001
1001
0000
0110
0000
,
0010
0000
0000
1000
0001
0000
0100
0000
0001
0000
1000
0000
0010
0000
1000
0000
,
0100
0000
0000
0010
0001
0000
0100
0000
0001
0000
1000
0000
0010
0000
1000
0000
,
0001
0000
0000
0010
0100
0000
1000
0000
0100
0000
0010
0000
0100
0000
1000
0000
,
0001
0000
0000
0100
0001
0000
0010
0000
0001
0000
1000
0000
0010
0000
0100
0000
,
0010
0000
0000
0100
0001
0000
1000
0000
0001
0000
0100
0000
0010
0000
1010
0000
,
1010
0000
0000
1000
0001
0000
0010
0000
0001
0000
0100
0000
0010
0000
1000
0000
,
0010
0000
0000
0100
0001
0000
1000
0000
0100
0000
1000
0000
0001
0000
0100
0000
,
0001
0000
0000
0010
0001
0000
1000
0000
0100
0000
0010
0000
0001
0000
0100
0000
,
0010
0000
0000
0010
0000
0000
0010
0000
0000
0000
1000
0000
0001
0000
1000
0000
,
0100
0000
0100
0010
0000
0000
0001
0000
0101
0000
0000
0000
0110
0000
0000
0000
,
1010
0000
0000
1000
0000
0000
1000
0000
0000
0000
0001
0000
0010
0000
0100
0000
,
1000
0000
0100
0010
0000
0000
0001
0000
1001
0000
0000
0000
1010
0000
0000
0000
,
1000
0001
0100
0010
0000
1000
0010
0100
,
0000
0001
0010
0210
0000
0000
1300
0000
,
0010
0100
0001
0100
0000
0010
1000
0001
,
0000
0100
0010
2010
0000
0000
3100
0000
,
0010
0001
0100
0001
0000
0010
0100
1000
,
0000
0001
1000
1002
0000
0000
0103
0000
,
0010
1000
0100
1000
0000
0001
0010
0100
,
0000
1000
0010
0220
0000
0330
1001
0000
,
0010
1000
0100
1000
0000
0001
0100
0001
,
0010
0000
0100
0000
1000
0000
0010
0000
0000
0000
1000
0100
0002
0000
0000
0000
,
0103
1000
0010
0100
0000
0001
0100
0010
,
1000
0001
0010
0100
0000
0000
1001
0000
,
0110
0010
1000
0010
0000
0100
0001
0010
,
0100
0000
1000
0000
0100
0000
0010
0000
0000
0000
0001
0010
2000
0000
0000
0000
,
3010
0100
1000
0001
0000
0100
0010
1000
,
0001
0100
0001
0010
0000
0000
1001
0000
,
0110
0010
1000
0100
0000
0010
0100
1000
,
0010
0000
0100
0000
0001
0000
0100
0000
0000
0000
0010
1000
0200
0000
0000
0000
,
0310
0001
0100
0010
0000
0100
0001
0010
,
0100
1000
0001
0100
0000
0000
0110
0000
,
1010
1000
0001
1000
0000
0100
0010
0001
,
0010
0000
0100
0000
1000
0000
0001
0000
0000
0000
0100
0001
0020
0000
0000
0000
,
0130
1000
0001
1000
0000
0010
0100
0001
,
0100
0010
1000
2002
0000
0000
3003
0000
,
0000
0000
0010
0000
0100
0000
0001
0000
1000
0100
1000
0000
1001
0000
1001
0000
,
0000
0000
0100
0000
1000
0000
0001
0000
1000
0010
1000
0000
1001
0000
1001
0000
,
0000
0000
0100
0000
1000
0000
0010
0000
0100
0001
0100
0000
0110
0000
0110
0000
,
0000
0000
0010
0000
1000
0000
0100
0000
0010
0001
0010
0000
0110
0000
0110
0000
,
0000
1000
1000
1000
1000
0100
0000
0110
,
0000
0010
0001
0101
0000
0010
1000
1100
,
0000
0010
0001
1000
1001
0001
0100
0100
,
0000
0010
1000
0001
1001
1000
0100
0100
,
0110
0000
0000
0001
0000
0000
1000
0000
0000
0000
0010
0000
0100
0000
0001
0000
,
1001
0000
0000
1000
0000
0000
0100
0000
0010
0000
0000
0000
0011
0000
0000
0000
,
1010
0000
0000
1000
0000
0000
1000
0000
0000
0000
0001
0000
0010
0000
0001
0000
,
0101
0000
0000
0101
0000
0000
0110
0000
1010
0000
0000
0000
1001
0000
0000
0000
,
0100
0010
1000
0001
0000
1000
0100
0010
,
0000
0000
0100
0000
1000
0000
0010
0000
0000
0000
0100
0001
0020
0000
0000
0000
,
0130
1000
0001
1000
0000
0100
0010
0001
,
0000
0100
0010
2000
0000
0000
3100
0000
,
0010
1000
0001
1000
0000
0010
0100
0001
,
0000
0000
0010
0000
0100
0000
1000
0000
0000
0000
0010
1000
0200
0000
0000
0000
,
0310
0001
0100
0001
0000
1000
0010
0100
,
0000
0001
0010
0100
0000
0000
0110
0000
,
1001
1000
0010
0100
0000
0001
0010
0100
,
0010
0000
0001
0000
1000
0000
0010
0000
0000
0000
0100
0001
0020
0000
0000
0000
,
0130
1000
0010
1000
0000
0001
1000
0001
,
0010
0100
0010
0002
0000
0000
0103
0000
,
0010
1000
0100
0010
0000
0001
0010
0100
,
1000
0000
0001
0000
0100
0000
0010
0000
0000
0000
1000
0100
0020
0000
0000
0000
,
0031
0100
0010
0100
0000
0001
0010
0100
,
1000
0010
1000
0200
0000
0000
0310
0000
,
0001
1000
0100
1000
0000
0001
0010
0100
,
0010
0000
0001
0000
0100
0000
0010
0000
0000
0000
1000
0100
0020
0000
0000
0000
,
0031
1000
0010
0100
0000
0010
1000
0100
,
0010
0001
1000
0020
0000
0000
0130
0000
,
0001
1000
0100
0010
0000
0100
1000
0010
,
0100
0001
1000
0002
0000
0000
0013
0000
,
0100
1000
0001
1000
0000
0010
0100
0001
,
0010
0100
1000
0010
0100
0001
0101
0000
,
2001
0000
0000
0001
0000
0000
0001
0000
0000
0000
0010
0000
0010
0000
0000
0000
,
0100
0000
0000
0100
0000
0000
0100
0000
3100
0000
0010
0000
0000
0000
0000
0001
,
0100
0010
0200
0000
0010
0000
0000
0000
0001
0000
0000
0000
1000
0000
0000
0000
,
0010
0000
0000
0000
0010
0000
0000
0000
0301
0000
0000
0010
0000
0000
0100
1000
,
0020
0100
0001
0100
,
1000
0000
0000
0000
1000
0000
0000
0000
0130
0000
0000
0001
0000
0000
0010
0100
,
2000
0000
0010
0000
0100
0100
0100
0000
,
0001
0000
0100
0000
0010
0010
0010
0000
,
3001
0010
0100
0010
0001
1000
0001
0000
,
0010
0000
0100
0000
1000
0000
0010
0000
0100
0000
0000
0001
0000
0000
0000
0010
,
0001
1000
0020
0000
0100
0000
0000
0000
0001
0000
0000
0000
0100
0000
0000
0000
,
1000
0000
0000
0000
0100
0000
0000
0000
0130
0000
0000
0001
0000
0000
1000
0100
,
0020
0001
0100
1000
,
0100
0000
0000
0000
0001
0000
0000
0000
0130
0000
0000
1000
0000
0000
0010
1000
,
0100
0000
0010
0001
0100
0000
0010
1000
0001
0000
0010
0100
1000
0000
0010
0100
,
2002
0000
0000
3003
,
1001
1000
0100
0001
0100
1000
0010
0001
,
0010
0000
0100
0000
0001
0000
0010
0000
0100
0000
0010
0001
0100
0000
0000
0000
,
0110
0010
1000
0100
0001
0100
1000
0010
,
0001
0010
0100
0001
1000
0010
0110
0000
,
1000
0010
0001
0010
1000
0100
0001
0100
,
1000
0000
0010
0000
0100
0000
0001
0000
0100
0000
0010
1000
0100
0000
0000
0000
,
0011
0001
0100
1000
0100
0010
1000
0100
,
0001
0100
0010
0001
0100
0010
1001
0000
,
0001
1000
0010
0100
0101
1001
0011
1001
,
0000
0100
0010
0100
1010
0110
0101
0110
,
0000
1000
0001
1000
0101
0110
1100
0110
,
0000
1000
0001
0010
0110
1100
0110
0101
,
0000
0001
1000
0100
0110
1100
1001
0101
,
0000
0010
0010
1010
0000
0100
0100
0101
,
0000
0001
0000
0010
1100
1001
1001
1100
,
0000
0010
0000
0001
0110
0101
0101
0110
,
0000
1000
0010
0100
0000
0001
0010
0100
,
0000
0010
0001
2000
0000
0000
3000
0000
,
0000
0010
0001
1000
0000
0010
0100
0001
,
0000
0010
0100
2002
0000
0000
0000
3003
,
0000
0010
0100
0001
0000
0010
0100
1000
,
0000
0100
0010
2002
0000
0000
3003
0000
,
0000
0010
1000
0010
0000
0100
0001
0100
,
0000
0001
0010
0002
0000
0000
0003
0000
,
0000
1000
0010
1000
0000
0001
0100
0001
,
0000
1000
0100
2000
0000
0000
3000
0000
,
0000
0001
0100
0001
0000
0010
0100
0010
,
0000
0100
1000
0200
0000
0000
0300
0000
;
