#TITLE:over my head;
#SUBTITLE:;
#ARTIST:the fray;
#TITLETRANSLIT:;
#SUBTITLETRANSLIT:;
#ARTISTTRANSLIT:;
#CREDIT:;
#BANNER:ban.jpg;
#BACKGROUND:back.jpg;
#LYRICSPATH:;
#CDTITLE:;
#MUSIC:13 over my head.mp3;
#OFFSET:-4.756;
#SAMPLESTART:36.754;
#SAMPLELENGTH:20.000;
#SELECTABLE:YES;
#DISPLAYBPM:116.000;
#BPMS:0.000=116.400;
#STOPS:;
#BGCHANGES:;
// cache tags:
#FIRSTBEAT:0.000;
#LASTBEAT:456.500;
#SONGFILENAME:Songs/new/over my head/over my head.sm;
#HASMUSIC:1;
#HASBANNER:1;
#MUSICLENGTH:251.797;
// end cache tags

//---------------dance-single - ----------------
#NOTES:
     dance-single:
     :
     Hard:
     7:
     0.471,0.589,0.250,0.485,0.000,646.000,63.000,122.000,0.000,10.000:
1000
0100
0002
0000
0000
0000
0003
0100
,
0010
1000
0100
0001
0100
0010
0100
1000
,
0100
0001
0200
0000
0000
1000
0010
0000
,
0301
0100
0010
1000
0100
0001
0100
0010
,
0100
1000
0200
0000
0001
0000
0010
0000
,
1300
0100
0001
0200
0000
0310
0100
1000
,
2000
0000
0010
0200
0000
3000
0301
0000
,
0010
1100
0100
0110
,
0101
0101
0101
0100
1000
0100
0001
0100
,
0010
0100
1000
0100
0001
0100
0010
0100
,
1100
0110
0201
0300
0100
0010
0100
2000
,
0000
3100
0001
0100
0010
0100
0001
0100
,
2000
0010
0100
0001
0100
0010
0100
3001
,
0100
0010
0100
2000
0000
0010
0100
3001
,
0101
0110
1100
0101
,
0110
1100
1010
1100
1010
1100
0101
0101
,
0110
0000
0100
0001
0100
0010
0100
1000
,
0100
0001
0100
0110
1000
0100
0001
0100
,
0010
0100
1000
0010
1000
0100
0001
0100
,
0010
0100
0001
0100
0110
1000
0100
0001
,
0100
0010
0100
1000
0100
1000
2010
0200
,
0000
3000
0301
0020
0000
0000
1030
0100
,
0101
0010
0100
1000
0100
0001
0100
0020
,
0000
0000
1130
0001
0100
0100
0100
0001
,
0100
0010
0100
1100
0000
0101
0000
0100
,
0010
0100
0001
0100
0010
0100
1000
0010
,
1000
0010
1000
0100
1000
0100
0001
0100
,
0010
0100
0001
0100
0010
0100
0001
0100
,
0020
0000
1030
2200
0000
0000
3300
0100
,
0002
0000
0103
0010
0100
2200
0000
3310
,
0000
0220
0000
0000
0331
0100
0010
1000
,
0200
0000
0000
0001
0010
2300
0000
0100
,
0010
0000
0000
0001
3100
0010
0100
1000
,
0000
2000
0000
0010
0200
0000
3301
0100
,
0010
0200
0000
1300
0100
0001
0100
0010
,
0100
1000
0000
1100
0000
0100
0000
0101
,
0000
0100
0010
1000
0100
0001
0100
0010
,
0100
1000
0100
0001
0100
0010
0010
1000
,
1000
0100
0100
0001
0001
0010
0010
0100
,
0100
1000
0100
0001
0100
0010
0100
0100
,
0200
0000
2300
0020
0000
3031
0100
0010
,
0100
0002
0000
0103
0020
0000
1030
0100
,
0001
0002
0000
0103
0020
0000
0000
1030
,
1000
1000
0100
0100
0100
0100
0100
0101
,
0101
0200
0000
0310
0100
2000
0100
0010
,
3200
0301
0100
0010
0100
1000
0100
0001
,
0100
0010
0100
0001
0100
0010
0100
1000
,
0100
0001
0100
0010
2200
0000
3000
0300
,
0102
0000
0000
0100
0013
2000
0100
0010
,
0100
0001
0100
3010
0200
0000
0000
0010
,
0000
0001
0010
0300
0201
0000
0300
0020
,
2030
0000
0000
3101
0020
0000
0000
0000
,
0030
0002
0000
0200
0003
2300
0000
0010
,
0001
0120
3000
0130
0002
0100
0010
1000
,
0103
0010
0000
0102
0200
0003
0000
0000
,
2300
0000
0010
0001
0100
3020
0000
1000
,
0230
0000
0000
0301
0100
1010
0100
0000
,
0001
0100
0010
1000
0010
0001
0100
0010
,
0100
1000
0100
0001
1000
0010
0200
0000
,
0301
0200
0000
0000
1000
0000
1000
1000
,
1300
0200
0002
0000
,
1303
0000
2000
0000
0100
0000
0020
3000
,
0001
0030
0020
0000
2030
0000
0000
0000
,
3100
0000
0202
0303
0100
0200
0000
0000
,
2300
0000
0000
0020
0000
0000
0000
3030
,
0000
0000
0001
0000
0100
0010
0200
0300
,
1000
0100
0002
0000
0100
0000
0100
0103
,
0102
0100
2003
0000
0100
0000
3010
0001
,
0100
0010
1100
0000
0110
0000
0100
0000
,
0101
0100
0011
1100
,
0100
0000
0001
0100
0010
1000
0100
0001
,
0100
0010
0100
0000
1100
0000
0100
0000
,
0110
0000
0010
0100
0001
0100
0010
0100
,
0001
0100
0010
0000
0011
0000
0100
0000
,
1100
0200
0010
0001
,
1000
0000
0010
0001
0010
0001
0010
0001
,
0310
0000
2000
0000
0000
0020
3000
0000
,
0000
0032
0000
0203
0000
2300
0000
0100
,
0000
3020
0000
0000
0001
0001
0000
0000
,
2030
0100
0000
0010
0000
3002
0000
0000
,
0100
0100
0000
0000
2003
0020
0000
0130
,
3001
0200
0000
0000
0320
0230
0000
0000
,
1300
2000
0000
0000
0010
0020
3000
0030
,
0002
0203
0000
0000
1300
0000
1000
0100
,
0001
0100
1000
0100
0001
0100
1000
0100
,
0002
0103
1000
0010
0100
0001
0100
1000
,
0010
0100
0001
0100
0000
1010
0000
0101
,
0100
1000
0010
0100
0001
0100
1000
0010
,
0100
0100
0200
0000
1000
0000
1000
0000
,
1000
0000
0001
0000
0010
0301
0100
0010
,
2000
0100
0000
0020
0000
3031
0100
0010
,
1000
0100
0101
0000
0100
0000
0110
0000
,
1100
0000
0200
0000
0000
0301
0100
0020
,
0000
2030
3100
0002
0000
0103
0020
2030
,
0000
0100
3002
0000
0103
0000
0020
0000
,
0000
1030
0200
0002
0300
0203
0000
0000
,
0310
0020
0000
0000
0032
0000
0013
0100
,
1000
1000
2000
0000
0000
3100
0020
0000
,
0000
0032
0023
0000
0000
0130
0200
0000
,
0300
1000
2000
0000
3200
0000
0000
0000
,
0000
0000
0300
0002
0000
0100
0000
0100
,
0000
0100
0000
2003
0000
0100
0000
0100
,
0000
0200
3300
0020
0000
0031
0010
0001
,
0010
0002
0013
0100
1000
0100
1000
0100
,
1000
0100
1000
0100
0010
0100
0010
0100
,
0010
0100
0001
0100
0001
0100
1000
0100
,
0001
0100
1000
0010
0100
0001
0100
0010
,
0100
0001
0100
0010
1000
0010
0001
0010
,
1000
0100
0001
0100
1000
0000
1000
0000
,
1000
0000
0000
1000
0000
0101
0000
0100
,
0000
0011
0000
0100
0000
1100
0000
0100
,
0000
0101
0000
0100
0000
0220
0000
0000
,
0000
0000
0000
0000
,
0000
0000
0000
0000
,
0000
0330
0000
0000
0000
0000
0000
0000
;

//---------------dance-single - ----------------
#NOTES:
     dance-single:
     :
     Medium:
     5:
     0.373,0.362,0.048,0.389,0.000,547.000,12.000,98.000,0.000,3.000:
1000
0200
0000
0300
,
0002
0000
0103
0000
2000
0000
0100
3000
,
0020
0000
1000
0030
0100
0000
0100
0000
,
0002
0000
0100
0003
2000
0000
0100
3000
,
0020
0000
1000
0030
0100
0000
0001
0000
,
0200
0000
1000
0300
0200
0000
0301
0000
,
0010
1000
0010
1000
,
0100
0001
0100
0000
0100
1000
0100
0000
,
0010
1000
0100
0000
0001
0100
0010
0000
,
0100
1000
0010
1000
0010
1000
0100
0000
,
0001
0100
0001
0000
0100
1000
0100
0000
,
0010
0100
0010
0000
0100
1000
0100
0000
,
0001
0100
0001
0000
0100
0010
0100
0001
,
0100
0000
0010
0100
0001
0000
0010
0100
,
0001
0000
0100
0000
1000
1000
1000
0000
,
0100
0100
0100
0100
0100
0001
0001
0001
,
0020
0000
1000
0030
2000
0000
0000
3100
,
0000
0200
0001
0300
0020
0000
1000
0030
,
2000
0000
3100
0000
0000
0020
0030
0001
,
0001
0000
0000
0100
0010
0000
0100
1100
,
0000
0002
0100
0203
0000
0300
1000
1000
,
2000
0000
3100
0000
0000
0002
0000
0103
,
0020
0000
1000
0030
0200
0000
0300
0001
,
0002
0000
0000
0103
0020
0000
0000
1030
,
0000
0200
0301
0000
0000
0001
0000
0001
,
0000
0010
1000
0000
0010
0000
1000
0000
,
0000
0100
0001
0100
0000
1000
0100
1000
,
0000
0100
0010
0100
0000
0001
0010
0100
,
1000
0000
0000
2000
0000
0000
0000
3010
,
0100
0000
0001
0100
0000
0010
1000
0100
,
0000
0001
0100
0020
0000
1000
1000
0030
,
0000
0200
0301
0100
0000
0010
0100
1000
,
0000
1000
0100
0001
0000
0010
0000
0100
,
0000
1000
0000
1000
0000
0100
0000
0100
,
0000
0010
0000
0010
0000
0001
0000
0001
,
0000
0001
0001
0001
0000
0100
0100
0100
,
1000
0100
0001
0100
0000
0010
1000
0100
,
0000
0001
0100
0010
0100
0100
1000
0100
,
0100
0000
0200
0000
0000
0300
0000
0001
,
0002
0000
0000
0113
0100
1000
0000
2000
,
0000
0000
0200
3000
0000
0000
0300
0010
,
0000
0200
0000
0301
0200
0000
0300
1010
,
0000
0200
0000
0301
0000
0002
0000
0103
,
0000
0010
1000
0100
0000
0100
0001
0100
,
0001
0200
0000
2300
0000
0020
0000
3230
,
0000
0302
0000
0200
0003
0320
0000
0230
,
0000
2300
0000
3200
0000
0320
0030
0002
,
0000
0000
0103
0010
0000
0020
0000
1030
,
2000
0000
0000
3100
0200
0000
0301
0001
,
0002
0000
0003
0010
0020
0000
0030
1000
,
0000
0100
0000
0000
0001
0100
0000
0010
,
0000
0101
0000
1100
0000
0000
0110
0001
,
0010
0000
0100
0000
0100
0000
0100
0100
,
0000
1000
0000
1000
0000
0100
0001
0100
,
0000
0010
1000
0000
0100
0001
0100
0010
,
0100
0000
1000
0100
1100
1000
0200
0000
,
1300
0000
0100
0000
0001
0100
0000
0000
,
0010
0200
0000
1000
0300
2000
0000
0000
,
3100
0001
0100
0000
0001
0100
0001
0100
,
0001
0000
0020
1030
0000
0000
0100
0100
,
0100
0000
0002
0000
2003
3000
0010
0000
,
0100
0002
0103
0010
,
0200
0000
2300
0000
0100
0000
0010
3000
,
0100
0000
0002
0000
0100
0013
0000
0100
,
0000
2000
0100
0010
,
3100
0000
0200
0000
0302
0003
0020
0000
,
1030
0200
0000
2300
,
0000
3001
0001
0001
,
0001
0000
0100
0000
1000
0100
0001
0100
,
1000
0100
0001
0100
1000
0100
0001
0100
,
1000
0010
0000
0010
0010
0010
0010
0010
,
0010
0010
0001
0001
0001
0001
0100
0100
,
0100
0100
1000
0000
1000
0000
1000
0000
,
1000
0000
0100
1000
0100
0000
0200
0301
,
0100
0001
0100
0000
0000
0000
0020
0000
,
2030
3200
0000
0000
0000
0000
0000
0300
,
0000
2000
0002
0000
0000
3203
0000
0000
,
0000
2300
0000
3200
0000
0302
0000
0100
,
0003
0020
0000
0000
1030
1000
0000
0000
,
1000
0200
0000
0302
0000
0203
0000
0000
,
0310
0010
0000
0000
1000
2000
0000
3100
,
0001
0200
0000
0000
0310
2000
0000
0000
,
3001
0002
0000
0000
0013
0000
0200
0300
,
0100
0200
0000
0000
0000
0302
0000
0000
,
0000
0000
0003
1000
0100
0101
0000
1000
,
0010
0100
0001
0100
1000
0011
0000
1010
,
0000
0010
0001
0100
0010
0100
0010
0100
,
0010
0100
0010
0100
1000
0100
1000
0100
,
1000
0100
1000
1000
1000
1000
1000
1000
,
1000
1000
0100
0100
0100
0100
0000
0100
,
0100
0000
0000
0001
0001
0001
0010
0010
,
0000
0010
0000
0100
0000
1000
1100
0000
,
0100
0001
0002
0000
0000
1003
0000
2000
,
0000
0100
3000
0020
0000
0130
0000
2000
,
0000
3100
0000
0001
0000
0002
0000
0103
,
0000
0010
0000
1000
1000
0000
0000
0100
,
0000
0100
0000
0001
0100
1000
0000
0001
,
0100
1000
0000
2000
0000
3010
0000
0020
,
0000
0130
0000
0002
0000
0103
0000
0010
,
0100
1000
0000
1000
0100
0001
0100
0010
,
0100
0001
0100
0100
0000
0100
0000
0100
,
0000
0100
0000
1000
1000
1000
0000
0001
,
0001
0001
0000
0010
0000
0100
0000
0010
,
0000
0100
0000
1000
1000
1000
0000
0100
,
0100
0100
0000
0010
0000
0100
0000
0001
,
0000
0100
0000
0010
0010
0010
0000
0001
,
0001
0001
0000
0100
1000
0100
1000
0100
,
1000
0100
0000
0001
0000
0100
0000
0010
,
0000
0100
0000
1100
0000
0100
0000
0100
,
0000
0100
0000
0100
0000
0001
0000
0100
,
0000
0001
0000
0010
0000
0100
0000
0010
,
0000
0100
0000
1000
0000
0100
0000
0010
,
0000
0100
0000
0001
0000
0002
0000
0000
,
0000
0000
0000
0000
,
0000
0003
0000
0000
0000
0000
0000
0000
0000
0000
0000
0000
0000
0000
0000
0000
0000
0000
0000
0000
0000
0000
0000
0000
0000
0000
0000
0000
0000
0000
0000
0000
0000
0000
0000
0000
0000
0000
0000
0000
0000
0000
0000
0000
0000
0000
0000
0000
0000
0000
0000
0000
0000
0000
0000
0000
0000
0000
0000
0000
0000
0000
0000
0000
0000
0000
0000
0000
0000
0000
0000
0000
0000
0000
0000
0000
0000
0000
0000
0000
0000
0000
0000
0000
0000
0000
0000
0000
0000
0000
0000
0000
0000
0000
0000
0000
0000
0000
0000
0000
0000
0000
0000
0000
0000
0000
0000
0000
0000
0000
0000
0000
0000
0000
0000
0000
0000
0000
0000
0000
0000
0000
0000
0000
0000
0000
0000
0000
0000
0000
0000
0000
0000
0000
0000
0000
0000
0000
0000
0000
0000
0000
0000
0000
0000
0000
0000
0000
0000
0000
0000
0000
0000
0000
0000
0000
0000
0000
0000
0000
0000
0000
0000
0000
0000
0000
0000
0000
0000
0000
0000
0000
0000
0000
0000
0000
0000
0000
0000
0000
0000
0000
0000
0000
0000
0000
0000
0000
0000
0000
0000
0000
;
