#TITLE:Fire To My Soul;
#SUBTITLE:The Triptych;
#ARTIST:Demon Hunter;
#TITLETRANSLIT:;
#SUBTITLETRANSLIT:;
#ARTISTTRANSLIT:;
#CREDIT:Alucard, Demon Hunter;
#BANNER:Banner.jpg;
#BACKGROUND:Background.jpg;
#LYRICSPATH:;
#CDTITLE:CD Title.jpg;
#MUSIC:Demon Hunter - Fire To My Soul.mp3;
#OFFSET:0.000;
#SAMPLESTART:71.425;
#SAMPLELENGTH:27.945;
#SELECTABLE:YES;
#BPMS:0.000=160.010;
#STOPS:;
#BGCHANGES:;
// cache tags:
#FIRSTBEAT:0.000;
#LASTBEAT:644.500;
#SONGFILENAME:Songs/toune 6/Demon Hunter - Fire To My Soul/Demon Hunter - Fire To My Soul.sm;
#HASMUSIC:1;
#HASBANNER:1;
#MUSICLENGTH:243.675;
// end cache tags

//---------------dance-single - ----------------
#NOTES:
     dance-single:
     :
     Hard:
     10:
     1.000,1.000,1.000,1.000,0.439,1263.000,523.000,400.000,0.000,127.000:
0011
0000
1001
0000
1101
0011
0110
0000
,
1001
0000
0011
1010
1110
0101
1001
0000
,
0011
0000
1100
0000
0111
1001
0110
0000
,
1001
0000
0011
1010
1011
1100
0011
0000
,
1001
0000
0011
0000
1101
1001
0011
0000
,
0110
0000
0101
1010
0111
0110
1001
0000
,
0110
0000
0011
0000
1011
1010
0110
0000
,
2002
0000
0000
0000
0003
0000
3220
0000
0000
0000
0000
0300
2230
0000
0000
3000
,
2301
0000
3011
0000
1100
0011
1001
0000
,
1200
0000
0000
0300
0011
0000
1001
0000
1100
0000
1001
0000
0110
0000
0000
0000
,
2001
0000
0000
3000
0011
0000
0000
0000
1100
0000
1001
0000
1100
0000
0000
0000
,
0102
0000
0000
0003
1010
0000
0101
0000
0011
0000
1100
0000
0011
0000
0000
0000
,
2010
0000
0000
3000
0110
0000
0000
0000
1001
0000
1100
0000
0011
0000
0000
0000
,
0201
0000
0000
0300
1010
0000
1100
0000
0011
0000
0110
0000
1001
0000
0000
0000
,
0201
0000
0000
0300
1010
0000
0000
0000
1100
0000
0011
0000
1001
0000
0000
0000
,
0021
0000
0000
0030
1100
0000
0011
0000
1100
0000
1001
0000
0110
0000
0000
0000
,
1002
0000
0000
0003
1020
0000
0000
0030
1200
0000
0001
0300
1002
0000
0100
0003
,
1020
0000
0000
0030
2100
0000
0000
3000
0102
0000
0010
0003
1200
0000
0010
0300
,
2001
0000
0000
3000
0120
0000
0000
0030
1200
0000
0010
0300
2001
0000
0100
3000
,
0201
0000
0000
0300
1002
0000
0000
0003
1020
0000
0100
0030
2001
0000
0010
3000
,
0120
0000
0000
0030
1002
0000
0000
0003
1020
0000
0100
0030
1002
0000
0010
0003
,
0120
0000
0000
0030
1200
0000
0000
0300
1020
0000
0001
0030
0012
0000
1000
0003
,
1200
0000
0000
0300
1020
0000
0000
0030
1002
0000
0000
0003
1200
0000
0000
0300
,
1000
0100
0010
0001
0010
0100
1000
0100
0010
0001
0010
0100
1000
0100
0010
0001
,
0220
0000
0000
0000
,
0000
0000
0000
0000
,
0000
0000
0000
0000
,
0000
0000
0000
0000
0000
0000
0000
0000
0000
0000
0000
0000
0000
0000
0000
0330
,
1001
1100
0011
0000
0101
0011
1100
0110
,
0011
1100
1001
0110
1001
0110
0011
0000
,
1001
0011
1100
0000
1001
0101
1010
0110
,
1100
0011
1010
1100
0101
0110
1001
0210
,
2310
0000
3012
0000
1203
0000
0001
0300
1002
0000
0123
0000
2130
0000
0001
3000
,
1200
0000
0321
0000
1000
0030
2001
0000
0100
0000
0010
3000
0102
0000
0010
0003
,
2100
3000
0012
0000
0100
0003
1200
0000
0010
0300
1002
0000
0100
0003
2010
0000
,
0100
0000
0000
3000
0011
0000
0000
0000
1100
0000
0011
0000
0110
0000
2010
0000
,
3102
1023
0231
1302
1203
0321
2130
3012
,
0123
0000
1230
0000
2301
0000
3021
0000
0100
0030
1000
0000
0201
0000
0000
0300
,
2010
0000
0000
3000
0021
0030
1200
0000
0010
0300
2001
0000
0100
3000
0012
0000
,
1000
0003
0000
0000
1001
0000
0000
0000
0011
0000
1100
0000
0210
0300
0021
0030
,
1002
0000
0000
0003
1200
0000
0000
0300
1002
0003
0120
0030
1002
0003
1200
0000
,
0010
0300
2001
0000
0100
3000
0012
0000
1000
0003
0110
0000
1020
0000
0000
0030
,
0102
0003
2001
0000
0100
0000
3021
0000
1000
0000
1230
0000
0001
0000
2310
0000
,
0001
0100
3010
0000
0110
1002
1203
0312
,
2103
3021
0132
2003
3210
1302
0213
2301
,
3021
1230
0001
2310
0001
3100
0012
0000
,
2013
3210
0001
1320
0100
2031
0100
3021
,
0100
0000
0000
0030
0101
0000
0000
0000
0110
0000
1001
0000
0120
0000
0000
0000
,
0032
1000
0010
0100
1000
0100
2003
0000
0010
0100
0001
0100
3002
0000
0010
1000
,
0203
0000
0010
1000
0001
0010
0302
0000
1000
0010
1000
0100
2003
0000
0010
0100
,
3002
0100
0010
1000
0010
0003
0000
0000
0010
0000
1100
0000
0001
0000
0100
0000
,
0001
1000
0001
1000
0001
0000
0000
0000
1010
0000
0210
0300
2001
0000
0000
3000
,
0020
0100
0001
1000
0100
1000
0230
0000
0001
1000
0010
1000
0320
0000
0001
0100
,
2030
0000
0001
0100
0010
0001
3020
0001
0100
0001
0100
1000
0230
1000
0001
1000
,
0320
0001
0100
0001
1000
0000
0000
0000
0031
0000
1100
0000
0010
0000
1000
0000
,
0010
0100
0010
0100
0010
0000
0000
0000
0110
0000
1000
0000
0012
0000
0000
0003
,
0201
1000
0001
0010
1000
0001
0320
0000
0100
1000
0001
1000
0230
0000
0010
1000
,
0302
1000
0100
1000
0010
1000
0203
1000
0001
0010
1000
0001
0320
0001
0100
1000
,
0230
0001
1000
0010
1000
0000
0000
0000
0310
0000
1001
0000
0010
0000
1000
0000
,
0001
0100
0001
0100
0001
0000
0000
0000
1100
0000
1002
0003
0210
0000
0000
0300
,
0012
0100
1000
0010
0100
0010
2003
0000
0100
0001
0010
0100
3002
0000
1000
0010
,
0203
0000
0001
1000
0010
1000
0302
0010
0100
1000
0010
0100
2003
0100
0001
0100
,
3002
0100
0010
1000
0010
1000
0010
0100
1000
0100
0010
1000
0010
1000
0010
0100
,
1000
0100
1000
0010
0100
0010
0100
1000
0010
1000
0100
0010
1000
0010
1000
0103
,
1000
0101
0011
1010
1001
0011
0110
1001
,
0011
0110
1100
0101
0110
0110
1001
0011
,
0110
0000
0000
0000
2100
0000
0000
3000
0012
0003
1200
0000
0000
0300
2001
0000
,
0000
3000
0120
0000
0002
0000
2003
0030
3210
0000
0312
0000
2000
0000
3000
0003
,
0210
0300
2001
0000
0100
3000
0021
0000
1000
0030
2100
0000
0010
3000
0102
0000
,
1000
0000
0100
1000
0010
0100
0010
0000
,
0100
0000
0000
0003
1200
0000
0001
0300
1020
0000
0100
0030
2001
3000
0120
0000
,
0001
0000
0000
0030
0102
0000
0010
0003
2100
0000
0010
3000
0102
0000
0000
0000
,
1000
0000
0000
0000
0010
0000
0100
0003
1200
0000
0001
0000
0010
0000
0000
0300
,
1002
0000
0000
0000
0100
0000
1000
0003
2010
0000
0001
0000
0100
0000
0000
3000
,
0022
0000
0000
0003
,
0000
0000
0000
0000
0000
0000
0000
0000
0000
0000
0000
0000
0000
0030
2100
3000
,
0021
0030
1200
0300
2001
3000
0021
0030
1002
0000
0010
0003
1200
0300
0021
0000
,
0100
0030
1002
0000
0010
0003
0210
0000
0001
0000
1000
0000
0010
0300
1002
0003
,
0120
0030
1002
0000
0010
0003
2100
0000
0010
3000
0120
0000
0001
0030
1200
0000
,
0001
0000
1000
0000
0001
0000
1000
0000
0001
0000
1000
0300
0022
0033
2100
3000
,
0201
0300
1000
0000
0001
0000
0120
0000
1000
0030
0100
0000
1002
0003
0120
0000
,
1000
0030
0201
0000
0010
0300
2001
0000
0010
0000
0100
3000
0021
0000
1000
0030
,
0201
0300
2010
0000
3100
0000
1002
0000
0013
0000
1200
0000
0301
0000
0120
0000
,
0031
0000
0000
0000
1001
0000
0000
0000
0011
0000
1100
0000
0012
0000
0000
0003
,
0120
1000
0100
0001
0100
1000
0230
0000
0010
0001
1000
0001
0320
0000
0100
0001
,
2030
0000
0100
0001
0010
0100
3020
0000
1000
0001
0100
1000
0230
0000
0010
1000
,
0320
1000
0100
0001
0100
0000
0000
0000
0130
0000
1001
0000
0100
0000
0001
0000
,
0100
1000
0001
0100
0021
0000
0000
0030
1100
0000
0021
0030
1200
0000
0300
0000
,
0020
0100
1000
0100
0001
1000
0230
0000
0010
0001
0010
1000
0320
0000
0100
0001
,
2030
0000
0100
0001
0010
0100
3020
0100
1000
0100
1000
0001
0230
0001
0010
1000
,
0320
1000
0001
0100
0001
0000
0000
0000
0130
0000
0011
0000
0100
0000
0001
0000
,
0100
0010
0100
0010
0100
0000
0000
0000
1001
0000
0002
0003
0120
0000
0000
0030
,
0002
1000
0010
0100
1000
0010
2003
0000
0100
0001
0010
0100
3002
0000
1000
0010
,
0203
0000
0001
0010
1000
0010
0302
0010
1000
0100
0010
0100
2003
0100
0001
0010
,
3002
0010
0100
1000
0100
0000
0000
0000
0103
0000
1010
0000
0001
0000
0100
0000
,
1000
0010
0100
1000
0010
0000
0000
0000
1001
0000
0210
0300
2001
0000
0000
3000
,
0020
0001
1000
0001
0100
1000
0032
0000
0100
1000
0100
1000
0023
0000
0001
0100
,
2030
0000
0100
0010
0001
0100
3002
0100
0010
1000
0100
0010
1000
0100
0010
1000
,
0023
1000
0001
0100
0001
0100
1000
0100
1000
0100
1000
0001
0100
0001
1000
0001
,
1000
0001
1000
0100
0001
0100
0001
0100
1000
0100
0001
1000
0100
1000
0100
0031
,
1100
0101
1100
0110
0011
0110
1100
0011
,
0110
1100
1001
1010
1100
0101
0011
0110
,
1100
0000
0000
0000
1002
0000
0000
0000
1023
0000
2130
0000
0000
3000
0102
0000
,
0000
0003
1200
0000
0020
0000
0032
0000
2313
0000
3120
0000
0002
0000
0000
0000
,
2133
3102
1000
0213
0001
0312
1000
0123
,
0001
0000
0100
0001
1000
0100
0001
0000
,
0100
0000
2130
0001
3210
0001
1302
0213
,
1000
0000
0321
0100
1032
0100
1023
0000
,
1000
0000
0001
1000
2031
0100
0010
0000
,
3021
0000
0000
2130
0002
0010
3120
0000
,
1233
0000
0321
0000
1230
0312
0100
1023
,
0100
2031
0200
0001
3312
1203
0010
0000
,
1302
1023
0100
2031
0010
3021
0100
0231
,
0010
0000
1000
0010
0001
1000
0010
0000
,
1000
0000
0000
0300
0102
0000
0010
0003
2100
0000
0010
3000
0021
0030
2100
0000
,
0001
0000
0000
3000
0210
0000
1000
0300
0120
0000
0001
0030
1200
0000
0000
0000
,
0001
0000
0000
0000
0010
0000
0001
0300
0102
0000
0010
0000
0100
0000
1000
0003
,
0210
0000
0000
0000
0010
0000
0302
0000
0020
0000
0100
0000
1003
0000
0000
0030
,
2001
0000
0100
0000
,
0001
0000
0000
0000
0000
0000
0000
0000
0010
0000
0000
0000
0000
0000
0000
3000
,
0201
0000
0000
0000
1000
0000
0001
0000
0010
0000
1000
0000
0001
0000
0010
0300
,
1002
0000
0010
0000
1000
0000
0000
0000
0010
0000
0000
0000
1000
0000
0100
0003
,
1200
0000
0000
0000
0010
0000
0001
0000
1000
0000
0001
0000
1000
0000
0010
0300
,
0021
0000
1000
0000
0001
0000
1000
2030
,
3210
0000
0001
0000
0010
0000
1000
0000
0001
0000
1000
0000
0001
0000
0010
0300
,
2001
0100
0010
0001
0100
0000
3010
0001
,
0210
0001
1000
0010
0001
1000
0310
1000
,
0021
0000
0000
0000
0100
0000
0000
0000
1000
0000
0000
0000
0001
0000
0200
0330
,
2001
0100
0010
3001
1000
0001
0010
0100
,
0021
1000
0001
0100
1000
0001
1030
0001
,
2100
0010
0001
0010
0100
0001
3010
1000
,
0102
0010
0100
1000
0010
0100
1003
0001
,
1100
0110
0011
1010
1001
0110
0101
1001
,
0101
1010
1100
0101
0110
1001
0101
0110
,
1001
0101
1001
1010
1100
0011
1100
0110
,
1001
0110
0011
1001
0110
1100
0011
1010
,
1001
0000
1000
0100
0012
1000
0123
0000
2130
0000
3102
1000
0123
0000
2031
0100
,
3010
0000
0000
0000
0201
1000
0312
0000
2103
0000
3120
0001
2130
0000
3021
0100
,
0030
0000
0100
0000
1002
0010
1203
0000
0300
0000
0000
0001
1200
0000
1302
0010
,
0103
0000
0000
0000
0021
1000
0231
0000
0300
0000
0100
0001
2010
0000
3201
0010
,
0300
0000
0000
0000
0102
0010
1203
0000
2310
0000
3201
0010
1302
0010
2103
0000
,
3001
0000
0000
0000
2001
0100
3012
0000
1023
0000
1230
0001
2310
0000
3021
0100
,
0030
0000
0000
0000
0102
0010
2103
0010
3001
0100
1000
0100
0021
1000
0231
0010
,
0301
0010
0100
0010
2001
0100
3012
0100
1003
0010
0100
0010
0201
1000
0312
1000
,
0013
0011
0110
1010
1001
0101
0011
1010
,
1100
0000
0000
0000
2100
0000
0000
3000
0012
0003
1200
0000
0001
0300
2010
0000
,
0001
3000
0120
0000
0002
0000
2003
0030
3210
0000
0312
0000
2000
0000
3100
0003
,
0210
0300
2001
0000
0100
3000
0021
0000
1000
0030
2100
0000
0010
3000
0102
0000
,
1000
0000
0100
1000
0010
0100
0010
0000
,
0100
0000
0000
0003
1200
0000
0001
0300
1020
0000
0100
0030
2001
3000
0120
0000
,
0001
0000
0000
0030
0102
0000
0010
0003
2100
0000
0010
3000
0102
0000
0000
0000
,
1000
0000
0000
0000
0010
0000
0100
0003
1200
0000
0001
0000
0010
0000
0000
0300
,
1002
0100
0010
0100
1000
0100
0010
0103
2010
0100
0010
0001
0010
0001
0010
3100
,
0021
0000
0000
0000
0132
0000
0000
0003
0120
0030
2001
0000
0010
3000
0012
0000
,
0100
0003
1200
0000
0320
0000
0032
0000
2103
0000
3120
0000
0032
0000
0010
0000
,
2103
3000
0012
0000
1000
0003
0210
0000
0001
0300
1002
0000
0100
0003
1020
0000
,
0001
0000
1000
0001
0100
1000
0100
0000
,
1000
0000
0000
0030
2001
0000
0010
3000
0201
0000
1000
0300
0012
0003
1200
0000
,
0010
0000
0000
0300
1020
0000
0100
0030
1002
0000
0100
0003
1020
0000
0000
0000
,
0001
1000
0001
0100
1000
0001
0100
0031
2000
0010
0100
0001
0100
0010
0001
3100
,
0022
0000
0000
0000
,
0000
0033
0000
0000
0000
0000
0000
0000
;
