#TITLE:The Power Of Lunacy;
#SUBTITLE:Feels The Arrow;
#ARTIST:Sunhiausa;
#TITLETRANSLIT:;
#SUBTITLETRANSLIT:;
#ARTISTTRANSLIT:;
#CREDIT:Ov3rHell3XoduZ;
#BANNER:../bn.png;
#BACKGROUND:../bg.png;
#LYRICSPATH:;
#CDTITLE:;
#MUSIC:Sunhiausa - The Power Of Lunacy.ogg;
#OFFSET:0.946;
#SAMPLESTART:44.961;
#SAMPLELENGTH:11.840;
#SELECTABLE:YES;
#BPMS:0.000=229.520,64.000=224.000,68.000=229.520,234.000=224.520,239.000=229.520,301.000=224.520,303.000=229.520,364.000=250.000,367.000=210.000,480.000=205.000,484.000=171.520,516.000=175.000,532.000=162.000,536.000=171.520,548.000=229.520,716.000=250.000,719.000=229.520;
#STOPS:;
#BGCHANGES:;
// cache tags:
#FIRSTBEAT:4.000;
#LASTBEAT:847.000;
#SONGFILENAME:Songs/EXoduz' Feels The Arrow/The Power Of Lunacy - [Ov3rHell3XoduZ]/Sunhiausa - The Power Of Lunacy.sm;
#HASMUSIC:1;
#HASBANNER:1;
#MUSICLENGTH:235.200;
// end cache tags

//---------------dance-single - Ov3rHell3XoduZ----------------
#NOTES:
     dance-single:
     Ov3rHell3XoduZ:
     Challenge:
     16:
     0.827,1.000,0.026,0.336,1.000,1275.000,6.000,79.000,77.000,1.000:

0000
0000
0000
0000
,
2002
0000
0000
0000
0000
0000
0000
0000
3003
0000
0000
0002
0000
0000
0000
0000
,
0203
0000
0000
0000
0000
0320
0000
0000
0000
0000
0030
0000
0000
0000
0000
0000
,
2200
0000
0000
0000
3300
0220
0000
0000
,
0000
0000
0330
0000
0000
0000
0020
0000
0000
0000
0000
0032
0000
0000
0000
0000
,
0203
0000
0000
0000
0000
0300
0000
0000
0000
0000
0000
2020
0000
0000
0000
0000
,
0000
3030
0000
2200
0000
0000
0000
0000
,
0000
0000
0000
0000
,
0000
0000
0000
0000
,
0000
0000
0000
0000
,
0000
0000
0000
0000
,
0000
0000
0000
0000
,
0000
0000
0000
0000
,
0000
0000
0000
0000
,
0000
0000
0000
0000
,
0000
0000
0000
0000
,
3300
MMMM
0000
0000
0000
0000
0000
0000
,
0001
0100
0001
0010
0100
1000
0010
1000
0100
1000
0001
0100
,
0001
1000
0100
1000
0010
0100
0001
0010
0001
0010
0100
1000
,
0001
0100
0001
1000
0100
0010
0001
1000
0001
1000
0010
0100
,
0001
0010
0100
1000
0001
1000
0001
0100
0010
1000
0100
1000
,
0010
0100
0001
0100
0001
0010
0100
1000
0010
0100
0001
1000
,
0100
0000
0000
1000
0000
0000
0010
0000
0000
0100
0000
0000
0001
0000
0000
0000
1000
0000
0000
0000
0100
0000
0000
0000
1000
0000
0000
0000
0001
0000
0000
0000
1000
0000
0000
0000
0001
0000
0000
0000
0100
0000
0000
0000
0001
0000
0000
0000
,
0010
0100
1000
0010
0100
0001
1000
0001
0010
0001
1000
0100
,
0010
0001
0100
0001
0010
0100
1000
0010
0100
0010
1000
0100
,
1000
0001
0100
0001
0100
0010
1000
0100
0010
0001
1000
0001
,
0010
0001
0010
0100
1000
0001
0100
0001
0010
0100
1000
0010
,
1000
0000
0000
0001
0000
0000
0100
0000
0000
0001
0000
0000
0010
0000
0000
0100
0000
0000
1000
0000
0001
0000
1000
0000
0001
0000
0000
0000
0010
0000
0000
0000
0100
0000
0000
0000
4000
0000
0000
0000
0000
0000
0000
0000
0000
0000
0000
0000
,
0000
0000
0000
0000
,
0000
0000
0000
0000
,
0000
0000
0000
0000
,
0000
0000
0000
0000
,
0000
0000
0000
0000
,
0000
0000
0000
0000
,
0000
0000
0000
0000
,
0000
0000
0000
0000
,
0000
0000
0000
0000
,
3000
0000
0000
0000
,
0000
0000
0000
0002
0000
0000
0000
0000
,
0000
0000
0000
0000
,
0000
0000
0000
0000
,
0203
0000
0000
0000
,
0000
0000
0320
0000
,
0000
0000
0000
0000
,
0000
0000
0000
0000
,
0000
0000
0000
0000
,
0000
0000
0000
2030
0000
0000
0000
0000
,
0000
0000
0000
3200
,
0000
0000
0000
0000
,
0000
0320
0000
0000
0000
0000
0000
0000
,
0000
0000
0000
0000
,
0000
0000
0000
0032
,
0000
0000
0000
0000
,
2003
0000
0000
0000
,
0000
0000
3200
0000
,
0000
0000
0000
0000
,
0000
0000
0000
0000
,
2300
0000
0000
0000
,
0000
0000
3020
0000
,
0130
0000
0000
0001
0000
0000
1000
0000
0000
0100
0000
0000
1000
0000
0000
0001
0000
0000
0100
0000
0000
0001
0000
0000
0010
0000
0000
0100
0000
0000
1000
0000
0000
0001
0000
0000
1000
0000
0000
0000
0100
0000
0000
0000
1000
0000
0000
0000
,
0010
0100
0001
0010
0001
1000
0100
0010
0001
1000
0001
0100
,
0001
1000
0100
1000
0010
0100
0001
0010
0001
1000
0100
0010
,
0001
1000
0100
1000
0010
0100
0001
0010
0001
0010
0100
1000
,
0001
0100
0001
1000
0010
0100
0010
1000
0100
1000
0100
0010
,
0001
0000
0000
0000
1000
0000
0000
0000
0010
0000
0000
0000
0100
0000
0000
0000
0001
0000
0000
0000
0010
0000
0000
0000
0001
0000
0000
0000
0010
0000
0000
0000
0100
0000
0000
0000
1000
0000
0000
0100
0000
0000
0010
0000
0000
0001
0000
0000
,
1000
0001
0100
0001
1000
0010
1000
0010
0100
0001
0010
0100
,
1000
0001
0100
0001
1000
0100
1000
0100
0010
0001
1000
0010
,
0100
0010
1000
0100
0010
0001
1000
0001
0100
0001
0100
0010
,
1000
0100
1000
0100
0010
0001
1000
0010
1000
0010
0100
0001
,
0010
0000
0000
0000
0100
0000
0000
0000
1000
0000
0000
0000
0001
0000
0000
0000
0100
0000
0000
0000
0001
0000
0000
0000
1000
0000
0000
0000
0100
0000
0000
0000
0010
0000
0000
0000
0100
0000
0000
1000
0000
0000
0010
0000
0000
0100
0000
0000
,
0001
0010
0001
0010
0001
0010
0001
0000
1000
0000
0100
0000
1000
0000
0001
0000
0100
0000
0001
0000
1000
0000
0010
0000
,
0100
0010
1000
0100
0010
0001
1000
0001
0010
0001
0010
0100
,
1000
0100
1000
0010
0100
0001
0010
0001
0010
0100
1000
0001
,
0100
0001
0100
0010
1000
0100
1000
0010
1000
0010
0100
0001
,
0010
0100
1000
0001
0100
0001
1000
0100
0010
0100
1000
0010
,
1000
0000
0000
0000
0010
0000
0000
0000
0100
0000
0000
0000
0001
0000
0000
0010
0000
0000
0100
0000
0000
1000
0000
0000
0001
0000
0000
0100
0000
0000
0001
0000
0000
0010
0000
0000
0100
0000
0000
0000
1000
0000
0000
0000
0001
0000
0000
0000
,
0100
0001
0100
0010
1000
0100
0010
0100
1000
0010
1000
0010
,
0100
0001
0010
0100
0010
0001
0100
0001
0100
0010
1000
0100
,
1000
0000
0000
0000
0001
0000
0000
0000
0100
0000
0000
0000
0001
0000
0000
1000
0000
0000
0100
0000
0000
0010
0000
0000
0100
0000
0000
0000
1000
0000
0000
0000
0001
0000
0000
0000
1000
0000
0000
0000
0001
0000
0000
0000
0100
0000
0000
0000
,
0001
0010
0100
1000
0010
0100
0010
1000
0100
1000
0100
0010
,
0001
0000
0000
0000
1000
0000
0000
0000
0001
0000
0000
0000
0100
0000
0000
0010
0000
0000
1000
0000
0000
0100
0000
0000
0010
0000
0000
0000
0001
0000
0000
0000
1000
0000
0000
0000
0001
0000
0000
0100
0000
0000
0001
0000
0000
0010
0000
0000
,
0200
0000
0000
0000
,
0000
0000
0000
0000
,
0000
0000
0000
0000
,
0000
0000
0000
0000
,
0000
0000
0000
0000
,
0000
0000
0000
0000
,
0000
0000
0000
0000
,
0000
0000
0000
0000
,
0000
0000
0000
0000
,
0000
0000
0000
0000
,
0300
0000
0000
0000
0000
0000
2202
3303
,
0000
0000
0000
0000
0000
0000
0002
0000
0000
0000
0000
0203
0000
0000
0000
0000
,
0320
0000
0000
0000
0000
0030
0000
0000
0000
0000
0000
0000
0000
0000
2000
0000
,
0000
0000
0000
3200
0000
0000
0000
0000
0300
0000
0000
0000
0020
0000
0000
0000
,
0000
0030
0000
0000
0000
0000
0002
0000
0000
0000
0000
0000
0000
0000
0000
0000
,
0000
0000
0000
0000
0000
0203
0000
0000
,
0000
0000
0000
0000
0320
0000
0000
0000
0000
2030
0000
0000
0000
0000
3200
0000
,
0000
0000
0000
0300
0000
0000
0000
0000
0020
0000
0000
0000
0000
0032
0000
0000
,
0000
0203
0320
0030
0000
0000
0000
0000
0000
0000
0000
2000
0000
0000
0000
0000
,
0000
0000
3200
0000
0000
0000
0000
0320
,
0000
0000
0032
0000
,
0000
0000
2003
0000
0000
0000
0000
3200
0000
0000
0000
0000
0320
0000
0000
0000
,
0000
0030
0000
0000
0000
0000
0000
0000
0000
0000
0002
0000
0000
0000
0000
0203
,
0000
0000
0000
0000
0300
0000
0000
0000
0000
0020
0000
0000
0000
0000
0000
0000
,
0000
0000
0000
2030
0000
0000
0000
0000
0000
0000
0000
0000
0000
3000
0000
0000
,
0000
0000
0000
0200
0000
0000
0000
0000
,
0320
0000
0000
0000
0000
0032
0000
0000
0000
0000
0203
0000
0000
0000
0000
0300
,
0000
0000
0000
0000
0020
0000
0000
0000
0000
2030
0000
0000
0000
0000
3200
0000
,
0000
0000
0000
0300
0000
0000
0000
0020
0000
0000
0000
0000
0000
0000
0000
0000
,
0032
0000
0000
0000
0000
0203
0000
0000
,
0000
0000
0000
0300
MM1M
0000
0000
0000
M000
0000
0000
0000
000M
0000
0000
0000
,
M000
000M
M000
0M00
,
00M0
000M
M000
00M0
,
0M00
00M0
M000
0M00
,
M000
000M
0M00
000M
,
M000
00M0
0M00
000M
,
00M0
0M00
M000
0M00
,
00M0
000M
M000
000M
,
0M00
000M
M000
0M00
,
M000
000M
0M00
000M
,
1000
0100
0010
0001
1000
0000
0001
0000
,
0100
0010
1000
0100
1000
0010
0100
0001
,
0010
0100
1000
0000
0001
0000
0100
0000
,
0010
1000
0100
1000
0001
0100
0001
0010
,
0100
1000
0001
1000
0100
0000
0010
0000
,
0001
1000
0010
0100
0010
1000
0100
0010
,
0001
1000
0001
0000
0100
0000
0010
0000
,
1000
0100
1000
0001
0100
0001
0010
0100
,
1000
000M
0M00
000M
00M0
0000
0M00
0000
,
M000
000M
0M00
000M
00M0
0M00
M000
00M0
,
0M00
000M
M000
0000
0M00
0000
00M0
0000
,
000M
0M00
00M0
M000
0M00
M000
000M
0M00
,
000M
M000
0M00
M000
000M
0000
0M00
0000
,
0010
1000
0100
1000
0001
1000
0100
1000
,
0010
0100
0001
0000
0010
0000
0100
0000
,
1000
0000
0000
0001
0000
0000
0100
0000
0000
0001
0000
0000
1000
0000
0000
0100
0000
0000
0010
0001
1000
0100
1000
0001
,
0010
0100
1000
0001
0100
0001
1000
0100
0010
0001
1000
0010
,
1000
0100
1000
0001
0100
0001
0010
0100
1000
0001
0100
0001
,
1000
0000
0000
0000
0100
0000
0000
0000
1000
0000
0000
0000
0010
0000
0000
0000
1000
0000
0000
0000
0010
0000
0000
0000
0100
0000
0000
0001
0000
0000
0010
0000
0000
0100
0000
0000
1000
0000
0000
0000
0001
0000
0000
0000
0100
0000
0000
0000
,
0001
1000
0010
1000
0010
0100
0001
0010
0100
1000
0100
0010
,
0001
1000
0010
1000
0010
0100
0001
0010
0100
1000
0001
0100
,
0001
0000
0000
1000
0000
0000
0100
0000
0000
1000
0000
0000
0001
0000
0000
0000
0100
0000
0000
0000
0001
0000
0000
0000
0100
0000
0000
0000
0010
0000
0000
0000
1000
0000
0000
0000
0100
0000
0000
0000
1000
0000
0000
0000
0010
0000
0000
0000
,
0100
0001
0010
0100
1000
0001
0100
0001
0100
0010
1000
0100
,
1000
0000
0000
0000
0010
0000
0000
0000
0100
0000
0000
0000
0001
0000
0000
0000
0010
0000
0000
0000
0100
0000
0000
0000
1000
0000
0000
0000
0001
0000
0000
0000
1000
0000
0000
0000
0100
0000
0000
0010
0000
0000
0001
0000
0000
1000
0000
0000
,
0010
0100
0001
1000
0100
1000
0100
0010
0001
0010
0001
1000
,
0010
0100
0001
1000
0100
1000
0001
0100
0001
0100
0010
1000
,
0100
0000
0000
0010
0000
0000
0001
0000
0000
1000
0000
0000
0010
0000
0000
0100
0000
0000
0001
0000
1000
0000
0001
0000
1000
0000
0000
0000
0100
0000
0000
0000
1000
0000
0000
0000
0010
0000
0000
0000
0100
0000
0000
0000
0001
0000
0000
0000
,
0010
0001
1000
0100
0010
0001
1000
0001
0100
0001
0100
0010
,
1000
0100
1000
0010
0100
0001
0010
0100
0010
0001
0100
0001
,
0100
0000
0000
0000
0010
0000
0000
0000
1000
0000
0000
0000
0001
0000
0000
0010
0000
0000
0100
0000
0000
1000
0000
0000
0001
0000
0000
0000
1000
0000
0000
0000
0100
0000
0000
0000
1000
0000
0000
0000
0010
0000
0000
0000
1000
0000
0000
0000
,
0010
0100
0001
0010
0100
1000
0001
0100
0001
1000
0100
1000
,
0100
0000
0000
0000
0010
0000
0000
0000
0001
0000
0000
0000
1000
0000
0000
0000
0010
0000
0000
0000
0100
0000
0000
0000
0001
0000
0000
0000
0100
0000
0000
0000
0001
0000
0000
0000
0010
0000
0000
0100
0000
0000
1000
0000
0000
0001
0000
0000
,
1000
0100
1000
0010
1000
0100
0010
0001
0100
0001
0010
0100
,
1000
0001
1000
0100
1000
0010
1000
0001
0100
0001
0010
0100
,
1000
0000
0000
0000
0001
0000
0000
0000
0100
0000
0000
0000
0001
0000
0000
0000
1000
0000
0000
0000
0100
0000
0000
0000
1000
0000
0000
0100
0000
0000
0010
0000
0000
0001
0000
0000
1000
0000
0000
0000
0001
0000
0000
0000
0100
0000
0000
0000
,
0001
0100
0010
1000
0100
0010
0100
1000
0010
0100
0001
0010
,
0100
0000
0000
0000
1000
0000
0000
0000
0001
0000
0000
0000
0100
0000
0000
0000
0001
0000
0000
0000
1000
0000
0000
0000
0100
0000
0000
0000
0010
0000
0000
0000
0001
0000
0000
0000
1000
0000
0000
0010
0000
0000
0100
0000
0000
0001
0000
0000
,
1000
0000
0100
0000
1000
0000
0100
0000
0000
0010
0000
0000
0001
0000
0000
0100
0000
0000
0001
0000
0000
1000
0000
0000
0100
0000
0000
1000
0000
0000
0010
0000
0000
1000
0000
0000
0010
0000
0000
0100
0000
0000
0001
0000
0000
0010
0000
0000
,
0100
0010
0001
0100
0001
0100
0010
1000
0100
1000
0001
0100
0010
1000
0100
1000
,
0100
0010
0001
1000
0010
0100
0001
0100
0001
0010
0100
1000
0001
1000
0200
0320
,
0031
0100
0001
1000
0100
1000
0010
1000
0010
0100
0001
0010
0100
1000
0001
0100
,
0001
1000
0100
1000
0010
0100
0001
0010
0001
1000
0100
0010
0001
1000
0001
0100
,
0001
0000
0000
0000
1000
0000
0000
0000
0100
0000
0000
0000
1000
0000
0000
0000
0001
0000
0000
0010
0000
0000
0100
0000
0000
1000
0000
0000
0001
0000
0000
0100
0000
0000
0001
0000
0000
0010
0000
0000
0100
0000
0000
1000
0000
0000
0001
0000
0000
1000
0000
0000
0100
0000
0000
0000
0010
0000
0000
0000
0001
0000
0000
0000
,
1000
0001
0100
0001
1000
0100
1000
0010
0100
0001
0010
0001
1000
0100
0010
0100
,
1000
0001
0100
0001
0100
0010
1000
0100
1000
0100
0010
0001
1000
0001
0100
0001
,
1000
0000
0000
0100
0000
0000
0010
0000
0000
0001
0000
0000
1000
0000
0000
0001
0000
0100
0000
0000
0010
0000
0000
0000
1000
0000
0000
0000
0100
0000
0000
0000
1000
0000
0000
0000
0001
0000
0000
0000
0100
0000
0000
0000
0001
0000
0000
0000
1000
0000
0000
0000
0010
0000
0000
0000
0100
0000
0000
0000
0001
0000
0000
0000
,
0010
0001
0010
0100
1000
0001
0100
0001
1000
0100
1000
0100
0010
0001
1000
0010
,
0100
0000
0000
0000
0001
0000
0000
0000
0010
0000
0000
0000
0001
0000
0000
0000
1000
0000
0000
0100
0000
0000
0010
0000
0000
0001
0000
0000
1000
0000
0000
0100
0000
0000
1000
0000
0000
0001
0000
0000
0010
0000
0000
0100
0000
0000
1000
0000
0000
0001
0000
0000
1000
0000
0000
0001
0000
0000
0010
0000
0000
0100
0000
0000
,
2000
0000
0000
0000
,
0000
0000
0000
3002
0000
0000
0000
0000
,
0000
0000
0000
0000
0000
0203
0000
0000
,
0000
0000
0000
0000
,
0320
0000
0000
0000
,
0000
0000
0000
2030
0000
0000
0000
0000
,
3200
0000
0000
0000
0000
0000
0000
0000
0000
0000
0000
0320
0000
0000
0000
0000
,
0000
0000
0000
0000
,
0032
0000
0000
0000
,
0000
0000
0000
0000
,
0203
0000
0000
0000
0000
0000
0000
0000
0000
0310
1000
0100
,
1000
0001
0010
0100
1000
0001
0100
0001
1000
0100
0010
0001
,
1000
0100
1000
0001
0010
0001
0010
0100
1000
0001
0100
0001
,
1000
0100
0010
0001
1000
0010
1000
0010
0100
0001
0010
0100
,
1000
0001
0100
0001
1000
0100
1000
0100
0010
0001
1000
0010
,
0100
0000
0000
0000
0001
0000
0000
0000
0010
0000
0000
0000
0001
0000
0000
0000
0010
0000
0000
0000
0100
0000
0000
0000
1000
0000
0000
0000
0001
0000
0000
0000
0100
0000
0000
0000
0001
0000
0000
1000
0000
0000
0100
0000
0000
0010
0000
0000
,
0001
1000
0100
1000
0010
0100
0001
0010
0001
0010
0100
1000
,
0001
0100
0001
0100
0010
1000
0100
0010
0100
1000
0010
0100
,
0001
0010
0001
0010
0100
1000
0001
0100
0001
1000
0100
1000
,
0100
0010
0001
1000
0010
0100
0010
1000
0100
1000
0001
0100
,
0010
0000
0000
0000
1000
0000
0000
0000
0100
0000
0000
0000
1000
0000
0000
0000
0001
0000
0000
0000
0100
0000
0000
0000
0010
0000
0000
0000
1000
0000
0000
0000
0001
0000
0000
0000
0010
0000
0000
0100
0000
0000
1000
0000
0000
0001
0000
0000
,
0100
0000
0000
0001
0000
0000
0010
0000
0100
0000
0010
0000
0100
0000
0000
0000
1000
0000
0000
0000
0001
0000
0000
0000
0010
0000
0000
0000
0001
0000
0000
0000
1000
0000
0000
0000
0100
0000
0000
0000
1000
0000
0000
0000
0010
0000
0000
0000
,
0100
0001
1000
0100
0010
0001
1000
0001
0010
0100
0010
0100
,
1000
0001
0100
0001
0010
0100
0010
0100
1000
0010
0100
0010
,
0100
0001
1000
0100
0010
0100
0010
0001
1000
0010
0100
0010
,
0100
0001
0010
0100
0010
0100
1000
0001
0100
0010
0100
0010
,
1000
0000
0000
0000
0100
0000
0000
0000
0010
0000
0000
0000
0100
0000
0000
0000
0010
0000
0000
0000
0001
0000
0000
0000
1000
0000
0000
0001
0000
0000
0100
0000
0000
0001
0000
0000
0010
0000
0000
0000
0100
0000
0000
0000
0010
0000
0000
0000
,
0100
1000
0001
0100
0010
0100
0010
1000
0001
0010
0100
0010
,
0100
1000
0001
0100
0010
0100
0010
1000
0100
0010
0100
0010
,
0001
0010
0100
0010
0100
1000
0010
0100
0010
0100
0010
1000
,
0100
0010
0100
0010
0100
0010
0001
1000
0001
1000
0001
0100
,
0001
0000
0000
0000
0000
0000
0000
0000
0000
0000
0000
0000
0000
0000
0000
0000
0010
0000
0000
0000
0000
0000
0000
0000
0000
0000
0000
0000
0000
0000
0000
0000
0100
0000
0000
0000
0000
0000
0000
0000
0000
0000
0000
0000
0000
0000
0000
0000
1000
0000
0000
0000
0000
0000
0000
0000
0000
0000
0000
0000
0001
0000
0000
0000
0000
0000
0000
0000
0000
0000
0000
0000
1000
0000
0000
0000
0000
0000
0000
0000
0000
0000
0000
0000
0010
0000
0000
0000
0000
0000
0000
0000
0000
0000
0000
0000
0100
0000
0000
0000
0000
0000
0000
0000
0000
0000
0000
0000
0001
0000
0000
0000
0000
0000
0000
0000
0000
0000
0000
0000
1000
0000
0000
0000
0000
0000
0000
0000
0000
0000
0000
0000
0100
0000
0000
0000
0000
0000
0000
0000
0000
0000
0000
0000
0010
0000
0000
0000
0000
0000
0000
0000
0000
0000
0000
0000
0001
0000
0000
0000
0000
0000
0000
0000
0000
0000
0000
0000
1000
0000
0000
0000
0000
0000
0000
0000
0000
0100
0000
0000
0000
0000
0000
0000
0000
0000
0010
0000
0000
0000
0000
0000
,
0000
0001
0000
0000
1000
0000
0000
0200
0000
0000
0000
0000
0000
0000
0000
0000
0000
0000
0000
0000
0000
0000
0000
0000
0000
0000
0000
0000
0000
0000
0000
0000
0000
0000
0000
0000
0000
0000
0000
0000
0000
0000
0000
0000
0000
0000
0000
0000
0000
0000
0000
0000
0000
0000
0000
0000
0000
0000
0000
0000
0000
0000
0000
0000
,
0000
0000
0000
0000
,
0000
0000
0000
0000
,
0000
0000
0000
0000
,
0000
0000
0000
0000
,
0000
0000
0000
0000
,
0000
0000
0000
0000
,
0000
0000
0000
0000
,
0000
0000
0000
0000
,
0000
0000
0000
0000
,
0000
0000
0000
0300
;
