#TITLE:I Cloned Myself For Christmas;
#SUBTITLE:;
#ARTIST:Neurotron 606;
#TITLETRANSLIT:;
#SUBTITLETRANSLIT:;
#ARTISTTRANSLIT:;
#CREDIT:;
#BANNER:I Cloned Myself For Christmas.png;
#BACKGROUND:I Cloned Myself For Christmas-bg.png;
#LYRICSPATH:I Cloned Myself For Christmas.lrc;
#CDTITLE:NEUROTRON 606 - Code of Voice.png;
#MUSIC:Neurotron 606 - I Cloned Myself for Christmas (Edit).mp3;
#OFFSET:-0.130;
#SAMPLESTART:31.900;
#SAMPLELENGTH:12.000;
#SELECTABLE:YES;
#DISPLAYBPM:148.000;
#BPMS:0.000=148.000;
#STOPS:;
#BGCHANGES:;
// cache tags:
#FIRSTBEAT:16.000;
#LASTBEAT:208.000;
#SONGFILENAME:Songs/DDRExtreme.co.uk presents ChristmasMix/I Cloned Myself For Christmas/I Cloned Myself For Christmas.sm;
#HASMUSIC:1;
#HASBANNER:1;
#MUSICLENGTH:89.939;
// end cache tags

//---------------dance-single - ----------------
#NOTES:
     dance-single:
     :
     Beginner:
     1:
     0.162,0.170,0.022,0.067,0.000,94.000,2.000,6.000,0.000,0.000:  // measure 1
0000
0000
0000
0000
,  // measure 2
0000
0000
0000
0000
,  // measure 3
0000
0000
0000
0000
,  // measure 4
0000
0000
0000
0000
,  // measure 5
1000
0000
1000
0000
,  // measure 6
0001
0000
0001
0000
,  // measure 7
0010
0000
0010
0000
,  // measure 8
0100
0000
0100
0000
,  // measure 9
1000
0000
0001
0000
,  // measure 10
1000
0000
0001
0000
,  // measure 11
0010
0000
0100
0000
,  // measure 12
0010
0000
0100
0100
,  // measure 13
0100
0000
0001
0000
,  // measure 14
1000
0000
0010
0000
,  // measure 15
0001
0000
1000
0000
,  // measure 16
0100
0000
0010
0010
,  // measure 17
0000
1000
0000
1000
,  // measure 18
0000
0001
0000
0100
,  // measure 19
0000
1000
1000
0000
,  // measure 20
0010
0000
0001
0000
,  // measure 21
0010
0010
0000
0000
,  // measure 22
0100
0100
0000
0000
,  // measure 23
1000
0000
1000
0000
,  // measure 24
0020
0000
0030
0000
,  // measure 25
0001
0001
0000
0000
,  // measure 26
1000
1000
0000
0000
,  // measure 27
0100
0000
0100
0000
,  // measure 28
0002
0000
0003
0000
,  // measure 29
0000
0010
0000
1000
,  // measure 30
0000
0100
0000
1000
,  // measure 31
0000
0010
0000
0000
,  // measure 32
0000
0100
0000
0001
,  // measure 33
0000
0010
0000
0001
,  // measure 34
0000
0100
0000
1000
,  // measure 35
0000
0100
0000
0000
,  // measure 36
0000
0010
0010
0010
,  // measure 37
0010
0000
0100
0000
,  // measure 38
1000
1000
1000
0000
,  // measure 39
0001
0000
0001
0000
,  // measure 40
0010
0010
0010
0000
,  // measure 41
0100
0000
1001
0000
,  // measure 42
0100
0000
0100
0000
,  // measure 43
0010
0000
0010
0000
,  // measure 44
0002
0000
0003
0000
,  // measure 45
2000
0000
3000
0000
,  // measure 46
0010
0000
0001
0001
,  // measure 47
0001
0000
1000
0000
,  // measure 48
0010
0000
0100
0100
,  // measure 49
0100
0000
0000
1000
,  // measure 50
0000
0001
0000
0010
,  // measure 51
0000
2002
0000
0000
,  // measure 52
3003
0000
0000
0000
;

//---------------dance-single - ----------------
#NOTES:
     dance-single:
     :
     Easy:
     3:
     0.227,0.253,0.067,0.022,0.000,135.000,6.000,2.000,0.000,0.000:  // measure 1
0000
0000
0000
0000
,  // measure 2
0000
0000
0000
0000
,  // measure 3
0000
0000
0000
0000
,  // measure 4
0000
0000
0000
0000
,  // measure 5
0001
0001
0001
0000
,  // measure 6
0100
1000
0100
0000
,  // measure 7
1000
1000
1000
0000
,  // measure 8
0010
0001
0010
1000
,  // measure 9
0001
0001
0100
0000
,  // measure 10
1000
0010
0001
0000
,  // measure 11
1000
1000
0100
0000
,  // measure 12
0001
0010
1000
0010
,  // measure 13
0001
0000
1000
0001
,  // measure 14
1000
0000
0001
0100
,  // measure 15
0100
0000
0010
0010
,  // measure 16
1000
0000
0100
0000
,  // measure 17
0001
0000
0100
0010
,  // measure 18
0100
0000
1000
0010
,  // measure 19
0010
0000
0100
0100
,  // measure 20
0001
0000
0010
0000
,  // measure 21
0010
1000
0001
0001
,  // measure 22
0010
1000
0001
0001
,  // measure 23
0100
0000
0100
0000
,  // measure 24
1001
0000
0010
1000
,  // measure 25
0100
0001
1000
1000
,  // measure 26
0100
0001
1000
1000
,  // measure 27
0010
0000
0010
0000
,  // measure 28
1001
0000
0010
0000
,  // measure 29
0110
0001
0000
1000
,  // measure 30
0000
0001
0000
1000
,  // measure 31
0000
0100
0000
0000
,  // measure 32
0000
0010
0000
1000
,  // measure 33
0000
0001
0000
0100
,  // measure 34
0000
1000
0000
0001
,  // measure 35
0000
0010
0000
0000
,  // measure 36
0000
0100
0100
1000
,  // measure 37
1000
1001
0000
0001
,  // measure 38
0001
1000
1000
0100
,  // measure 39
0100
0010
0010
1000
,  // measure 40
0001
1000
0001
0000
,  // measure 41
0110
0001
0100
1000
,  // measure 42
0000
1000
0100
0001
,  // measure 43
0000
1000
0100
0010
,  // measure 44
0010
0001
0100
1000
,  // measure 45
0000
0001
0000
0100
,  // measure 46
1000
0010
0010
0100
,  // measure 47
0001
0010
0010
1000
,  // measure 48
0001
1000
1000
0000
,  // measure 49
0001
1000
0000
0100
,  // measure 50
0000
0010
0000
2002
,  // measure 51
0000
0000
3003
0000
;

//---------------dance-single - ----------------
#NOTES:
     dance-single:
     :
     Medium:
     5:
     0.346,0.405,0.245,0.056,0.000,191.000,22.000,5.000,0.000,0.000:  // measure 1
0000
0000
0000
0000
,  // measure 2
0000
0000
0000
0000
,  // measure 3
0000
0000
0000
0000
,  // measure 4
0000
0000
0000
0000
,  // measure 5
0000
0010
0001
0100
,  // measure 6
0100
0010
0001
1000
,  // measure 7
0010
1000
0100
0100
,  // measure 8
0010
0001
0100
1000
,  // measure 9
0010
0010
0100
1000
,  // measure 10
0100
0001
0010
0010
,  // measure 11
1000
1001
0001
1001
,  // measure 12
0100
0000
0010
0100
0010
0000
1000
0000
,  // measure 13
1000
1001
0001
0100
,  // measure 14
0010
0100
0001
0000
1000
0000
0100
0000
,  // measure 15
0010
0100
1000
0000
0100
0000
0010
0000
,  // measure 16
0001
1000
0010
0000
0100
0000
0001
0000
,  // measure 17
1000
0001
0010
0000
1001
0000
0000
0010
,  // measure 18
1000
0001
0100
0000
0110
0000
0000
1000
,  // measure 19
0010
0100
0001
0000
2000
0000
0010
0000
,  // measure 20
0100
0001
0001
0001
,  // measure 21
3001
1100
0000
1000
,  // measure 22
0001
0101
0000
0110
,  // measure 23
0100
0000
1000
0010
1000
0000
0001
0000
,  // measure 24
0100
0220
0000
0000
,  // measure 25
0330
0010
1010
0000
,  // measure 26
1000
0001
0011
0000
,  // measure 27
1001
0000
1000
0000
0100
0001
0100
0000
,  // measure 28
0010
1001
0100
1000
,  // measure 29
0001
0010
0000
0001
,  // measure 30
0000
1000
0000
0001
,  // measure 31
0000
0100
0000
0000
,  // measure 32
0000
0100
0000
1000
,  // measure 33
0000
0001
0000
1000
,  // measure 34
0000
0010
0000
0001
,  // measure 35
0000
0100
0000
0000
,  // measure 36
0000
0010
1000
0001
,  // measure 37
1001
0000
0010
1000
0100
0000
0001
0000
,  // measure 38
1001
0000
1000
0001
0010
0000
0100
0000
,  // measure 39
0110
0000
0100
0001
0010
0000
1000
0000
,  // measure 40
0011
0000
0001
1000
0100
0000
0010
0000
,  // measure 41
1100
0000
0010
0001
0000
0100
0000
1000
,  // measure 42
0000
0001
0000
0020
0000
1000
0000
0100
,  // measure 43
0000
1030
0000
0001
0010
0001
0000
1000
,  // measure 44
0100
1000
0000
0020
0000
0001
0000
0100
,  // measure 45
0000
0031
0000
0001
0100
0000
0000
1000
,  // measure 46
0100
0010
0000
0001
1000
0000
0000
0010
,  // measure 47
0100
0001
0000
1000
0010
0000
0000
0100
,  // measure 48
0001
0010
0000
0100
0010
0000
0000
1000
,  // measure 49
0001
0100
0100
0000
0010
0001
1000
0000
,  // measure 50
0100
0010
0001
0000
1100
0000
1000
0000
,  // measure 51
0101
0001
0110
0100
,  // measure 52
1001
0001
0001
0100
,  // measure 53
0100
0000
0000
0000
;

//---------------dance-single - ----------------
#NOTES:
     dance-single:
     :
     Hard:
     7:
     0.453,0.463,0.233,0.011,0.000,263.000,21.000,1.000,0.000,0.000:  // measure 1
0000
0000
0000
0000
,  // measure 2
0000
0000
0000
0000
,  // measure 3
0000
0000
0000
0000
,  // measure 4
0000
0000
0000
0000
,  // measure 5
1000
0001
0100
0000
1000
0001
0100
0000
,  // measure 6
1000
0001
0100
0000
1000
0001
0100
0010
,  // measure 7
1000
0001
0010
0000
1000
0001
0010
0000
,  // measure 8
1000
0001
0010
0000
1000
0001
0010
0100
,  // measure 9
1000
0010
0100
0000
1000
0010
0100
0000
,  // measure 10
1000
0010
0100
0000
1000
0010
0100
0001
,  // measure 11
0010
0100
1000
0000
0100
0000
0010
0000
,  // measure 12
1000
0000
0001
0100
1000
0000
0100
0001
,  // measure 13
1000
0000
0110
0000
0001
1000
0000
0001
,  // measure 14
1000
0001
0100
0000
0010
0100
0000
0010
,  // measure 15
0100
0010
1000
0000
0001
0010
0000
0001
,  // measure 16
1000
0100
0010
0000
0100
1000
0000
0010
,  // measure 17
0100
0001
1000
0000
0010
1000
0000
0001
,  // measure 18
0100
1000
0100
0000
0010
0001
0000
1000
,  // measure 19
0100
0001
0100
0000
1000
0001
0000
1000
,  // measure 20
0001
1000
0001
0100
0000
0100
0000
0100
,  // measure 21
0001
1000
0010
0000
0100
0001
0100
0000
,  // measure 22
0100
1000
0100
0000
1000
0010
1000
0000
,  // measure 23
0001
0100
0001
0000
0010
0001
0010
0000
,  // measure 24
0010
1000
0000
1001
0000
0101
0000
1100
,  // measure 25
0000
1000
0100
0000
0010
0010
0001
0000
,  // measure 26
0100
0100
0010
0000
1000
1000
0001
0000
,  // measure 27
1000
0010
0100
0100
0001
0001
1000
0000
,  // measure 28
0010
0000
0100
0010
0110
0000
0011
0000
,  // measure 29
1010
0001
0000
0100
,  // measure 30
0000
0010
0000
1000
,  // measure 31
0000
0001
0000
0000
,  // measure 32
0000
1000
0000
0100
,  // measure 33
0000
1010
0000
0011
,  // measure 34
0000
1100
0000
0101
,  // measure 35
0000
1001
0000
0000
,  // measure 36
0000
1010
1100
0101
,  // measure 37
0011
0001
0001
1000
1000
0000
0010
1000
,  // measure 38
0100
0010
0001
0001
0001
0000
0100
0010
,  // measure 39
1000
0100
0010
0010
0010
0000
0001
0100
,  // measure 40
0010
1000
0100
0100
0100
0010
0000
0100
,  // measure 41
0000
1000
0000
0001
0010
0001
1000
0001
,  // measure 42
0100
0001
0000
1000
0010
1000
0001
1000
,  // measure 43
0100
1000
0000
0010
1000
0010
0100
0001
,  // measure 44
0010
0001
1000
0100
0001
0100
1000
1000
,  // measure 45
0000
0100
1000
1001
0001
0000
0001
0001
,  // measure 46
0100
0010
1000
0100
0100
0000
1000
1000
,  // measure 47
0010
0100
0001
0010
0010
0000
1000
0100
,  // measure 48
1000
0001
0100
0001
0010
0000
0001
1000
,  // measure 49
0001
0100
0010
0100
0001
0000
0011
0001
,  // measure 50
1000
0000
1010
1000
0001
0000
0001
0000
,  // measure 51
1001
0120
1000
0001
,  // measure 52
0130
1000
1000
1000
,  // measure 53
1000
0000
0000
0000
;
