#TITLE:HyperioxX;
#SUBTITLE:;
#ARTIST:ParagonX9;
#TITLETRANSLIT:;
#SUBTITLETRANSLIT:;
#ARTISTTRANSLIT:;
#CREDIT:;
#BANNER:../Banner.png;
#BACKGROUND:../BG.png;
#LYRICSPATH:;
#CDTITLE:../CDTitleKIRBY.png;
#MUSIC:HyperioxX.ogg;
#OFFSET:-1.362;
#SAMPLESTART:34.695;
#SAMPLELENGTH:12.000;
#SELECTABLE:YES;
#BPMS:0.000=180.000;
#STOPS:;
#BGCHANGES:;
// cache tags:
#FIRSTBEAT:0.000;
#LASTBEAT:592.000;
#SONGFILENAME:Songs/Index Fusion - Part 2/HyperioxX - [Kirby5464]/HyperioxX.sm;
#HASMUSIC:1;
#HASBANNER:1;
#MUSICLENGTH:197.355;
// end cache tags

//---------------dance-single - Kirby5464 - Oni (17.----------------
#NOTES:
     dance-single:
     Kirby5464 - Oni (17.:
     Challenge:
     16:
     1.000,1.000,0.015,0.258,1.000,1825.000,3.000,51.000,3.000,0.000:

0001
0100
0010
1000
0001
1000
0001
0010
0100
1000
0001
1000
0001
0100
0010
1000
,
0001
1000
0100
0010
0001
1000
0010
1000
0001
1000
0001
0010
0100
1000
0001
1000
,
0001
0100
0010
0100
0001
1000
0001
1000
0001
0010
0001
0010
0100
1000
0100
1000
,
0001
0100
0001
1000
0010
0100
0001
1000
0100
1000
0001
0010
0100
0010
0001
1000
,
0001
1000
0010
0100
0010
1000
0001
0100
0001
1000
0010
0100
0001
1000
0001
0010
,
0100
1000
0100
1000
0001
1000
0001
0100
0010
1000
0010
1000
0010
1000
0001
0010
,
0100
1000
0100
0010
0001
1000
0001
0100
0010
0100
0001
1000
0010
1000
0001
0010
,
1001
0000
0000
0000
1010
0000
0001
0101
,
1000
0100
0010
0100
1000
0001
1000
0001
0100
0010
0100
0001
1000
0010
1000
0001
,
0010
0100
1000
0100
1000
0001
0010
0001
1000
0010
1000
0001
1000
0100
0010
0001
,
1000
0010
0100
0001
0100
0001
1000
0100
0010
0001
1000
0100
1000
0001
1000
0001
,
0100
0010
0100
0001
1000
0100
1000
0001
0100
0010
1000
0001
1000
0100
0010
0001
,
1000
0001
0100
0010
0100
0001
1000
0010
1000
0001
1000
0100
0010
0001
0010
0100
,
1000
0001
1000
0001
0100
0010
0100
0001
1000
0010
1000
0001
1000
0100
0010
0001
,
0010
0100
1000
0001
1000
0001
0100
0010
0100
0001
1000
0010
1000
0001
0100
0010
,
1000
0001
0010
0100
0010
0001
1000
0100
1000
0001
0100
0001
1000
0010
0100
0010
,
1000
0001
0010
0100
1000
0100
0010
0001
1000
0010
0100
0001
1000
0001
0010
0100
,
0010
0001
1000
0100
1000
0001
0100
0001
1000
0100
0010
0001
0010
0100
1000
0001
,
1000
0001
0100
0010
1000
0010
1000
0001
0100
0010
1000
0001
1000
0001
0010
0100
,
1000
0001
1000
0100
0010
0100
1000
0001
1000
0010
0100
0001
1000
0010
0100
0001
,
1000
0001
0010
0100
1000
0100
0010
0001
1000
0001
0100
0010
0100
0001
1000
0001
,
1000
0100
0010
0001
0100
0001
1000
0100
1000
0010
1000
0001
0010
0001
0100
0001
,
1000
0100
0010
0001
1000
0010
1000
0100
0010
0100
1000
0001
0010
0001
1000
0010
,
1000
0100
0010
0001
1000
0010
1000
0100
0010
0100
1000
0001
0010
0001
1000
0010
,
1000
0100
0010
0001
1000
0010
1000
0100
0010
0100
1000
0001
0100
0010
1000
0100
,
0010
0100
1000
0001
0100
0010
1000
0100
1000
0001
1000
0001
0100
0010
1000
0100
,
0010
0100
1000
0001
0100
0001
0010
0001
1000
0010
0100
0001
0010
0001
1000
0010
,
1000
0100
1000
0001
0100
0001
0010
0001
1000
0010
0100
0001
0010
0001
1000
0010
,
2000
0000
3200
0000
0000
2300
3002
0203
,
0302
2003
3200
2300
0000
3020
0230
0302
,
2003
0000
3200
0000
0000
2300
3020
0230
,
0320
0000
2030
0000
3002
0000
0023
0000
0000
0000
0032
0000
0103
0010
1000
0MM0
,
0001
0100
0010
1000
0001
1000
0001
0010
0100
1000
0001
1000
0001
0100
0010
1000
,
0001
1000
0100
0010
0001
1000
0010
1000
0001
1000
0001
0010
0100
1000
0001
1000
,
0001
0100
0010
0100
0001
1000
0001
1000
0001
0010
0001
0010
0100
1000
0100
1000
,
0001
0100
0001
1000
0010
0100
0001
1000
0100
1000
0001
0010
0100
0010
0001
1000
,
0001
1000
0010
0100
0010
1000
0001
0100
0001
1000
0010
0100
0001
1000
0001
0010
,
0100
1000
0100
1000
0001
1000
0001
0100
0010
1000
0010
1000
0010
1000
0001
0010
,
0100
1000
0100
0010
0001
1000
0001
0100
0010
0100
0001
1000
0010
1000
0001
0010
,
0002
0003
0000
0000
0000
0000
0000
0000
1000
0010
1000
0000
0002
0000
0000
0000
,
1003
0100
1000
0001
0010
0100
1000
0100
1000
0001
0010
0001
1000
0010
1000
0001
,
1000
0100
0010
0001
1000
0010
0100
0001
0100
0001
1000
0100
0010
0001
1000
0100
,
1000
0001
1000
0001
0100
0010
0100
0001
1000
0100
1000
0001
0100
0010
1000
0001
,
1000
0100
0010
0001
1000
0001
0100
0010
0100
0001
1000
0010
1000
0001
1000
0100
,
0010
0001
0010
0100
1000
0001
1000
0001
0100
0010
0100
0001
1000
0010
1000
0001
,
1000
0100
0010
0001
0010
0100
1000
0001
1000
0001
0100
0010
0100
0001
1000
0010
,
1000
0001
0100
0010
1000
0001
0010
0100
0010
0001
1000
0100
1000
0001
0100
0001
,
1000
0010
0100
0010
1000
0001
0010
0100
1000
0100
0010
0001
1000
0010
0100
0001
,
1000
0001
0010
0100
0010
0001
1000
0100
1000
0001
0100
0001
1000
0100
0010
0001
,
0010
0100
1000
0001
1000
0001
0100
0010
1000
0010
1000
0001
0100
0010
1000
0001
,
1000
0001
0010
0100
1000
0001
1000
0100
0010
0100
1000
0001
1000
0010
0100
0001
,
1000
0010
0100
0001
1000
0001
0010
0100
1000
0100
0010
0001
1000
0001
0100
0010
,
0100
0001
1000
0001
1000
0100
0010
0001
0100
0001
1000
0100
1000
0010
1000
0001
,
0010
0001
0100
0001
1000
0100
0010
0001
1000
0010
1000
0100
0010
0100
1000
0001
,
0010
0001
1000
0010
1000
0100
0010
0001
1000
0010
1000
0100
0010
0100
1000
0001
,
0020
0030
0000
0000
0000
0000
0000
0000
0000
0000
0000
0000
0002
0003
2000
3000
,
0002
0003
0010
0000
0100
0000
0001
0000
1000
0000
0001
0000
0010
0000
0100
0000
,
1000
0010
0100
0001
1000
0001
0100
0010
,
1000
0010
0100
0001
1000
0100
0010
0001
,
1000
0010
1000
0100
0010
0001
1000
0010
,
0100
0001
1000
0001
0010
0100
1000
0010
,
0100
0001
1000
0001
0100
0010
1000
0010
,
0100
0000
0001
0000
1000
0000
0100
0000
0010
0000
0001
0000
1000
0000
0020
0030
,
2000
3000
0200
0300
0020
0030
0002
0003
2000
3000
0020
0030
0200
0300
0002
0003
,
1000
0001
0010
0100
1000
0001
0100
0001
0010
0001
1000
0100
1000
0001
0010
0100
,
1000
0001
1000
0010
0100
0001
1000
0001
0010
0100
1000
0001
1000
0010
0100
0001
,
0010
0100
1000
0001
0010
0001
1000
0010
1000
0100
1000
0001
0010
0001
1000
0010
,
1000
0100
1000
0001
0010
0001
1000
0010
1000
0100
0010
0100
1000
0001
0010
0001
,
1000
0010
0100
0001
1000
0001
0010
0100
1000
0001
0010
0001
0100
0010
0100
0001
,
1000
0100
0010
0001
1000
0001
0100
0010
1000
0001
0100
0001
1000
0100
1000
0010
,
0100
0001
1000
0100
0010
0001
1000
0001
0100
0010
1000
0001
1000
0100
0010
0001
,
0200
0000
0000
0000
,
0301
1000
0100
1000
,
0000
0000
0000
0000
,
0010
0100
0001
0010
,
0001
1000
0100
0010
,
0001
1000
0100
1000
,
0000
0001
0000
0000
,
0100
0001
1000
0010
,
0100
0001
0010
0001
,
1000
0100
0010
0100
,
0000
0000
0000
0000
,
1000
0010
0100
0001
,
0010
0001
1000
0001
,
0100
0010
1000
0100
,
0000
0010
0000
0001
,
1000
0010
0100
0001
,
0010
0100
1000
0001
,
0100
0020
0000
0000
,
0000
0000
0000
0000
,
0000
0000
0000
0000
,
1030
0010
0100
0001
1000
0001
1000
0100
0010
0001
1000
0001
1000
0010
0100
0001
,
1000
0001
0010
0100
1000
0001
0100
0001
1000
0001
1000
0100
0010
0001
1000
0001
,
1000
0010
0100
0010
1000
0001
1000
0001
1000
0100
1000
0100
0010
0001
0010
0001
,
1000
0010
1000
0001
0100
0010
1000
0001
0010
0001
1000
0100
0010
0100
1000
0001
,
1000
0001
0100
0010
0100
0001
1000
0010
1000
0001
0100
0010
1000
0001
1000
0100
,
0020
0031
0010
0001
1000
0001
1000
0010
0100
0001
0100
0001
0100
0001
1000
0100
,
0010
0001
0010
0100
1000
0001
1000
0010
0100
0010
1000
0001
0100
0001
1000
0100
,
1000
0001
0010
0001
1000
0010
1000
0001
1000
0100
0010
0001
1000
0010
0100
0001
,
0100
0001
1000
0100
0010
0001
1000
0100
1000
0001
1000
0001
0100
0010
0100
0001
,
1000
0100
1000
0001
0100
0010
1000
0001
1000
0100
0010
0001
1000
0001
0100
0010
,
0100
0001
1000
0010
1000
0001
1000
0100
0010
0001
0010
0100
1000
0001
1000
0001
,
0100
0010
0100
0001
1000
0010
1000
0001
1000
0100
0010
0001
0010
0100
1000
0001
,
1000
0001
0100
0010
0100
0001
1000
0010
1000
0001
0100
0010
1000
0001
0010
0100
,
0010
0001
1000
0100
1000
0001
0100
0001
1000
0010
0100
0010
1000
0001
0010
0100
,
1000
0100
0010
0001
1000
0010
0100
0001
1000
0001
0010
0100
0010
0001
1000
0100
,
1000
0001
0100
0001
1000
0100
0010
0001
0010
0100
1000
0001
1000
0001
0100
0010
,
1000
0010
1000
0001
0100
0010
1000
0001
1000
0001
0010
0100
1000
0001
1000
0100
,
0010
0100
1000
0001
1000
0010
0100
0001
1000
0010
0100
0001
1000
0001
0010
0100
,
1000
0100
0010
0001
1000
0001
0100
0010
0100
0001
1000
0001
1000
0100
0010
0001
,
0100
0001
1000
0100
1000
0010
1000
0001
0010
0001
0100
0001
1000
0100
0010
0001
,
2000
3000
0000
0000
0000
0000
0000
0000
1000
0100
1000
0000
0002
0000
0000
0000
,
1003
0010
1000
0100
0010
0100
1000
0001
0010
0001
1000
0010
1000
0100
0010
0001
,
1000
0010
1000
0100
0010
0100
1000
0001
0100
0010
1000
0100
0010
0100
1000
0001
,
0100
0010
1000
0100
1000
0001
1000
0001
0100
0010
1000
0100
0010
0100
1000
0001
,
0100
0001
0010
0001
1000
0010
0100
0001
0010
0001
1000
0010
1000
0100
1000
0001
,
0100
0001
0010
0001
1000
0010
0100
0001
0010
0001
1000
0010
1000
0001
0010
0100
,
1000
0100
1000
0001
0010
0001
1000
0010
1000
0001
1000
0100
0010
0001
1000
0010
,
0100
0001
0100
0001
1000
0100
0010
0001
1000
0100
1000
0001
1000
0001
0100
0010
,
0100
0001
1000
0100
1000
0001
0100
0010
1000
0001
1000
0100
0010
0001
1000
0001
,
0100
0010
0100
0001
1000
0010
1000
0001
1000
0100
0010
0001
0010
0100
1000
0001
,
1000
0001
0100
0010
0100
0001
1000
0010
1000
0001
1000
0100
0010
0001
0010
0100
,
1000
0001
1000
0001
0100
0010
0100
0001
1000
0010
1000
0001
0100
0010
1000
0001
,
0010
0100
0010
0001
1000
0100
1000
0001
0100
0001
1000
0010
0100
0010
1000
0001
,
0010
0100
1000
0100
0010
0001
1000
0010
0100
0001
1000
0001
0010
0100
0010
0001
,
1000
0100
1000
0001
0100
0001
1000
0100
0010
0001
0010
0100
1000
0001
1000
0001
,
0100
0010
1000
0010
1000
0001
0100
0010
1000
0001
1000
0001
0010
0100
1000
0001
,
1000
0100
0010
0100
1000
0001
1000
0010
0100
0001
1000
0010
0100
0001
1000
0001
,
0010
0100
1000
0001
0100
0010
1000
0100
,
1000
0001
0100
0010
1000
0001
0100
0001
,
0010
0001
1000
0100
0010
0001
1000
0010
,
0100
0001
0010
0001
1000
0100
1000
0010
,
0100
0001
1000
0001
0010
0100
1000
0001
,
0100
0001
1000
0100
1000
0010
0100
0001
,
0010
0100
1000
0001
0100
0010
1000
0100
,
0020
0030
0200
0300
2000
3000
0002
0003
0020
0030
0002
0003
0002
0003
2000
3000
,
0001
1000
0001
0100
0010
0100
0001
1000
0001
1000
0100
0010
0001
0100
0001
1000
,
0100
1000
0010
1000
0001
0010
0001
0100
0001
1000
0100
0010
0001
1000
0010
1000
,
0100
0010
0100
1000
0001
0010
0001
1000
0010
1000
0100
0010
0001
1000
0010
1000
,
0100
0010
0100
1000
0001
0010
0001
1000
0100
1000
0001
0010
0100
1000
0001
1000
,
0010
0100
0001
1000
0001
0010
0100
1000
0001
1000
0010
0100
0001
0010
0100
1000
,
0001
0010
0001
1000
0010
1000
0100
1000
0001
0010
0001
1000
0010
1000
0100
1000
,
0001
0010
0001
1000
0010
1000
0100
0010
0100
1000
0001
0010
0001
1000
0010
0100
,
0001
1000
0001
0010
0100
1000
0001
0010
0001
0100
0010
0100
0001
1000
0100
0010
,
0002
0000
0000
0000
,
0000
0000
0000
0000
,
0003
0000
0000
0000
,
0000
0000
0000
0000
,
00M0
0000
0000
0000
;
