#TITLE:Crash;
#SUBTITLE:;
#ARTIST:m1dy;
#TITLETRANSLIT:;
#SUBTITLETRANSLIT:;
#ARTISTTRANSLIT:;
#CREDIT:;
#BANNER:../speedcore rejects ban.png;
#BACKGROUND:../speedcore rejects bg.png;
#LYRICSPATH:;
#CDTITLE:;
#MUSIC:Crash.ogg;
#OFFSET:-0.864;
#SAMPLESTART:63.098;
#SAMPLELENGTH:12.000;
#SELECTABLE:YES;
#BPMS:0.000=300.200;
#STOPS:;
#BGCHANGES:;
// cache tags:
#FIRSTBEAT:12.000;
#LASTBEAT:702.000;
#SONGFILENAME:Songs/Speedcore Rejects/Crash - [Aoreo]/Crash.sm;
#HASMUSIC:1;
#HASBANNER:1;
#MUSICLENGTH:145.066;
// end cache tags

//---------------dance-single - J. Nero----------------
#NOTES:
     dance-single:
     J. Nero:
     Challenge:
     13:
     1.000,1.000,0.676,0.138,0.296,904.000,98.000,20.000,5.000,2.000:
0000
0000
0000
0000
,
0000
0000
0000
0000
,
0000
0000
0000
0000
,
1000
0001
1000
0010
0100
0001
1000
0000
,
0001
0010
0100
1000
,
0010
0000
0000
0000
0100
0000
0000
0000
0001
1000
0001
1000
0001
1000
0001
1000
,
0001
0000
0000
1000
0001
0000
1000
0000
,
0010
0000
0000
0100
0000
0000
0002
0000
,
1003
0100
1000
0100
0010
0001
0010
0001
0100
0001
0100
0000
0001
0000
0000
0000
,
1000
0000
0000
0000
0010
0000
0000
0000
0100
0000
0000
0000
0001
1000
0001
1000
,
0001
0100
0001
0100
0010
1000
0010
1000
0010
1000
0010
0000
0000
0000
0000
0000
,
1000
0100
1000
0100
1000
0001
0100
0001
0100
0010
0100
0010
1000
0000
0000
0000
,
0001
0100
0001
0100
0010
1000
0010
0100
0002
0000
0003
0000
0020
0000
0030
0000
,
0200
0300
1000
0010
0100
0001
1000
0001
,
1001
0000
0000
1MM1
,
0001
1000
0010
1000
0010
0100
0001
1000
,
0001
0000
1000
0010
1000
0000
0010
0000
1000
0000
0010
0000
0100
0000
0000
0000
,
0001
0100
0001
1000
0010
1000
0100
0010
,
0001
0000
0100
0001
0100
0000
0010
0000
1000
0000
0010
0000
0100
0000
0000
0000
,
0001
1000
0100
0010
0001
0100
0001
0100
,
0010
0000
1000
0100
1000
0000
0100
0000
0010
0000
0001
0000
0010
0000
0000
0000
,
0100
1000
0100
1000
0010
0100
0001
1000
,
0002
0003
2000
3000
0200
0300
0020
0030
,
0111
0000
0100
1000
0010
0100
0001
1000
,
0001
0100
0101
0000
,
1001
0000
1000
0001
0010
0100
1000
0010
,
0100
0010
1010
0000
,
1001
0000
1000
0100
0010
0001
0010
0100
,
1000
0010
0110
0000
,
1111
0000
0000
0000
,
4004
0000
0000
0000
0000
0000
0000
0000
0000
0000
0000
0000
0000
0000
0000
3003
,
1000
0001
0010
0100
,
1000
0010
0100
0001
,
0010
0100
1000
0010
,
0100
0000
0001
0000
1000
0000
0001
1000
,
0100
0010
0001
0010
,
0100
1000
0010
0100
,
0001
1000
0010
0100
,
0001
1000
0100
0010
0001
0010
0100
1000
,
0001
0100
0010
1000
,
0100
1000
0010
0100
,
0001
0010
0100
1000
,
0010
0000
0100
0000
0001
0000
1000
0010
,
1000
0010
0100
0001
,
0010
0100
1000
0010
,
0100
0001
1000
0010
,
1000
0000
0001
0100
0010
1000
0010
0000
,
0101
0100
0001
0010
,
0110
0100
1000
0010
,
0100
0001
1000
0010
,
0110
0000
0100
0000
0001
0000
0200
0001
,
1300
0010
1000
0100
,
0110
0010
0001
1000
,
0010
0100
0001
1000
,
1001
0000
0001
0000
0201
0000
0302
1000
,
0103
0010
0001
0100
,
0110
0010
1000
0001
,
0010
0100
1000
0010
,
0101
0000
0100
0000
0010
0000
2000
0100
,
3010
0001
0100
0010
,
1010
1000
0001
0010
,
1100
1010
0110
0101
,
0001
0000
1000
0001
1000
0000
0001
0000
1000
0000
0000
0000
0000
0000
0000
0000
,
1001
0001
0010
0100
,
0000
1000
0010
0100
0001
0010
0100
1000
,
0001
0100
0010
1000
,
0000
0001
0010
0100
1000
0100
0020
0001
,
0130
0010
1000
0001
,
0000
0100
0010
1000
0001
0100
0010
1000
,
0100
0010
0001
0010
,
0100
0000
1000
0000
0010
0000
0200
0001
,
1300
0001
0010
0100
,
0000
1000
0010
0100
0001
1000
0010
0100
,
0001
0010
0100
1000
,
0000
0001
0100
0010
2000
3010
0200
0301
,
1000
0100
0010
0001
,
0101
1000
0100
0010
,
0001
0010
0001
0100
0010
1000
0010
0100
,
0001
0000
0000
0000
1000
0000
0000
0000
0001
0100
0001
0100
0010
1000
0010
0100
,
0001
0000
0000
0000
,
0000
0000
0000
0000
,
0000
0000
0000
0000
0000
0000
0000
0000
0000
0000
1000
0001
1000
0001
1000
0001
,
1000
0001
1000
0001
1000
0000
0000
0000
0000
0000
0000
0000
0000
0000
0000
0000
,
0000
0000
0000
0000
,
0000
0000
0000
0000
,
0000
0000
0000
0000
0000
0000
0000
0000
0000
0000
0000
0000
1000
0000
0001
0100
,
0001
0000
1000
0000
0040
0000
0030
0000
0400
0000
0300
0000
0001
0000
1000
0001
,
1000
0001
1000
0000
0000
0000
0000
0000
0000
0000
0000
0000
0000
0000
0000
0000
,
0000
0000
0000
0000
,
0000
0000
1000
1000
,
0001
0000
0100
0001
0100
0001
0100
0001
0100
0001
0100
0001
1000
0000
0000
0000
,
0001
1000
0001
1000
0001
1000
0001
1000
0001
1000
0001
1000
0001
1000
0001
1000
,
0001
1000
0000
0100
0000
0010
0000
0001
,
0000
0100
0000
0010
0000
1000
0000
0001
,
0000
1000
0000
0010
0000
0100
0000
0001
,
0010
0000
0100
0000
1000
0000
0001
0000
1000
0001
1000
0001
1000
0000
0001
0000
,
0100
0110
0010
1000
,
0001
0000
0010
0000
0100
0000
1000
0010
,
1000
0001
0010
0100
1000
0010
0100
0000
,
0010
1000
0100
0010
,
0001
0101
0100
0010
,
1000
0100
0010
0001
,
0100
0010
1000
0001
0010
0100
1000
0001
,
1000
0000
0001
0100
0001
0000
0010
0000
0100
0000
1000
0000
0010
0000
0100
0000
,
0001
1001
0100
0010
,
1000
0001
0010
0100
,
1000
0010
0100
0001
0010
0100
1000
0000
,
0010
0100
0001
0010
,
0100
1100
1000
0010
,
0100
0000
0001
0000
1000
0010
0100
0001
,
1000
0001
1000
0001
1000
0001
1000
0001
1000
0001
1000
0001
1000
0000
0000
0000
,
0000
0000
0000
0000
,
1001
0000
0000
0000
0001
1000
0100
0010
,
0001
0010
0001
0010
0001
0010
0000
0000
0011
0000
0000
0000
0000
0000
0000
0000
,
0001
0000
1000
0000
0010
0000
1000
0000
0010
1000
0010
1000
0010
1000
0000
0000
,
1010
0000
0000
0000
0010
0100
0001
1000
,
0001
1000
0001
1000
0001
1000
0000
0000
1001
0000
0000
0000
0000
0000
0000
0000
,
0001
0000
0010
0000
0100
0000
1000
0000
0100
0010
0100
0010
0100
0010
0000
0000
,
0110
0000
0000
0000
0010
0001
0100
0001
,
1000
0001
1000
0001
1000
0001
0000
0000
1001
0000
0000
0000
0000
0000
0000
0000
,
1000
0000
0010
0000
0100
0000
0001
0000
0100
0001
0100
0001
0100
0001
0000
0000
,
0101
0000
0000
0000
0001
1000
0100
1000
,
0010
1000
0010
1000
0010
1000
0000
0000
1010
0000
0000
0000
0000
0000
0000
0000
,
0000
0000
0000
0000
,
0000
0000
0000
0000
0110
0000
0000
0101
,
0000
0000
1001
0000
0000
1100
0000
0000
,
0004
0000
0403
0000
0310
1000
0010
1000
,
0001
0010
0100
1000
0010
0100
0010
1000
,
0001
1001
1000
0100
,
0010
0001
0100
0010
,
1000
0000
0010
0000
0100
0001
0100
0010
,
1000
0010
1000
0100
0010
0001
0100
0000
,
0110
0110
0010
1000
,
0001
0010
0100
1000
,
0010
0000
0100
0000
0001
0010
0100
1000
,
0100
1000
0001
0100
0001
0100
0010
1000
,
0001
0000
1001
0000
1000
0100
1000
0010
,
0100
0001
0010
0100
1000
0010
0100
0001
,
1000
0100
0010
0001
0010
0100
1000
0010
,
0100
0001
1000
0010
1000
0000
1010
0000
,
0110
0000
0101
0000
0004
0003
1000
0000
,
0001
0010
0100
1000
,
0010
0000
2MMM
0000
3001
0100
0010
1000
,
0100
0010
0001
1000
0001
0100
0010
1000
,
0010
0100
0001
1000
0100
0000
0010
0000
,
0001
0100
0010
1000
,
0001
0000
0010
0000
0100
1000
0010
1000
,
0010
0100
0001
0100
0010
1000
0100
0010
,
0001
1000
0010
0100
0001
1000
0100
0010
,
0001
1000
0001
0100
0010
1000
0001
1000
,
0100
0010
0001
0010
0011
0000
0101
0000
,
1010
1001
0110
0101
,
1010
1100
0110
0011
,
0110
1100
1010
1010
,
1010
1010
0110
0110
,
0110
0110
0101
0101
,
0101
0101
1001
1001
,
1001
1001
1010
1010
,
1010
0000
1010
0000
1000
0010
0100
0000
,
0010
1000
0000
0010
1000
0000
0001
0000
,
0010
0100
1100
1000
,
0010
0100
0001
0010
,
0100
0000
1000
0000
0110
0000
0010
1000
,
0010
0000
1000
0001
0000
1000
0001
0000
,
0010
0000
0100
0000
1100
0000
0000
1100
,
0000
0000
1001
0000
0000
0101
0000
0000
,
4000
0000
3002
0003
1100
0000
1000
0010
,
1000
0000
0010
0100
0000
0100
0001
0000
,
0010
0100
1100
1000
,
0010
0100
0001
0010
,
0100
0000
1000
0000
1001
0000
0001
0100
,
0010
0000
1000
0010
0000
0010
0100
0000
,
0001
0000
1000
0000
1001
0000
0000
0110
,
0000
0000
1001
0000
0000
0110
0000
0000
,
4004
3003
0110
0000
2002
0000
0000
0000
,
0000
0000
3003
0000
;
