#TITLE:Pandemonium Vs Max 300;
#SUBTITLE:;
#ARTIST:Killah & Crazy ><((*>;
#TITLETRANSLIT:;
#SUBTITLETRANSLIT:;
#ARTISTTRANSLIT:;
#CREDIT:;
#BANNER:;
#BACKGROUND:Pandemonium Vs Max 300 - Fwish Krew-bg.bmp;
#LYRICSPATH:;
#CDTITLE:;
#MUSIC:Pandemonium Vs Max 300 - Fwish Krew.mp3;
#OFFSET:0.000;
#SAMPLESTART:100.000;
#SAMPLELENGTH:12.000;
#SELECTABLE:YES;
#BPMS:0.000=330.000,129.000=300.000,314.000=330.000,401.500=300.000,522.000=329.999,910.000=499.997;
#STOPS:129.000=0.100
;
#BGCHANGES:;
// cache tags:
#FIRSTBEAT:33.000;
#LASTBEAT:961.000;
#SONGFILENAME:Songs/juju steps/Pandemonium Vs Max 300 - Fwish Krew/Pandemonium Vs Max 300.sm;
#HASMUSIC:1;
#HASBANNER:0;
#MUSICLENGTH:173.016;
// end cache tags

//---------------dance-single - Crazy and Killah ><(----------------
#NOTES:
     dance-single:
     Crazy and Killah ><(:
     Hard:
     9:
     0.883,1.000,0.780,0.075,0.000,922.000,135.000,13.000,158.000,0.000:
0000
0000
0000
0000
,
0000
0000
0000
0000
,
0000
0000
0000
0000
,
0000
0000
0000
0000
,
0000
0000
0000
0000
,
0000
0000
0000
0000
,
0000
0000
0000
0000
,
0000
0000
0000
0000
,
0000
1000
0100
0010
,
0001
0010
0100
1000
,
0010
0010
0001
0010
,
0100
0010
0100
0001
,
0000
1000
0010
0100
,
0001
0010
0100
1000
,
0100
0010
1000
0100
,
0010
0000
0001
0000
1000
0000
1000
0010
,
0100
0100
0010
0100
,
0001
0010
1000
0100
,
1000
0010
0001
0010
,
0010
1000
0001
0100
,
0000
0010
1000
0100
,
0001
1000
0001
0010
,
0100
1000
0100
0001
,
1000
0000
0010
0000
0100
0000
1000
0100
,
0010
0001
0000
0000
,
1010
0000
0000
0000
,
0101
1010
0000
0000
,
0110
0000
0000
0000
,
1010
0101
0000
0000
,
1001
0110
0000
0000
,
0101
0110
1001
0110
,
1001
1001
0000
0000
,
0000
0000
1001
0000
1000
0000
0100
0100
,
0010
0000
1000
0000
0100
0000
0010
0010
,
1000
0000
0100
0000
0001
0000
0010
0010
,
1000
0100
0001
0000
0010
0000
0000
0000
,
0010
0000
0100
0000
0001
0010
0000
0000
,
1000
0000
0010
0000
0100
0010
0000
0000
,
0001
0010
0001
0000
1000
0100
1000
0000
,
0001
0010
1000
0100
0001
0010
1000
0100
,
0010
0000
0100
0000
0001
0000
1000
0100
,
0010
0000
0100
0000
0010
0000
1000
0100
,
0010
0000
0100
0000
0001
0100
1000
0000
,
1000
0000
0100
0010
0001
0000
0010
0000
,
1000
0100
0010
0001
0010
0100
1000
0010
,
0100
0001
0100
0010
1000
0100
0001
0010
,
0001
1000
0100
1000
0010
0100
0010
0001
,
1000
0100
0010
1000
0010
0100
0010
0001
,
1000
0000
0010
0100
0001
0000
1000
0000
,
0010
0000
1000
0010
0100
0000
0010
0000
,
0100
0000
0001
0010
1000
0000
0010
0000
,
0100
0000
0001
0010
0100
0000
0010
0000
,
1000
0000
0001
0100
0010
0000
1000
0000
,
0100
0010
0001
0010
,
1100
0000
0000
0011
0000
0000
1100
0000
,
0000
0011
0100
1000
0100
0100
1000
0100
,
1001
0100
0010
0100
,
0001
1000
0001
0000
,
1000
0100
0001
0010
,
1000
0100
0010
0010
0100
0000
0000
0000
,
0010
0100
0010
0001
,
1000
0010
0001
0000
,
1000
0100
0001
0010
,
1000
0001
0010
0000
,
1000
0010
0100
0010
,
1000
0001
0010
0000
,
1000
0000
0010
0100
0001
0010
0100
0000
,
0110
1001
0110
1001
,
1001
1100
0110
1010
,
0101
1010
1001
0101
,
0110
1100
0101
0011
,
1100
0110
1100
0011
,
1000
0010
0100
0001
,
1000
0010
0100
0010
,
0000
0000
1000
0000
0010
0000
0001
0100
,
0010
0000
1000
0000
0001
0000
0100
0100
,
0010
0000
0001
0000
1000
0000
0001
0100
,
0010
0000
1000
0000
0100
0000
0010
0100
,
0010
0000
1000
0100
,
0010
0100
0001
1000
,
0100
0001
0010
1000
,
0010
0000
0100
0000
0001
0000
0010
0001
,
0100
1000
0100
0010
,
0100
0010
0001
0010
,
0100
1000
0100
1000
,
0010
0000
0001
0000
0100
0001
0010
0100
,
1000
0010
0100
0000
0010
0000
1000
0000
,
0100
0010
0001
0010
,
0100
0001
0010
0100
,
0010
0100
0001
1000
,
0000
0010
0100
0010
,
1000
0001
0100
0010
,
0100
1000
0010
0001
,
0100
0000
0010
0000
1000
0010
0001
0000
,
0010
1000
0100
0000
0010
0000
1000
0000
,
0010
0001
1000
0100
,
0000
1000
0010
0001
,
0100
0010
1000
0010
,
0000
1000
0010
0010
,
0100
0001
0010
0010
,
0001
0000
0000
0000
0100
0010
0001
0000
,
0010
0100
1000
0000
0100
1000
0001
0000
,
0010
0001
1000
0000
0001
0100
1000
0000
,
0010
0010
0100
0000
0010
1000
1000
0000
,
0100
0100
0010
0000
1000
0100
0001
0000
,
0100
0001
0010
0000
0010
0100
1000
0000
,
0100
0010
0001
0000
0001
0100
1000
0000
,
1000
0100
0001
0000
0100
0010
0100
0000
,
1000
0000
0010
0000
1000
0010
0001
0010
,
1000
0010
0100
0001
,
1000
0000
0010
0000
1000
0100
1000
0001
,
0010
1000
0010
0100
,
0010
1000
0100
1000
0010
0000
1000
0000
,
0001
0010
0001
0010
0001
0000
1000
0000
,
1000
0100
1000
0100
1000
0001
0010
0001
,
0010
0001
0100
0010
0100
0010
0100
1000
,
1001
0000
1000
0000
0100
0010
0100
0000
,
0010
0000
0110
0000
0000
1001
0000
0000
,
0000
1000
0000
0100
0000
0001
0000
0100
,
1000
0000
1010
0000
0000
0101
0000
0000
,
0000
1000
0000
0100
0000
0001
0001
0000
,
0100
0000
0000
1010
0000
0000
0101
0000
,
0000
0100
0000
0100
0000
0100
0010
0000
,
0010
0000
1010
0000
0000
0101
0000
0000
,
1100
0000
1000
0100
1000
0000
1100
0000
,
0011
0000
0001
0010
0001
0000
0011
0000
,
0110
0000
0100
0010
0100
0000
0110
0000
,
0110
0000
0010
0100
0010
0000
1000
0000
,
1000
0100
0010
0001
0010
0100
1000
0010
,
0100
0001
0100
0010
1000
0001
0010
0100
,
1000
0000
1000
0010
,
0100
0001
1000
0010
,
0100
0010
0100
0010
,
0100
1000
0010
0010
,
1000
0100
0100
0010
,
1000
0010
0100
0000
0001
0000
0010
0000
,
1000
0010
0100
0001
,
1000
0010
0001
0001
,
0100
0010
0100
0010
,
1000
0100
0010
0000
0001
0000
0100
0000
,
0010
1000
0010
0100
,
0001
1000
0010
0100
,
0001
1000
0010
0100
,
0100
1000
0100
0000
0010
0000
0001
0000
,
0100
0010
1000
0010
,
0100
0010
1000
0001
,
0010
0100
1000
0010
,
0010
0100
0010
0000
1000
0000
0010
0000
,
0001
0100
0010
1000
,
0010
0001
0100
0010
,
1000
0000
0100
0000
0010
0000
0100
1000
,
0001
1000
0001
0000
0010
0000
1000
0000
,
0001
1000
0010
1000
,
0001
1000
0010
1000
,
0001
1000
0010
1000
,
0001
1000
0001
1000
0010
0000
0100
0000
,
0001
1000
0010
1000
,
1001
1000
0001
0100
,
0010
0100
1000
0010
,
0100
0010
0001
0100
1000
0000
0010
0000
,
0100
0001
1000
0100
,
0010
1000
0001
0100
,
1000
0000
0001
0010
0010
0000
0100
0100
,
0010
0100
1000
0000
1100
0000
1100
0000
,
1100
1100
0011
0011
,
0011
0000
0110
0110
,
0110
0110
1001
1001
,
1001
0000
0101
0101
,
0101
0101
1010
1010
,
1010
0000
1001
1001
,
1001
1100
0011
1100
,
0011
0000
MMM0
100M
,
MMM1
010M
MMM2
0000
,
MMM3
2M2M
3M3M
MMM2
,
0003
M10M
1MM0
0MM1
,
M10M
1010
MMMM
010M
,
1MMM
010M
MMM0
0000
,
0MM0
M22M
M00M
M33M
,
2MM2
0000
3MM3
M22M
,
M00M
M33M
2MM2
0000
,
0000
0000
0000
0000
,
0000
0000
0000
0000
,
3003
0000
0000
0000
,
0000
0000
2010
0001
,
0100
0010
0001
0100
,
0010
0001
0010
0100
,
0010
0001
0010
0100
,
0000
3000
0000
1010
,
0001
0000
1000
0100
1000
0100
1000
0000
,
0010
1000
0001
0010
,
1000
0000
0010
0001
0010
0001
0010
0000
,
1000
0010
0010
0100
,
0001
0000
0010
0100
0010
0100
0010
0000
,
1000
0010
0100
0001
,
1000
0000
0100
0001
0100
0001
0100
0000
,
1000
0010
0100
0001
,
0010
0000
1000
0010
1000
0010
1000
0000
,
0010
0100
0001
1000
,
0010
0000
1000
0100
1000
0100
0010
0000
,
0001
0100
0010
1000
,
0001
0000
0001
0010
0001
0010
0100
0000
,
1000
0010
0100
0001
,
0010
0100
0001
1000
,
0010
0000
1010
1010
,
1010
0110
0101
0101
,
0101
0000
0110
0110
,
0110
1001
0110
0110
,
1001
0000
1000
0010
,
0001
0000
1000
0100
1000
0000
0010
0000
,
1000
0000
1000
0100
,
1000
0000
0100
0010
0100
0000
1000
0000
,
0001
0000
0010
1000
,
0100
0000
0001
0010
0001
0000
0010
0000
,
0100
0000
1000
0010
,
0100
0000
0001
0010
0001
0000
0100
0000
,
1000
0000
1000
0010
,
0100
0000
0001
1000
0010
0000
0100
0000
,
1000
0100
0010
0001
,
0100
0010
1000
0001
,
0010
0100
1010
1010
,
1010
0110
0101
0101
,
0101
0000
0110
0110
,
0110
1001
0110
0110
,
1001
0000
0101
0101
,
0101
0110
1010
1010
,
1010
0000
1001
1001
,
1001
0110
1001
1001
,
0110
0000
MMMM
M000
,
MMM0
M000
M000
0000
,
MMMM
0MM0
0MM0
0MM0
,
MMMM
0000
MMMM
M000
,
MMMM
000M
MMMM
0000
,
M00M
M00M
MMMM
M00M
,
M00M
0000
00M0
0MM0
,
M0M0
MMMM
00M0
0000
,
M000
M000
M000
M000
,
MMMM
0000
M00M
0MM0
,
0M00
M000
0000
MMMM
,
M000
MMM0
M000
M000
,
0000
MMMM
M000
MMM0
,
M000
MMMM
0000
0000
;
