#TITLE:Piano Concerto No.9;
#SUBTITLE:;
#ARTIST:Mozart;
#TITLETRANSLIT:;
#SUBTITLETRANSLIT:;
#ARTISTTRANSLIT:;
#CREDIT:;
#BANNER:Concertoban.png;
#BACKGROUND:ConcertoBG.jpg;
#LYRICSPATH:;
#CDTITLE:!ObsTitle.png;
#MUSIC:Classical) - Mozart - Piano Concerto (techno remix).mp3;
#OFFSET:-0.180;
#SAMPLESTART:57.954;
#SAMPLELENGTH:12.000;
#SELECTABLE:YES;
#BPMS:0.000=132.760;
#STOPS:;
#BGCHANGES:;
// cache tags:
#FIRSTBEAT:0.000;
#LASTBEAT:442.250;
#SONGFILENAME:Songs/Keyboard Collaboration II/ObserverX - Piano Concerto No.9/concerto9.sm;
#HASMUSIC:1;
#HASBANNER:1;
#MUSICLENGTH:200.341;
// end cache tags

//---------------dance-single - ----------------
#NOTES:
     dance-single:
     :
     Hard:
     10:
     0.986,1.000,1.000,0.010,0.963,1103.000,278.000,2.000,0.000,0.000:  // measure 1
1001
0000
0000
0000
0000
0000
0000
0000
0000
0000
0000
0000
1000
0100
0010
0001
0000
0000
0000
0000
1000
0000
0000
0000
0010
0000
0000
0000
0100
0000
0000
0000
,  // measure 2
0011
0000
0000
0000
0000
0000
0000
0000
0000
0000
0000
0000
0001
0010
0100
1000
0000
0000
0000
0000
0001
0000
0000
0000
0100
0000
0000
0000
0010
0000
0000
0000
,  // measure 3
1100
0000
0000
0000
0000
0000
0000
0000
0000
0000
0000
0000
1000
0100
0010
0001
0000
0000
0000
0000
0100
0000
0000
0000
0010
0000
0000
0000
0100
0000
0000
0000
,  // measure 4
1001
0000
0110
0000
0000
1000
0100
1000
,  // measure 5
0110
0000
0000
0100
0010
0000
0000
0000
0000
0000
0001
0000
0010
0000
0100
0000
,  // measure 6
1001
0000
0000
0010
0100
0000
0000
0000
0000
0000
0001
0000
0100
0000
1000
0000
,  // measure 7
0100
0010
0000
0000
0010
1000
0000
0000
1000
0100
0000
0000
0100
0001
0000
0000
,  // measure 8
0001
0010
0000
0000
0010
1000
0000
0000
1000
0001
0000
0000
0001
0100
0000
0000
,  // measure 9
0100
0000
0000
1000
0000
0000
0000
0000
0000
0000
0000
0000
0100
0000
0000
0010
0000
0000
0000
0000
0000
0000
0000
0000
0001
0000
0010
0000
0100
0000
1000
0000
0000
0000
0000
0000
1000
0000
0100
0000
0010
0000
0001
0000
0000
0000
0000
0000
,  // measure 10
1000
0100
1000
0010
1000
0100
1000
0010
0100
0001
0100
0010
0001
0010
0100
1000
,  // measure 11
0100
0010
1000
0001
0100
0010
1000
0100
0010
0001
0010
0100
1000
0010
1000
0100
,  // measure 12
1000
0010
0100
0001
0010
0001
0010
0100
1000
0100
0010
0001
0010
0100
0010
0001
,  // measure 13
1100
0110
0011
0110
,  // measure 14
1100
1010
1001
0101
,  // measure 15
1100
0000
0000
0000
0110
0000
0000
1001
1001
0000
0000
0000
0000
0000
0000
0000
,  // measure 16
0001
0010
0001
0010
0001
0010
0001
0010
0001
0010
0001
0010
0001
0010
0001
0010
,  // measure 17
0001
0010
0001
0010
0001
0010
0001
0010
0001
0000
1100
0000
0110
0000
1100
0000
,  // measure 18
0001
0010
0100
0010
0001
0000
0000
0000
0000
0000
1010
0000
0110
0000
0101
0000
,  // measure 19
1000
0100
0010
0100
1000
0000
0000
0000
0000
0000
0101
0000
0110
0000
1100
0000
,  // measure 20
0010
0001
0010
0100
1000
0000
0000
0000
0000
0000
1100
0000
0110
0000
1001
0000
,  // measure 21
0011
0101
0110
0011
0011
1001
1010
1100
,  // measure 22
1100
1001
1010
0101
0110
0000
0000
1001
,  // measure 23
0001
0010
0000
0000
0010
0100
0000
0000
0100
1000
0000
0000
0100
0001
0000
0000
,  // measure 24
1001
0000
0110
0110
1010
1100
0101
0101
,  // measure 25
0011
0110
1100
0101
1001
0000
0000
0100
,  // measure 26
1001
0100
0010
0001
0001
0010
0100
1000
,  // measure 27
1001
0000
0000
0000
0110
0000
0000
1001
1001
0000
0000
0000
1001
0000
0000
0000
,  // measure 28
1001
0100
0010
0001
1000
0100
0010
0001
1000
0001
0010
0100
1000
0100
0010
0001
,  // measure 29
0110
1100
1100
1100
1001
0101
0101
0101
,  // measure 30
0110
0000
1000
0100
0010
0000
0000
0000
0000
0000
0001
0010
0100
0000
0000
0000
,  // measure 31
0000
0000
0100
0010
0001
0000
0000
0000
0000
0000
1010
0000
0101
0000
1010
0000
,  // measure 32
0101
0110
1001
0000
,  // measure 33
1001
0000
0000
0000
0000
0000
0000
0000
0000
0000
0000
0000
1000
0100
0010
0001
0000
0000
0000
0000
1000
0000
0000
0000
0100
0000
0000
0000
0001
0000
0000
0000
,  // measure 34
0110
0000
0000
0000
0000
0000
0000
0000
0000
0000
0000
0000
0001
0010
0100
1000
0000
0000
0000
0000
0001
0000
0000
0000
0100
0000
0000
0000
0010
0000
0000
0000
,  // measure 35
1100
0000
0000
0000
0000
0000
0000
0000
0000
0000
0000
0000
1000
0100
0010
0001
0000
0000
0000
0000
0100
0000
0000
0000
0010
0000
0000
0000
0100
0000
0000
0000
,  // measure 36
1001
0000
0101
0000
0000
0100
0001
0010
,  // measure 37
1001
0000
0000
0010
0100
0000
0000
0000
0000
0000
0001
0000
0010
0000
1000
0000
,  // measure 38
0101
0000
0000
0100
0010
0000
0000
0000
0000
0000
0010
0000
0001
0000
1000
0000
,  // measure 39
0001
0010
0000
0000
0100
0010
0000
0000
0100
0001
0000
0000
1000
0100
0000
0000
,  // measure 40
1000
0010
0000
0000
0010
0001
0000
0000
0100
0010
0000
0000
0100
0001
0000
0000
,  // measure 41
0010
0000
0000
0100
0000
0000
0000
0000
0000
0000
0000
0000
0001
0000
0000
0010
0000
0000
0000
0000
0000
0000
0000
0000
0001
0000
0010
0000
0100
0000
1000
0000
0000
0000
0000
0000
1000
0000
0100
0000
0010
0000
0001
0000
0000
0000
0000
0000
,  // measure 42
1000
0100
0010
0100
1000
0100
0010
0100
0011
0000
0110
0000
1010
0000
1100
0000
,  // measure 43
1001
0100
1000
0100
0010
0100
0010
0100
0010
0001
0010
0001
0010
0100
0010
0100
,  // measure 44
1000
0010
1000
0010
0100
0001
0100
0001
1000
0010
0100
1000
0100
0010
0001
1000
,  // measure 45
0100
0010
1000
0001
0100
0010
1000
0010
0100
0001
0100
0010
0001
1000
0100
0010
,  // measure 46
1001
0000
0100
0000
0010
0000
0100
0000
0010
0000
0000
0000
1000
0100
0010
0001
0000
0000
0000
0000
1010
0000
0000
0000
0011
0000
0000
0000
1100
0000
0000
0000
,  // measure 47
1001
0000
0100
0000
0010
0000
0100
0000
1000
0000
0000
0000
0001
0010
0100
1000
0000
0000
0000
0000
0101
0000
0000
0000
1100
0000
0000
0000
1010
0000
0000
0000
,  // measure 48
1001
0100
0010
1000
0001
0000
0000
0000
1100
0000
0000
0000
0101
0000
0000
0000
,  // measure 49
1000
0001
0100
0010
1000
0001
0100
0010
1000
0001
0100
0010
0001
0100
0010
1000
,  // measure 50
0100
0010
0001
1000
0100
0010
0001
1000
0001
0010
0100
1000
0001
0010
0100
1000
,  // measure 51
0001
0010
0001
0100
0001
0010
0001
0100
0010
1000
0001
0100
0010
1000
0001
0100
,  // measure 52
0010
0100
0001
0100
0010
0100
0001
0100
0010
1000
0010
1000
0010
0100
0001
0010
,  // measure 53
0100
1000
0001
0010
0100
1000
0010
0100
1000
0100
0001
1000
0100
0010
0001
1000
,  // measure 54
0100
0010
0001
1000
0100
0010
0001
1000
0001
0010
0100
1000
0001
0010
0100
1000
,  // measure 55
0001
0010
0001
0100
0001
0010
0001
0100
1000
0010
0100
0001
1000
0010
0100
0010
,  // measure 56
1000
0001
0100
0010
1000
0100
1000
0001
0010
0100
1000
0010
0001
0010
0100
0010
,  // measure 57
1000
0001
0100
0010
0100
0001
0100
0010
0100
0001
0100
0010
0100
0001
0010
0100
,  // measure 58
1001
1010
0101
0011
1100
1001
0101
1100
,  // measure 59
0110
0000
0000
0000
0000
0000
0000
0000
0100
0000
0010
0000
0000
0000
0000
0000
0110
0000
0000
0000
0000
0000
0001
0010
0100
0000
1000
0000
0010
0000
0100
0000
,  // measure 60
0011
0000
0000
0000
0000
0000
0000
0000
0010
0000
0100
0000
0000
0000
0000
0000
1100
0000
0000
0000
0000
0000
1000
0100
0010
0000
0001
0000
0100
0000
0010
0000
,  // measure 61
1100
0000
0000
0000
0010
0000
0000
0000
1100
0000
0000
0000
0001
0010
0100
0000
1000
0000
0000
0000
0010
0000
0000
0000
1000
0000
0000
0000
0001
0000
0000
0000
,  // measure 62
0110
0000
1010
0000
0101
0000
0100
0010
0100
0000
1000
0000
0011
0000
0110
0000
,  // measure 63
1100
0100
0110
0010
0011
0010
1010
1000
,  // measure 64
1001
1000
1010
0010
0110
0100
1100
0010
,  // measure 65
1001
0000
0100
0000
0110
0000
0000
1001
1001
0000
0000
0000
0000
0000
0000
0000
,  // measure 66
1000
0100
1000
0100
1000
0100
1000
0100
1000
0100
1000
0100
1000
0100
1000
0100
,  // measure 67
1001
0100
1000
0100
1000
0100
1000
0000
0101
0000
0010
0000
0100
0000
0010
0000
,  // measure 68
0011
0100
1000
0100
0010
0000
0000
0000
1010
0000
0100
0000
0010
0000
0100
0000
,  // measure 69
1001
0010
0001
0010
0100
0000
0000
0000
0101
0000
0010
0000
0001
0000
0010
0000
,  // measure 70
0011
0100
1000
0100
0010
0000
0000
0000
1010
0000
0100
0000
0010
0000
0100
0000
,  // measure 71
1001
0010
0001
0010
0100
0000
0000
0000
0000
0000
1100
0000
1010
0000
1100
0000
,  // measure 72
0011
0000
0000
0110
1100
1001
0110
1001
,  // measure 73
0011
0000
0000
0011
0110
1010
0101
0110
,  // measure 74
1001
0100
0010
0100
1000
0100
0010
0001
0010
0100
1000
0100
0010
0100
1000
0100
,  // measure 75
0010
0001
0010
0100
1000
0100
0010
0100
1000
0100
0010
0001
0010
0100
1000
0100
,  // measure 76
0011
0000
0000
0000
0010
0000
0000
0000
0110
0000
0000
0000
0010
0000
0000
0000
0011
0000
0000
0000
1000
0100
0010
0001
0000
0000
0000
0000
0010
0000
0000
0000
,  // measure 77
1100
0000
0000
0000
0101
0000
0000
0000
1100
0000
0000
0000
0000
0000
0000
0000
1100
0000
0000
0000
0001
0010
0100
1000
0000
0000
0000
0000
0001
0000
0000
0000
,  // measure 78
1010
0000
0110
0000
0101
0000
0000
0000
1001
0000
0100
0010
0100
0000
0011
0000
,  // measure 79
1001
0100
0001
0100
0001
1000
0010
1000
0010
0100
0010
0100
0010
1000
0010
1000
,  // measure 80
0110
0000
0000
0000
1001
0000
0000
0000
0101
0000
0000
0000
1000
0000
0000
0000
0101
0000
0000
0000
1000
0100
0010
0001
0000
0000
0000
0000
0010
0000
0000
0000
,  // measure 81
1100
0000
0000
0000
1010
0000
0000
0000
1100
0000
0000
0000
0010
0000
0000
0000
1001
0000
0000
0000
0001
0010
0100
1000
0000
0000
0000
0000
0100
0000
0000
0000
,  // measure 82
0011
0011
1100
1100
0101
0101
1010
1010
,  // measure 83
1001
0000
1000
0001
0100
0010
1000
0100
0010
0001
1000
0010
0100
0001
0100
0010
,  // measure 84
0001
0100
0010
1000
0001
0010
0100
1000
0001
0100
0010
1000
0001
0010
1000
0010
,  // measure 85
1001
0000
0100
0010
1000
0001
0100
0010
1000
0001
0100
0010
1000
0100
0010
0001
,  // measure 86
1000
0010
0100
0001
0100
1000
0100
0010
0001
0100
0010
1000
0001
0100
0010
1000
,  // measure 87
0110
0000
0000
0000
0000
0000
0000
0000
0000
0001
0010
0100
1000
0000
0000
0001
0010
0100
1000
0000
0000
0110
0000
0000
,  // measure 88
1001
0000
0000
0000
0000
0000
0000
0000
0000
1000
0100
0010
0001
0000
0000
1000
0100
0010
0001
0000
0000
1100
0000
0000
,  // measure 89
1001
0100
0010
1000
0001
0100
0010
1000
0100
0001
0010
0100
1000
0001
0100
0010
,  // measure 90
1100
0001
0010
0100
1001
0100
0010
1000
0011
0100
1000
0010
1100
0001
0100
0010
,  // measure 91
1001
0100
0010
0100
0001
0100
0010
0100
1001
0010
0100
0010
1000
0010
0100
0010
,  // measure 92
1001
0100
0010
0001
1000
0010
0100
0001
0100
0010
1000
0001
0010
1000
0010
0001
,  // measure 93
0110
1100
1100
1100
1100
1100
1100
1100
,  // measure 94
0011
0011
0011
0011
0011
0011
0011
0011
,  // measure 95
0110
0000
0110
0000
0000
1010
0011
1100
,  // measure 96
1001
0000
0000
0100
0010
0000
0000
0000
0000
0000
0011
0000
1010
0000
0101
0000
,  // measure 97
1001
0000
0000
0010
0100
0000
0000
0000
0000
0000
1010
0000
1100
0000
1001
0000
,  // measure 98
0110
0000
0000
0010
0001
0000
0000
0010
1000
0000
0000
0100
0001
0000
0000
0001
,  // measure 99
0110
1100
0110
1100
0011
0110
0011
0110
,  // measure 100
1100
0101
0110
0101
0110
0000
0000
1010
,  // measure 101
0100
0010
0000
0000
0001
0010
0000
0000
0100
0010
0000
0000
0100
1000
0000
0000
,  // measure 102
1100
0110
1100
0011
1100
0101
0011
1010
,  // measure 103
1001
0110
1100
0101
1001
0000
0000
0100
,  // measure 104
1001
0010
0100
1000
0100
0010
0001
0010
,  // measure 105
1001
0000
0000
0000
0110
0000
0000
1001
1001
0000
0000
0000
0110
0000
0000
0000
,  // measure 106
1000
0001
0100
0010
1000
0100
0010
0001
1000
0001
0010
0100
1000
0010
0100
0010
,  // measure 107
1000
0011
0011
0011
1100
1100
1100
1100
,  // measure 108
1001
0000
0001
0010
0100
0000
0000
0000
0000
0000
0010
0100
1000
0000
0100
0010
,  // measure 109
0100
0000
1000
0100
0001
0000
0000
0000
0000
0000
0001
0010
0001
0000
0000
0000
,  // measure 110
0000
0000
0001
0010
1000
0000
0000
0000
0000
0000
1010
0000
0101
0000
1010
0000
,  // measure 111
0101
0000
0000
0000
0110
0000
0000
0000
2002
3003
0000
0000
0000
0000
0000
0000
;
