#TITLE:Dark Chest of Wonders;
#SUBTITLE:;
#ARTIST:Nightwish;
#TITLETRANSLIT:;
#SUBTITLETRANSLIT:;
#ARTISTTRANSLIT:;
#CREDIT:;
#BANNER:Dark Chest of Wonders-bn.png;
#BACKGROUND:Dark Chest of Wonders-bg.png;
#LYRICSPATH:;
#CDTITLE:!scytlockTitle.png;
#MUSIC:Nightwish - Dark Chest of Wonders.mp3;
#OFFSET:-0.380;
#SAMPLESTART:116.480;
#SAMPLELENGTH:12.000;
#SELECTABLE:YES;
#BPMS:0.000=190.000;
#STOPS:;
#BGCHANGES:;
// cache tags:
#FIRSTBEAT:12.000;
#LASTBEAT:834.000;
#SONGFILENAME:Songs/toune 4/Nightwish - Dark Chest of Wonders/Nightwish - Dark Chest of Wonders.sm;
#HASMUSIC:1;
#HASBANNER:1;
#MUSICLENGTH:268.780;
// end cache tags

//---------------dance-single - ----------------
#NOTES:
     dance-single:
     :
     Hard:
     8:
     0.764,0.892,0.897,0.454,0.006,1074.000,241.000,122.000,0.000,0.000:  // measure 1
0000
0000
0000
0000
,  // measure 2
0000
0000
0000
0000
,  // measure 3
0000
0000
0000
0000
,  // measure 4
1001
0000
1000
0100
0000
0010
0100
0000
,  // measure 5
1000
0100
0000
0001
0010
0100
0010
0100
,  // measure 6
1001
0000
1000
0100
0000
1000
0010
0000
,  // measure 7
0001
0100
0000
1000
0100
0010
0100
0010
,  // measure 8
1001
0000
0100
0010
0000
0100
0001
0000
,  // measure 9
0001
0010
0001
0100
0001
1000
0010
1000
,  // measure 10
1001
0100
0010
0100
0000
0001
1000
0100
,  // measure 11
0010
0001
0000
0000
1010
0000
0101
0000
,  // measure 12
1010
0000
0101
0010
0100
0001
1010
0100
,  // measure 13
0010
0001
1010
0100
1000
0100
1001
0100
,  // measure 14
0010
0001
0110
1000
0100
0010
0101
1000
,  // measure 15
0010
0001
0110
1000
0010
0100
1001
0100
,  // measure 16
0010
0100
1010
0100
0001
0010
1100
0010
,  // measure 17
0001
0010
0001
0100
1001
0100
0001
0010
,  // measure 18
1000
0100
0010
0100
1000
0000
1001
0000
,  // measure 19
2000
0000
0000
0000
3000
0000
0020
0030
0020
0030
0020
0030
0020
0030
0020
0030
,  // measure 20
1001
0100
0010
1100
0010
0100
0010
0000
,  // measure 21
0001
0100
0010
1000
0010
0100
1000
0001
,  // measure 22
0010
0100
0001
0100
0001
1000
0010
0100
,  // measure 23
0001
0100
0010
0001
0100
0100
0001
0001
,  // measure 24
0010
1000
0100
0010
0100
0010
1000
0100
,  // measure 25
1000
0100
0010
0001
0001
0010
0100
1000
,  // measure 26
0001
0010
0100
0010
0000
0000
0001
0010
,  // measure 27
0100
0010
0000
0000
1001
0000
1001
0000
,  // measure 28
0001
0010
0100
1000
0100
0000
0000
0000
,  // measure 29
0001
0010
0100
1000
1000
0100
0010
0001
,  // measure 30
0001
0010
0100
1000
0100
0000
0000
0000
,  // measure 31
0000
0000
0000
0000
,  // measure 32
1000
0100
0010
0001
0010
0000
0000
0000
,  // measure 33
1000
0100
0010
0001
0001
0010
0100
0010
,  // measure 34
0001
0010
0001
0010
0100
1000
0100
1000
,  // measure 35
0010
0100
0010
0001
0100
1000
0100
0010
,  // measure 36
1000
0100
0010
0100
0001
0000
0010
0001
,  // measure 37
0010
0100
0010
0100
1000
0000
1000
0100
,  // measure 38
0010
1010
0101
1010
,  // measure 39
0101
0000
1000
0010
1000
0000
0100
0010
,  // measure 40
0001
0010
0100
0010
1000
0000
1000
0100
,  // measure 41
0010
0101
1010
0101
,  // measure 42
1010
0000
0100
0010
0100
0000
1000
0010
,  // measure 43
0100
0010
0001
0010
0100
0000
1000
0100
,  // measure 44
1000
1001
0110
1001
,  // measure 45
0110
0000
0010
0001
0010
0000
0100
0010
,  // measure 46
0001
1000
0100
1000
0001
0000
0010
0100
,  // measure 47
0010
2002
0000
0000
,  // measure 48
3003
0000
0000
0000
2020
0000
0000
3030
0000
0000
0000
0000
0202
0000
0000
0303
,  // measure 49
1100
0100
0010
0011
0010
0100
1100
0000
,  // measure 50
1000
1000
1010
0000
0001
0001
0101
0000
,  // measure 51
0100
0100
0110
0000
1000
0100
1000
0010
,  // measure 52
1010
0010
0110
0000
0101
0100
0110
0000
,  // measure 53
1001
1000
1001
0000
1000
0100
0010
0100
,  // measure 54
1001
0100
0010
0100
1010
0100
0001
0010
,  // measure 55
1100
0010
0100
0001
0110
1000
0001
1000
,  // measure 56
0020
0030
0001
0100
0000
0000
0010
0000
,  // measure 57
2002
0000
0000
0000
0000
0000
0000
3003
,  // measure 58
1001
0001
0101
0000
1001
1000
1010
0000
,  // measure 59
0110
0100
0101
0000
0001
0010
0001
0100
,  // measure 60
1001
1000
1100
0000
1100
0100
0110
0000
,  // measure 61
0110
0010
0011
0000
1000
0100
0001
0100
,  // measure 62
1001
0010
1000
0100
1010
0100
0001
0100
,  // measure 63
1010
0100
0001
0010
1100
0010
0100
0010
,  // measure 64
2002
3003
0001
0100
0000
0000
0100
0000
,  // measure 65
0002
0000
0000
0000
,  // measure 66
1003
0000
0100
0010
1000
0000
0100
0010
,  // measure 67
0001
0010
0100
1000
0100
0000
0010
0001
,  // measure 68
1000
1001
1010
1001
,  // measure 69
0101
0000
0010
0100
0001
0000
0010
0100
,  // measure 70
1000
0010
0100
1000
0100
0000
0001
0010
,  // measure 71
0100
1001
0101
0110
,  // measure 72
1001
0000
0001
0010
0001
0000
0001
0010
,  // measure 73
0100
1000
0100
0010
0001
0000
0001
0010
,  // measure 74
0001
1100
0011
1100
,  // measure 75
0011
0000
1000
0100
1000
0000
1000
0100
,  // measure 76
0010
0100
0010
0001
0010
0000
0010
0100
,  // measure 77
1000
0000
1001
0010
1001
0100
1001
0000
,  // measure 78
1001
0110
1001
0101
,  // measure 79
1001
0000
1010
0000
0001
0010
0100
1000
,  // measure 80
0101
1010
0101
0110
,  // measure 81
0101
0000
0011
0000
1000
0100
0010
0001
,  // measure 82
1001
0100
0010
0100
1010
0100
0001
0010
,  // measure 83
1100
0010
0100
0010
1001
0100
0010
0001
,  // measure 84
2020
3030
0100
0010
0000
0000
1000
0000
,  // measure 85
0000
0000
0200
0000
0000
0000
0000
0300
,  // measure 86
1010
0100
0011
0000
0101
0010
1100
0000
,  // measure 87
1010
0001
1010
0000
0001
0010
0100
1000
,  // measure 88
0101
0010
1100
0000
1010
0100
0011
0000
,  // measure 89
0101
1000
0101
0000
1000
0100
0010
0001
,  // measure 90
1001
0100
0010
0100
1010
0001
0010
0100
,  // measure 91
0011
0100
0010
0001
1010
0100
0010
1000
,  // measure 92
0202
0303
0010
0100
0000
0000
1000
0000
,  // measure 93
0001
0000
0000
0010
0000
0000
0100
0000
,  // measure 94
2020
0000
0000
3030
,  // measure 95
0001
0000
0010
0001
0000
0000
0100
0000
,  // measure 96
2000
0000
0000
0000
0000
3000
0000
0000
,  // measure 97
0001
0000
0010
0001
0000
0000
1000
0000
,  // measure 98
0020
0000
0030
0100
,  // measure 99
1001
0000
0100
0010
0000
0000
0001
0000
,  // measure 100
0000
0200
0000
0300
,  // measure 101
0010
1000
0001
1000
0001
0010
1001
0000
,  // measure 102
1010
0100
0010
0001
0110
0001
0010
0001
,  // measure 103
0110
1000
0010
0100
1010
0100
0001
0100
,  // measure 104
0011
0100
0010
0100
1001
0010
0100
0010
,  // measure 105
1100
0010
0001
0100
1010
0100
0001
0100
,  // measure 106
0020
0000
0000
0000
0000
0000
0000
0030
,  // measure 107
2000
0000
0000
0000
0000
3000
0000
0000
,  // measure 108
2002
0000
3003
0000
,  // measure 109
2000
0000
3000
0200
0000
0300
0020
0030
,  // measure 110
0002
0000
0000
0000
,  // measure 111
1003
0100
0010
0100
1010
0001
0010
0100
,  // measure 112
1001
0000
1010
0100
0000
0100
1010
0000
,  // measure 113
0010
0000
0001
0000
0010
0000
0100
0000
2020
0000
3030
0000
0001
1000
0001
0000
,  // measure 114
0100
1000
0010
0001
0010
1000
0100
0010
,  // measure 115
0100
0000
1000
0000
0001
0000
0100
0000
0010
0000
0000
0000
1000
0001
1000
0000
,  // measure 116
0001
0010
0100
0001
0010
1000
0010
0100
,  // measure 117
0001
0010
0100
0010
1000
0100
0010
0001
,  // measure 118
1000
0000
0100
0000
0010
0000
0100
0000
0010
0000
0100
0000
0001
1000
0001
0000
,  // measure 119
0010
0100
0000
0100
1001
0010
0100
0010
,  // measure 120
1001
1001
1001
1001
0000
0000
0110
0110
,  // measure 121
0110
0110
0000
0000
1010
1010
1010
1010
,  // measure 122
0000
0000
0101
0101
0101
0101
0000
0000
,  // measure 123
0000
0000
0000
0000
,  // measure 124
1001
0100
0010
0001
1100
0000
0001
0010
,  // measure 125
0100
2000
0000
0000
3001
0010
0100
2000
,  // measure 126
0000
0000
3001
0010
0101
1000
0000
0000
,  // measure 127
0100
0000
1000
0100
1000
0010
0002
0000
,  // measure 128
0000
0000
1003
0100
1010
0100
0000
0000
,  // measure 129
0001
0010
0100
0010
1100
0000
0002
0000
,  // measure 130
1003
0100
0020
0030
0100
0010
0002
0003
,  // measure 131
0010
0100
1000
0101
0000
0000
0010
0100
,  // measure 132
1000
0110
0000
0000
0100
0010
0001
1010
,  // measure 133
0000
0000
0100
0010
0001
0110
0000
0000
,  // measure 134
1001
0000
1010
0100
0010
0100
0002
0000
,  // measure 135
2000
3003
0010
0100
0011
1000
0000
0000
,  // measure 136
0001
0010
0100
1000
0101
0000
1000
0010
,  // measure 137
0100
0010
0001
0000
0100
0010
0100
0000
,  // measure 138
2000
0000
0000
0000
0000
0000
0000
3000
,  // measure 139
0200
0000
0000
0300
0020
0000
0000
0030
,  // measure 140
0002
0000
0000
0000
0000
0000
0000
0003
,  // measure 141
0200
0000
0000
0300
0020
0000
0000
0030
,  // measure 142
0002
0000
0000
0000
0000
0003
0020
0030
,  // measure 143
0200
0000
0000
0300
0020
0000
0000
0030
,  // measure 144
2000
0000
0000
0000
0000
0000
0000
3000
,  // measure 145
0002
0000
0000
0003
0020
0000
0000
0030
,  // measure 146
2001
3000
0000
0000
1002
0000
0000
0003
,  // measure 147
0020
0000
0000
0030
2000
0000
0000
3000
,  // measure 148
0002
0000
0000
0000
0000
0000
0000
0003
,  // measure 149
0200
0000
0000
0300
0002
0000
0000
0003
,  // measure 150
0020
0000
0000
0000
0000
0000
0000
0030
,  // measure 151
0200
0000
0000
0300
0020
0000
0000
0030
,  // measure 152
0001
0010
0001
0100
1000
0100
0001
0010
,  // measure 153
0100
1000
0010
0100
0010
1000
0100
0010
,  // measure 154
1000
1000
1000
1000
0000
0000
0001
0001
,  // measure 155
0001
0001
0000
0000
2002
0000
0000
3003
,  // measure 156
0101
0000
0110
0110
0101
0000
1010
0000
,  // measure 157
0110
0110
1010
0000
1001
0000
0110
0110
,  // measure 158
1001
0000
1001
0010
1001
0100
1010
0000
,  // measure 159
0100
0000
0010
0100
0010
0001
0020
0000
,  // measure 160
0000
0030
0001
0000
0001
0010
0200
0300
,  // measure 161
0010
0000
0010
0100
2000
3000
0001
0010
,  // measure 162
1000
0100
0010
0000
0001
0010
0100
0000
,  // measure 163
2010
0000
3010
0210
,  // measure 164
0000
0300
2001
0000
,  // measure 165
3000
0102
0000
0003
,  // measure 166
1001
0000
0001
0010
0100
1000
0001
0000
,  // measure 167
2000
3000
1002
0000
1000
0000
0003
0000
,  // measure 168
2001
0000
0000
3001
0000
0000
1002
0000
,  // measure 169
0003
0200
0000
0300
0001
0010
0100
0000
,  // measure 170
1000
0100
1000
0001
0100
0010
0100
1000
,  // measure 171
0002
0000
0003
0020
0000
0030
0200
0300
,  // measure 172
2000
0000
0000
0000
0000
0000
0000
3000
,  // measure 173
0020
0030
0100
2000
0000
3000
0200
0300
,  // measure 174
0002
0000
0000
0000
0000
0000
0000
0003
,  // measure 175
2000
3000
0100
0020
0000
0030
0002
0003
,  // measure 176
0200
0000
0000
0000
0300
0000
2000
3000
,  // measure 177
1001
0000
0100
1001
0000
0000
0002
0000
,  // measure 178
0000
0003
1000
0100
0010
1000
0100
0001
,  // measure 179
0010
0100
1000
0010
0100
0001
0100
0000
,  // measure 180
1001
0010
0100
0010
1100
0010
0001
0010
,  // measure 181
0101
0010
1000
0010
1100
0010
0001
0010
,  // measure 182
1100
0010
0100
0001
1010
0100
0001
0100
,  // measure 183
1010
0100
0001
0100
0011
0100
1000
0100
,  // measure 184
1010
0100
0001
0100
1001
0010
0100
0010
,  // measure 185
0101
1000
0010
0100
0011
0100
1000
0100
,  // measure 186
0020
0000
0000
0030
,  // measure 187
0200
0000
0300
0020
0000
0030
0200
0300
,  // measure 188
0020
0000
0000
0000
0000
0000
0000
0030
,  // measure 189
1001
0000
1001
0000
,  // measure 190
1001
1000
1001
0000
0010
1001
0000
0100
,  // measure 191
1001
0000
0000
0000
1001
0000
2020
3030
,  // measure 192
0001
0010
0100
1000
0010
0100
0000
0001
,  // measure 193
0100
0000
0010
1000
0000
0000
0000
0000
,  // measure 194
2020
0000
0000
0000
0000
0000
0000
3030
,  // measure 195
2002
0000
3003
2020
0000
0000
3030
0000
,  // measure 196
0001
0010
0100
0010
0100
1000
0100
0010
,  // measure 197
0001
0100
0010
1000
0100
0001
0010
0100
,  // measure 198
1001
0100
0010
0001
1010
0100
0001
0010
,  // measure 199
0101
0010
1000
0100
1010
0100
0010
0001
,  // measure 200
0011
0100
0010
0100
1010
0100
0001
1000
,  // measure 201
0110
0001
0010
0100
0011
0100
0010
0001
,  // measure 202
1100
0001
0010
0100
1010
0100
0010
0001
,  // measure 203
1010
0100
0001
0010
1100
0010
0100
0010
,  // measure 204
2002
0000
0000
0000
0000
0000
0000
3003
,  // measure 205
0202
0000
0303
2020
0000
3030
0220
0330
,  // measure 206
2002
0000
0000
0000
0000
0000
0000
3003
,  // measure 207
1001
0010
0100
0010
0001
0010
0100
0010
,  // measure 208
1001
1001
0000
0000
0000
0000
0110
2002
,  // measure 209
0000
0000
3003
0000
;
