#TITLE:Candshop V9 Turn it up!!;
#SUBTITLE:;
#ARTIST:DJ Bluecore;
#TITLETRANSLIT:;
#SUBTITLETRANSLIT:;
#ARTISTTRANSLIT:;
#CREDIT:;
#BANNER:;
#BACKGROUND:;
#LYRICSPATH:;
#CDTITLE:;
#MUSIC:Candyshop V9 turn it up!!.mp3;
#OFFSET:0.000;
#SAMPLESTART:32.432;
#SAMPLELENGTH:12.000;
#SELECTABLE:YES;
#BPMS:0.000=185.120,241.000=92.560,286.417=85.000,286.750=75.000,287.000=65.000,287.250=50.000,287.500=43.200,288.000=92.560,304.000=185.200;
#STOPS:50.875=0.860
,240.667=0.940
;
#BGCHANGES:;
// cache tags:
#FIRSTBEAT:8.000;
#LASTBEAT:560.000;
#SONGFILENAME:Songs/new cc/Candyshop. V9/CS.sm;
#HASMUSIC:1;
#HASBANNER:0;
#MUSICLENGTH:205.617;
// end cache tags

//---------------dance-single - ----------------
#NOTES:
     dance-single:
     :
     Hard:
     11:
     0.971,1.000,0.700,0.238,0.919,1205.000,144.000,49.000,0.000,3.000:
0000
0000
0000
0000
,
0000
0000
0000
0000
,
2000
0000
0000
0000
,
0000
0000
0000
0000
0000
0000
0000
0000
0000
0000
0000
0000
0000
0000
0000
0000
0000
0000
0000
0000
0000
0000
0000
0000
0000
0020
0000
0000
0000
0000
0000
0000
,
3000
0000
0000
0000
,
0000
0000
0000
0000
0000
0000
0000
0000
0000
0000
0000
0230
0000
0000
0000
0000
,
0000
0000
0000
0000
,
0000
0000
0000
0000
0000
0000
0000
0000
0000
0000
0000
0000
0000
0000
0000
0002
0000
0000
0000
0000
0000
0000
0000
0000
0300
0000
0000
0000
0000
0000
0000
0000
,
0000
0000
0000
0000
,
0000
0000
0000
0000
0003
0000
0000
0000
0000
0000
0000
0000
0000
1000
0000
0000
,
0000
0000
0000
0010
0000
0000
0000
0000
0000
0000
0000
0000
0000
0000
0000
0000
0000
0000
0000
0000
1001
0000
0000
0000
0000
0000
0000
0000
0000
0000
0000
0000
,
0000
0000
0000
0010
0000
0000
0000
0000
0000
0000
0000
0000
0000
0100
0000
0000
0000
0000
0000
0000
0000
0000
0000
0000
0000
0000
0000
0000
0000
0000
0000
0000
0000
0000
0000
0000
0000
0200
0000
0000
0000
0000
0000
0000
0000
0000
0000
0000
,
0000
0000
0000
0000
0000
0000
0000
0000
0000
0000
0000
0000
0000
0000
0000
0000
0000
0000
0000
0000
0000
0000
0000
0000
0000
0000
0000
0000
0000
0000
0000
0000
0000
0000
0000
0000
0000
0000
0000
0000
0000
0000
0000
0000
0000
0000
0000
0000
0000
0000
0000
0000
0000
0000
0000
0000
0000
0000
0000
0000
0000
0000
0000
0000
0000
0000
0000
0000
0000
0000
0000
0000
0000
0000
0000
0000
0000
0000
0000
0000
0000
0000
0000
0000
0000
0000
0000
0000
0000
0000
0000
0000
0000
0000
0000
0000
0000
0000
0000
0000
0000
0000
0000
0000
0000
0000
0000
0000
0000
0000
0000
0000
0000
0000
0000
0000
0000
0000
0000
0000
0000
0000
0000
0000
0000
0000
0000
0000
0000
0000
0000
0000
0000
0000
0000
0000
0000
0000
0020
0000
0000
0000
0000
0000
0000
0000
0000
0000
0000
0000
0000
0000
0000
0000
0000
0000
0000
0000
0000
0000
0000
0000
0000
0000
0000
0000
0000
0000
0000
0000
0000
0000
0000
0000
0000
0000
0030
0000
0000
0000
0000
0000
0000
0000
0000
0000
0000
0000
0000
0000
0000
0000
,
0302
0000
0000
0000
,
1003
0100
1000
0100
0000
0011
0000
0000
,
0001
0010
0001
0010
0000
1100
0000
0000
,
0001
0000
0010
0000
0100
0000
0100
0000
0010
0001
0010
0001
0010
0001
0010
0001
,
0010
0100
1000
0110
0000
0101
0000
0000
,
1000
0100
0011
1100
0000
0011
0000
0000
,
1000
0110
0001
0110
0000
0110
0000
0000
,
1000
0000
0100
0000
0010
0000
0010
0000
0100
1000
0100
1000
0100
1000
0100
1000
,
0100
0010
0001
0101
1000
0001
0010
0100
,
1000
0010
0100
0010
0001
1000
0100
0010
,
0100
1000
0010
0100
0001
0010
0100
0010
,
0001
1000
0010
0100
0001
0010
0100
1000
,
0100
0010
0001
1000
0010
0100
0001
1000
,
0100
1000
0010
0100
0001
0010
0001
1000
,
0010
0000
0100
0000
0001
0010
0100
1000
0010
0100
0001
1000
0100
0010
0001
1000
,
0110
0000
1001
0000
0010
0100
0110
0100
,
1001
1000
1100
0000
0010
0001
0000
0011
,
0001
0000
1001
0000
0000
0000
1000
0010
0100
0000
0001
0000
0110
0000
0000
0000
,
1010
0100
0101
0000
0010
1000
0000
1010
,
0010
0000
0011
0000
0000
0000
1000
0001
0020
0000
0130
0000
2100
0000
0000
3000
,
0011
0001
1001
0000
0100
1000
0000
0011
,
0001
0000
0101
0000
0000
0000
0001
0010
0100
0000
1000
0000
0110
0000
0000
0000
,
0110
0010
1001
0000
1000
0001
0000
0101
,
0001
0000
0000
1001
0000
0000
0000
0000
0000
0000
0000
0000
0110
0000
0100
0000
1000
0000
1010
0000
0000
0000
0000
0000
,
0011
0010
1100
0000
0010
0100
0000
0110
,
0100
0000
0011
0000
0000
0000
1000
0100
0010
0000
0001
0000
0101
0000
0000
0000
,
1010
0000
0001
0000
1010
0000
0000
0000
0001
1000
0100
0000
0000
0000
0011
0000
,
0000
0000
0001
1000
0100
0000
0010
0000
0012
0000
0000
0003
2100
0000
0000
3000
,
0011
0000
0100
0000
0110
0000
0000
0000
1000
0010
0100
0000
0000
0000
0101
0000
,
0000
0000
0001
1000
0100
0000
0010
0000
0011
0000
0001
0000
1001
0000
0000
0000
,
1010
0000
0100
0000
0101
0000
0000
0000
0001
1000
0100
0000
0000
0000
0011
0000
,
0000
0000
0000
0000
0000
0000
1000
0000
0000
0010
0000
0000
0100
0000
0000
0000
0000
0000
0001
0000
0000
0000
0000
0000
1100
0000
0000
0000
0010
0000
0000
0000
0100
0000
0000
0000
1001
0000
0000
0000
0000
0000
0000
0000
0000
0000
0000
0000
,
1000
0000
0010
0001
0100
0000
0010
1000
0100
0000
0010
0001
1000
0000
0100
0000
,
0011
0010
0110
0100
1100
0010
0110
1001
,
0100
0000
0010
0001
1000
0000
0100
1000
0010
0000
0100
0001
1000
0000
0010
0000
,
0110
0100
1010
0100
0101
0010
1001
0110
,
1000
0000
0100
1000
0001
0000
0010
0001
0100
0000
0010
1000
0001
0000
0100
0000
,
0011
0100
1100
0010
0110
0001
1100
1010
,
0001
0000
0010
1000
0001
0000
0100
0001
0010
0000
0100
1000
0001
0000
0100
0000
,
0110
0100
0011
0001
1001
0100
0110
0011
,
1000
0000
0010
0001
0100
0000
0010
1000
0100
0000
0010
0001
1000
0000
0100
0000
,
0011
0010
0110
0100
1100
0010
0110
1001
,
0100
0000
0010
0001
1000
0000
0100
1000
0010
0000
0100
0001
1000
0000
0010
0000
,
0110
0100
1010
0100
0101
0010
1001
0110
,
1000
0000
0100
1000
0001
0000
0010
0001
0100
0000
0010
1000
0001
0000
0100
0000
,
0011
0100
1100
0010
0110
0001
1100
1010
,
1001
0100
1001
0000
0110
0001
0110
1000
,
0001
0000
0000
1000
0000
0000
0000
0000
0100
0000
0000
0000
2000
0000
0000
0000
0000
0000
0000
0000
0000
0000
0000
0000
0000
0000
0000
0000
0000
0000
0000
0000
0000
0000
0000
0000
3002
0000
0000
0000
0000
0000
0000
0000
0000
0000
0000
0000
,
0000
0203
0000
2300
,
0000
3002
0000
2003
,
0000
3200
0000
0320
,
0000
0000
0000
0000
0000
0000
0000
0000
0000
0000
0000
0000
0032
0000
0000
0000
0000
0000
0000
0000
0000
0000
0000
0010
0003
1000
0000
0100
0000
0010
0000
0000
0000
0000
0010
0000
0000
0000
0000
0010
0000
0000
0000
0000
0000
0001
0000
0000
,
0000
0000
0000
0000
0000
0000
0000
0000
0000
0000
0000
0000
0000
0000
0000
0000
0000
0000
0000
0000
0000
0000
0000
0000
0000
0000
0000
0000
0000
0000
0000
0000
0000
0000
0000
0000
0000
0000
0000
0000
0000
0000
0000
0000
0000
0000
0000
0000
0000
0000
0000
0000
1000
0000
0000
0000
0000
0000
0000
0000
0000
0000
0000
0000
0000
0000
0000
0000
0000
0000
0000
0000
0000
0000
0000
0000
0000
0000
0000
0000
0000
0000
0000
0000
0000
0000
0000
0000
0000
0000
0000
0000
0000
0000
0000
0000
0000
0000
0000
0000
0000
0000
0000
0000
0000
0000
0000
0000
0000
0000
0000
0000
0000
0000
0000
0000
0000
0000
0000
0000
0000
0000
0000
0000
0000
0000
0000
0000
0000
0000
0000
0000
0000
0000
0000
0000
0000
0000
0000
0000
0000
0000
0000
0000
0000
0000
0000
0000
0000
0000
0000
0000
0000
0000
0000
0000
0100
0000
0000
0000
0000
0000
0000
0000
0001
0000
0000
0000
0000
0000
0000
0000
0000
0000
0000
0000
0000
1000
0000
0000
0000
0000
0000
0000
0000
0000
0100
0000
0000
0000
0000
0000
,
0000
0000
0000
0010
0000
0000
0000
0000
0001
0000
0000
0000
1000
0000
0000
0010
0000
0000
0000
0000
0000
0000
0000
0000
0000
0000
0000
0000
0000
0000
0000
0000
0000
0000
0000
0000
0000
0000
0000
1000
0000
0000
0000
0000
0000
0001
0000
0000
0000
0001
0000
0000
0000
1000
0000
0000
0000
0000
0010
0000
0000
0000
0000
0100
,
0000
0000
0000
0000
0000
0000
0000
0000
0000
0000
0000
0000
0000
0000
0000
0000
0000
0000
0000
0000
0000
0000
0000
0000
0000
0000
0000
0000
0000
0000
0000
0000
0010
0000
0000
0000
0000
1000
0000
0000
0000
0000
0000
0000
0100
0000
0000
0000
0010
0000
0000
0000
0000
0000
0000
0000
0000
0000
0000
0000
0000
0000
0000
0000
,
0000
0000
0000
0000
0000
0000
0000
0000
0000
0000
0000
0000
0000
0000
0000
0000
0001
0000
0010
0000
0100
0000
1000
0000
0010
0000
0000
0000
0100
0000
0000
0000
0100
0000
0000
0000
0010
0000
0000
0000
0000
1000
0000
0000
0000
0000
0001
0000
0000
0000
0000
0000
0100
0000
0000
0000
0000
0000
0000
0000
0000
0000
0000
0000
,
0000
0000
0000
0000
0000
0000
0000
0000
0000
0000
0000
0000
0000
0000
0000
1000
0000
0001
0000
0000
0000
0000
0100
0000
0000
0000
0000
0010
0000
0000
1000
0000
0010
0000
0000
0000
0100
0000
0000
0000
0000
0000
0000
0000
0000
0000
0000
0000
0000
0000
0000
0000
0000
0000
0000
0000
0000
0000
0000
0000
0000
0000
0000
0000
,
0000
0000
1000
0000
0000
0000
0001
0000
0000
0010
0000
0000
0100
0000
0000
0000
1000
0000
0000
0000
0000
0010
0000
0000
0000
0000
0000
0000
0000
0000
0000
0000
0000
0000
0000
0000
0000
0000
0000
0000
0000
0000
0000
0000
0000
0010
0000
0000
0000
0000
0100
0000
0000
0000
0000
0000
0000
0010
0000
0000
0000
0000
0000
0000
,
0000
0000
0000
0000
0000
0000
0001
0000
0000
0000
0000
0000
0000
0000
0000
0000
0000
0000
0000
0000
0000
0000
0000
0000
0000
0000
0000
0001
0000
0000
0000
0000
0000
0000
0000
0000
0000
0000
0000
0000
0000
0000
0000
0000
0000
0000
0000
0000
0000
0000
0000
0000
0000
0000
0000
0000
0000
0100
0000
0000
0000
0000
0000
0000
0000
0000
0000
0000
0000
0000
0000
0000
0000
0000
0000
0000
0000
0000
0000
0000
0000
0000
0000
0000
0010
0000
0000
0000
0000
0000
0000
0000
0000
0000
0000
0000
0000
0000
0000
0000
0000
0000
0000
0000
0000
0000
0000
0000
0000
0000
0000
0000
0000
0000
0000
0000
0200
0000
0000
0000
0000
0000
0000
0000
0000
0000
0000
0000
0000
0000
0000
0000
0000
0000
0000
0000
0000
0000
0000
0000
0000
0000
0000
0000
0000
0000
0000
0000
0000
0000
0000
0000
0000
0000
0000
0000
0000
0000
0000
0000
0000
0000
0000
0000
0000
0000
0000
0000
0000
0000
0000
0000
0000
0000
0000
0000
0000
0000
0000
0000
0000
0000
0000
0300
0000
0000
0000
0000
0000
0000
0000
0000
,
2000
0000
0000
3020
0000
0000
0230
0000
0000
0302
0000
0000
2003
0000
3200
0000
,
0320
0000
0000
0032
0000
0000
2003
0000
0000
3020
0000
0000
0230
0000
0000
0302
,
2003
0000
0000
3020
0000
0000
0230
0000
0000
0302
0000
0000
2003
0000
3020
0000
,
0230
0000
0000
0302
0000
0000
2003
0000
0000
3020
0000
0000
2030
0000
0000
3002
,
1003
0000
0010
0100
0000
0100
0001
0000
,
0001
0010
0000
0010
0100
0000
1000
0001
,
0100
0000
0001
1000
0000
1000
0100
0000
,
0100
0010
0000
0010
0001
1000
0010
0100
,
0001
0000
1000
0010
0000
0010
0100
0000
,
0100
0001
0000
0001
1000
0000
1000
0010
,
0100
0000
0001
0010
0000
0010
0001
0000
,
1000
0100
0000
0100
1000
0010
0100
0001
,
0011
0000
1000
0100
1100
0000
0010
0100
,
0110
0000
0001
0010
2100
0000
3210
0000
,
0311
0000
0010
0001
1100
0000
0010
1000
,
0101
0000
0000
0000
0000
0000
1000
0000
0000
0100
0000
0000
0011
0000
0010
0000
0100
0000
1100
0000
0000
0000
0000
0000
,
0011
0000
0010
0100
1001
0000
0100
0010
,
1001
0000
0010
0100
0012
0000
1203
0000
,
0301
0010
0001
1000
0010
0100
0010
1000
0100
0010
0001
0010
0100
1000
0010
0100
,
1001
0000
1001
0000
0010
0100
0010
0100
,
1001
0100
0010
0001
1000
0010
0100
0001
,
0010
0001
1000
0010
0100
0010
1000
0001
,
1000
0100
1000
0010
0100
0001
0010
0100
,
0010
0001
1000
0010
0100
0010
1000
0010
,
1000
0001
0100
0010
1000
0001
0010
0100
,
1000
0010
0100
0001
1000
0100
0010
0001
,
0010
0100
0010
0001
1000
0010
1000
0001
,
0010
0001
1000
0100
0010
0001
1000
0010
,
0100
0010
1001
0001
1000
0010
0110
0001
,
0010
0100
1010
0010
0100
0010
1001
0100
,
0010
0001
0110
0100
1000
0010
0101
0001
,
0100
1000
0110
0100
0010
0100
1010
0010
,
0100
0010
1010
0001
0100
0010
0101
0001
,
0100
1000
0011
0100
0001
0010
0110
0001
,
0010
0100
1100
0100
0010
0001
0011
0100
,
1010
0110
0101
1001
1100
0011
0110
0110
,
1000
0010
0100
0001
0010
0001
1000
0010
0100
0001
1000
0100
0010
0001
0010
0001
,
1000
0010
0100
0001
0010
0001
0100
0010
1000
0100
1000
0010
0100
0001
0010
0100
,
0010
0001
1000
0010
0100
0010
1000
0001
1000
0100
0010
0001
1000
0010
0100
0001
,
1000
0010
0100
0010
1000
0001
0010
0001
0100
0001
0010
0100
0010
0001
1000
0010
,
0100
0001
1000
0001
0100
0010
0100
0001
1000
0100
0010
0100
1000
0010
0100
0001
,
1000
0100
1000
0010
0100
0001
0010
0001
1000
0100
0010
0001
0010
0100
1000
0010
,
0100
0001
0100
0010
1000
0001
1000
0100
1000
0010
1000
0001
0100
0001
1000
0010
,
0100
0001
0010
0100
1000
0010
0100
0001
1000
0010
0100
0001
1000
0100
0010
0100
,
1000
0010
0100
0001
0010
0001
1000
0010
0100
0010
1000
0001
0010
0100
0010
0001
,
1000
0010
0100
0001
0010
0100
1000
0010
0100
0010
1000
0100
0010
0001
0010
0001
,
1000
0010
0100
0010
0100
0001
1000
0010
1000
0001
0100
0001
0010
0001
1000
0010
,
0100
0001
1000
0100
0010
0001
0010
0100
1000
0010
0100
0001
1000
0010
0100
0010
,
1000
0001
0100
0010
1000
0001
0010
0100
0010
0001
0010
0001
1000
0001
0100
0010
,
1000
0010
0100
0001
1000
0100
0010
0100
1000
0001
0010
0100
1000
0001
0010
0100
,
0010
0001
1000
0010
0100
0001
1000
0100
0010
0100
0010
0100
1000
0001
0100
0010
,
1001
1100
1001
0101
1001
0011
1001
1010
,
0001
0010
0100
1000
0010
0100
0001
1000
0100
1000
0010
0100
0001
0010
0001
1000
,
0100
0010
0100
1000
0010
0100
0001
0100
0010
0100
0001
0010
0100
0010
0001
1000
,
0010
0100
0001
1000
0100
0010
0001
1000
0010
0100
0001
0010
0100
1000
0001
1000
,
0100
1000
0010
0100
0001
0010
0001
1000
0100
1000
0010
0100
0001
1000
0010
1000
,
0001
0100
0001
1000
0100
0010
0100
1000
0010
0100
0001
0010
0100
1000
0010
0100
,
0001
1000
0010
0100
0001
1000
0100
0010
0100
1000
0010
0100
0001
0010
0100
0010
,
0001
1000
0010
0100
0001
1000
0100
1000
0010
0100
0010
0100
0001
0010
0001
1000
,
0010
0100
0001
1000
0010
0100
0010
1000
0100
0010
0001
1000
0010
0100
0001
0010
,
0100
1000
0010
0100
0001
1000
0100
0010
0001
1000
0010
0100
0010
1000
0001
0100
,
0010
0100
0001
1000
0010
0100
0001
0010
0100
1000
0010
0100
0001
1000
0010
0100
,
0010
1000
0010
0100
0001
1000
0010
0100
0001
1000
0010
1000
0001
0010
0100
0010
,
0100
1000
0010
0100
0001
1000
0010
1000
0100
1000
0010
0100
0010
1000
0001
0100
,
0001
0010
0001
1000
0010
0100
0010
1000
0001
0100
0001
0010
0100
1000
0010
0100
,
0001
1000
0010
0100
0010
1000
0001
0010
0001
1000
0010
0100
0001
1000
0100
0010
,
0100
1000
0010
0100
0001
1000
0100
0010
0001
1000
0010
0100
0010
1000
0001
0100
,
0010
1000
0001
0010
0100
1000
0010
0100
0010
1000
0001
0010
0100
1000
0010
0100
,
1001
0000
0000
0000
;
